osu file format v14

[General]
AudioFilename: audio.mp3
AudioLeadIn: 0
PreviewTime: 63584
Countdown: 0
SampleSet: None
StackLeniency: 0.7
Mode: 1
LetterboxInBreaks: 0
WidescreenStoryboard: 1

[Editor]
DistanceSpacing: 3.1
BeatDivisor: 4
GridSize: 32
TimelineZoom: 1

[Metadata]
Title:Bad Guy (We Are Number One Remix)
TitleUnicode:Bad Guy (We Are Number One Remix)
Artist:RoomieOfficial
ArtistUnicode:RoomieOfficial
Creator:mikku1
Version:Muzukashii
Source:Lazy Town
Tags:1 roomie official billie eilish stefan karl stefansson meme when we all fall asleep where do we go
BeatmapID:2137978
BeatmapSetID:1021844

[Difficulty]
HPDrainRate:6
CircleSize:5
OverallDifficulty:4.5
ApproachRate:5
SliderMultiplier:1.4
SliderTickRate:1

[Events]
//Background and Video events
0,0,"lol.jpg",0,0
//Break Periods
//Storyboard Layer 0 (Background)
//Storyboard Layer 1 (Fail)
//Storyboard Layer 2 (Pass)
//Storyboard Layer 3 (Foreground)
//Storyboard Layer 4 (Overlay)
//Storyboard Sound Samples

[TimingPoints]
140,444.444444444444,4,1,0,25,1,0
140,-200,4,1,0,25,0,0
7028,-133.333333333333,4,1,0,25,0,0
21473,-200,4,1,0,25,0,0
35473,-133.333333333333,4,1,0,25,0,0
48806,-114.285714285714,4,1,0,25,0,0
49695,-100,4,1,0,25,0,0
63695,-133.333333333333,4,1,0,25,0,0
67251,-114.285714285714,4,1,0,25,0,0
67590,-100,4,1,0,25,0,0
81917,-133.333333333333,4,1,0,25,0,0
95028,-114.285714285714,4,1,0,25,0,0
96139,-100,4,1,0,25,0,0
109917,-133.333333333333,4,1,0,25,0,0
113473,-114.285714285714,4,1,0,25,0,0
113917,-66.6666666666667,4,1,0,25,0,0
126806,-100,4,1,0,25,0,0

[HitObjects]
256,192,140,5,0,0:0:0:0:
256,192,806,1,8,0:0:0:0:
256,192,1028,1,0,0:0:0:0:
256,192,1139,1,0,0:0:0:0:
256,192,1251,1,8,0:0:0:0:
256,192,1362,1,8,0:0:0:0:
256,192,1473,1,0,0:0:0:0:
256,192,1695,1,8,0:0:0:0:
256,192,1917,1,8,0:0:0:0:
256,192,2362,1,0,0:0:0:0:
256,192,3028,1,0,0:0:0:0:
256,192,3251,1,0,0:0:0:0:
256,192,3473,1,8,0:0:0:0:
256,192,3695,1,8,0:0:0:0:
256,192,4139,1,0,0:0:0:0:
256,192,4584,1,0,0:0:0:0:
256,192,5028,1,8,0:0:0:0:
256,192,5473,1,8,0:0:0:0:
256,192,5695,1,8,0:0:0:0:
256,192,5917,1,0,0:0:0:0:
256,192,6139,1,8,0:0:0:0:
256,192,6362,1,0,0:0:0:0:
256,192,6806,1,12,0:0:0:0:
256,192,7251,1,0,0:0:0:0:
256,192,7917,1,0,0:0:0:0:
256,192,8139,1,8,0:0:0:0:
256,192,8362,1,0,0:0:0:0:
256,192,8806,1,0,0:0:0:0:
256,192,9251,1,0,0:0:0:0:
256,192,9695,1,0,0:0:0:0:
256,192,9917,1,8,0:0:0:0:
256,192,10139,1,0,0:0:0:0:
256,192,10362,1,0,0:0:0:0:
256,192,10806,1,8,0:0:0:0:
256,192,11473,1,0,0:0:0:0:
256,192,11695,1,8,0:0:0:0:
256,192,11917,1,8,0:0:0:0:
256,192,12362,1,8,0:0:0:0:
256,192,12806,1,8,0:0:0:0:
256,192,13251,1,0,0:0:0:0:
256,192,13473,1,8,0:0:0:0:
256,192,13695,1,8,0:0:0:0:
256,192,13917,1,0,0:0:0:0:
256,192,14362,1,0,0:0:0:0:
256,192,15028,1,0,0:0:0:0:
256,192,15251,1,8,0:0:0:0:
256,192,15473,1,0,0:0:0:0:
256,192,15917,1,0,0:0:0:0:
256,192,16362,1,0,0:0:0:0:
256,192,16806,1,0,0:0:0:0:
256,192,17028,1,8,0:0:0:0:
256,192,17251,1,0,0:0:0:0:
256,192,17473,1,8,0:0:0:0:
256,192,17917,1,8,0:0:0:0:
256,192,18584,1,0,0:0:0:0:
256,192,18806,1,8,0:0:0:0:
256,192,19028,1,8,0:0:0:0:
256,192,19473,1,8,0:0:0:0:
256,192,19917,1,8,0:0:0:0:
256,192,20362,1,0,0:0:0:0:
256,192,20584,1,0,0:0:0:0:
256,192,20695,1,8,0:0:0:0:
256,192,20806,1,0,0:0:0:0:
256,192,20917,1,8,0:0:0:0:
256,192,21028,1,0,0:0:0:0:
256,192,21251,1,8,0:0:0:0:
256,192,21473,1,4,0:0:0:0:
256,192,21917,1,0,0:0:0:0:
256,192,22584,1,8,0:0:0:0:
256,192,23028,1,8,0:0:0:0:
256,192,23473,1,8,0:0:0:0:
256,192,23917,1,8,0:0:0:0:
256,192,24362,1,0,0:0:0:0:
256,192,24584,1,8,0:0:0:0:
256,192,25028,1,8,0:0:0:0:
256,192,25473,1,8,0:0:0:0:
256,192,26139,1,0,0:0:0:0:
256,192,26584,1,0,0:0:0:0:
256,192,27028,1,0,0:0:0:0:
256,192,27473,1,8,0:0:0:0:
256,192,27917,1,8,0:0:0:0:
256,192,28139,1,8,0:0:0:0:
256,192,28584,1,8,0:0:0:0:
256,192,29028,1,8,0:0:0:0:
256,192,29695,1,0,0:0:0:0:
256,192,30139,1,0,0:0:0:0:
256,192,30584,1,0,0:0:0:0:
256,192,31028,1,8,0:0:0:0:
256,192,31473,1,8,0:0:0:0:
256,192,31695,1,8,0:0:0:0:
256,192,32139,1,0,0:0:0:0:
256,192,32584,1,0,0:0:0:0:
256,192,33250,1,8,0:0:0:0:
256,192,33695,1,8,0:0:0:0:
256,192,34139,1,0,0:0:0:0:
256,192,34362,1,0,0:0:0:0:
256,192,34806,1,0,0:0:0:0:
256,192,34917,1,8,0:0:0:0:
256,192,35028,1,0,0:0:0:0:
256,192,35139,1,8,0:0:0:0:
256,192,35251,1,8,0:0:0:0:
256,192,35695,1,0,0:0:0:0:
256,192,36139,1,8,0:0:0:0:
256,192,36806,1,8,0:0:0:0:
256,192,37251,1,8,0:0:0:0:
256,192,37695,1,8,0:0:0:0:
256,192,38139,1,8,0:0:0:0:
256,192,38584,1,0,0:0:0:0:
256,192,38806,1,8,0:0:0:0:
256,192,39251,1,0,0:0:0:0:
256,192,39695,1,8,0:0:0:0:
256,192,40362,1,8,0:0:0:0:
256,192,40807,1,8,0:0:0:0:
256,192,41251,1,8,0:0:0:0:
256,192,41695,1,8,0:0:0:0:
256,192,42140,1,0,0:0:0:0:
256,192,42362,1,8,0:0:0:0:
256,192,42806,1,0,0:0:0:0:
256,192,43250,1,8,0:0:0:0:
256,192,43917,1,8,0:0:0:0:
256,192,44362,1,8,0:0:0:0:
256,192,44806,1,8,0:0:0:0:
256,192,45250,1,8,0:0:0:0:
256,192,45695,1,0,0:0:0:0:
256,192,45917,1,8,0:0:0:0:
256,192,46362,1,0,0:0:0:0:
256,192,46806,1,8,0:0:0:0:
256,192,47473,1,8,0:0:0:0:
256,192,47918,1,8,0:0:0:0:
256,192,48362,1,8,0:0:0:0:
256,192,48584,1,0,0:0:0:0:
256,192,48806,1,0,0:0:0:0:
256,192,48880,1,0,0:0:0:0:
256,192,48954,1,0,0:0:0:0:
256,192,49028,1,8,0:0:0:0:
256,192,49251,1,0,0:0:0:0:
256,192,49473,1,0,0:0:0:0:
256,192,49695,1,12,0:0:0:0:
256,192,49917,1,0,0:0:0:0:
256,192,50139,1,8,0:0:0:0:
256,192,50251,1,8,0:0:0:0:
256,192,50362,1,0,0:0:0:0:
256,192,50806,1,0,0:0:0:0:
256,192,51028,1,8,0:0:0:0:
256,192,51139,1,8,0:0:0:0:
256,192,51251,1,0,0:0:0:0:
256,192,51473,1,8,0:0:0:0:
256,192,51695,1,0,0:0:0:0:
256,192,51917,1,8,0:0:0:0:
256,192,52028,1,8,0:0:0:0:
256,192,52140,1,0,0:0:0:0:
256,192,52584,1,0,0:0:0:0:
256,192,52806,1,8,0:0:0:0:
256,192,52917,1,8,0:0:0:0:
256,192,53029,1,0,0:0:0:0:
256,192,53251,1,8,0:0:0:0:
256,192,53473,1,0,0:0:0:0:
256,192,53695,1,8,0:0:0:0:
256,192,53806,1,8,0:0:0:0:
256,192,53918,1,0,0:0:0:0:
256,192,54362,1,0,0:0:0:0:
256,192,54584,1,8,0:0:0:0:
256,192,54695,1,8,0:0:0:0:
256,192,54807,1,0,0:0:0:0:
256,192,55029,1,8,0:0:0:0:
256,192,55251,1,0,0:0:0:0:
256,192,55473,1,8,0:0:0:0:
256,192,55584,1,8,0:0:0:0:
256,192,55696,1,0,0:0:0:0:
256,192,56584,1,0,0:0:0:0:
256,192,56806,1,8,0:0:0:0:
256,192,57028,1,8,0:0:0:0:
256,192,57250,1,0,0:0:0:0:
256,192,57362,1,0,0:0:0:0:
256,192,57473,1,8,0:0:0:0:
256,192,57917,1,8,0:0:0:0:
256,192,58139,1,0,0:0:0:0:
256,192,58251,1,0,0:0:0:0:
256,192,58362,1,8,0:0:0:0:
256,192,58584,1,0,0:0:0:0:
256,192,58806,1,8,0:0:0:0:
256,192,59028,1,0,0:0:0:0:
256,192,59139,1,0,0:0:0:0:
256,192,59251,1,8,0:0:0:0:
256,192,59695,1,8,0:0:0:0:
256,192,59917,1,0,0:0:0:0:
256,192,60028,1,0,0:0:0:0:
256,192,60140,1,8,0:0:0:0:
256,192,60362,1,0,0:0:0:0:
256,192,60584,1,8,0:0:0:0:
256,192,60806,1,0,0:0:0:0:
256,192,60917,1,0,0:0:0:0:
256,192,61029,1,8,0:0:0:0:
256,192,61473,1,8,0:0:0:0:
256,192,61695,1,0,0:0:0:0:
256,192,61806,1,0,0:0:0:0:
256,192,61918,1,8,0:0:0:0:
256,192,62140,1,0,0:0:0:0:
256,192,62362,1,8,0:0:0:0:
256,192,62584,1,0,0:0:0:0:
256,192,62695,1,0,0:0:0:0:
256,192,62807,1,8,0:0:0:0:
256,192,63695,1,8,0:0:0:0:
256,192,63991,1,0,0:0:0:0:
256,192,64288,12,0,65177,0:0:0:0:
256,192,65473,12,0,66251,0:0:0:0:
256,192,67251,6,0,L|256:256,1,61.2500005841255
256,192,67695,1,0,0:0:0:0:
256,192,67917,1,8,0:0:0:0:
256,192,68362,1,0,0:0:0:0:
256,192,68584,1,0,0:0:0:0:
256,192,68806,1,8,0:0:0:0:
256,192,69028,1,8,0:0:0:0:
256,192,69251,1,0,0:0:0:0:
256,192,69473,1,0,0:0:0:0:
256,192,69695,1,8,0:0:0:0:
256,192,70139,1,0,0:0:0:0:
256,192,70362,1,0,0:0:0:0:
256,192,70584,1,8,0:0:0:0:
256,192,70806,1,8,0:0:0:0:
256,192,71028,1,0,0:0:0:0:
256,192,71251,1,8,0:0:0:0:
256,192,71695,1,0,0:0:0:0:
256,192,72139,1,8,0:0:0:0:
256,192,72584,1,8,0:0:0:0:
256,192,73028,1,0,0:0:0:0:
256,160,74362,1,12,0:0:0:0:
256,192,74806,1,0,0:0:0:0:
256,192,75028,1,8,0:0:0:0:
256,192,75473,1,0,0:0:0:0:
256,192,75695,1,0,0:0:0:0:
256,192,75917,1,8,0:0:0:0:
256,192,76139,1,8,0:0:0:0:
256,192,76362,1,0,0:0:0:0:
256,192,76584,1,0,0:0:0:0:
256,192,76806,1,8,0:0:0:0:
256,192,77250,1,0,0:0:0:0:
256,192,77473,1,0,0:0:0:0:
256,192,77695,1,8,0:0:0:0:
256,192,77917,1,8,0:0:0:0:
256,192,78139,1,0,0:0:0:0:
256,192,78362,1,8,0:0:0:0:
256,192,78806,1,0,0:0:0:0:
256,192,79250,1,8,0:0:0:0:
256,192,79695,1,8,0:0:0:0:
256,192,80139,1,0,0:0:0:0:
256,160,81473,5,12,0:0:0:0:
256,192,81917,5,0,0:0:0:0:
256,192,82584,1,0,0:0:0:0:
256,192,82806,1,8,0:0:0:0:
256,192,83028,1,0,0:0:0:0:
256,192,83473,1,0,0:0:0:0:
256,192,83917,1,0,0:0:0:0:
256,192,84362,1,0,0:0:0:0:
256,192,84584,1,8,0:0:0:0:
256,192,84806,1,0,0:0:0:0:
256,192,85028,1,0,0:0:0:0:
256,192,85473,1,8,0:0:0:0:
256,192,85695,1,8,0:0:0:0:
256,192,85917,1,0,0:0:0:0:
256,192,86139,1,8,0:0:0:0:
256,192,86362,1,8,0:0:0:0:
256,192,86806,1,8,0:0:0:0:
256,192,87251,1,8,0:0:0:0:
256,192,87695,1,0,0:0:0:0:
256,192,87917,1,8,0:0:0:0:
256,192,89028,5,0,0:0:0:0:
256,192,89695,1,0,0:0:0:0:
256,192,89917,1,8,0:0:0:0:
256,192,90139,1,0,0:0:0:0:
256,192,90584,1,0,0:0:0:0:
256,192,91028,1,0,0:0:0:0:
256,192,91473,1,0,0:0:0:0:
256,192,91695,1,8,0:0:0:0:
256,192,91917,1,0,0:0:0:0:
256,192,92139,1,8,0:0:0:0:
256,192,92584,1,8,0:0:0:0:
256,192,92806,1,8,0:0:0:0:
256,192,93028,1,8,0:0:0:0:
256,192,93251,1,0,0:0:0:0:
256,192,93473,1,8,0:0:0:0:
256,192,93695,1,8,0:0:0:0:
256,192,93917,1,8,0:0:0:0:
256,192,94139,1,0,0:0:0:0:
256,192,94362,1,8,0:0:0:0:
256,192,94695,1,8,0:0:0:0:
256,192,95028,1,0,0:0:0:0:
256,192,95102,1,0,0:0:0:0:
256,192,95177,1,0,0:0:0:0:
256,192,95251,1,8,0:0:0:0:
256,192,95473,1,0,0:0:0:0:
256,192,95695,1,0,0:0:0:0:
256,192,95917,1,12,0:0:0:0:
256,192,96139,1,0,0:0:0:0:
256,192,96806,1,8,0:0:0:0:
256,192,97028,1,8,0:0:0:0:
256,192,97139,1,0,0:0:0:0:
256,192,97251,1,8,0:0:0:0:
256,192,97362,1,0,0:0:0:0:
256,192,97473,1,8,0:0:0:0:
256,192,97695,1,8,0:0:0:0:
256,192,97917,1,8,0:0:0:0:
256,192,98362,1,8,0:0:0:0:
256,192,99028,1,0,0:0:0:0:
256,192,99251,1,0,0:0:0:0:
256,192,99473,1,8,0:0:0:0:
256,192,99695,1,8,0:0:0:0:
256,192,100139,1,0,0:0:0:0:
256,192,100584,1,8,0:0:0:0:
256,192,101028,1,8,0:0:0:0:
256,192,101473,1,0,0:0:0:0:
256,192,101695,1,8,0:0:0:0:
256,192,101917,1,0,0:0:0:0:
256,192,102139,1,8,0:0:0:0:
256,192,102362,1,0,0:0:0:0:
256,192,102806,1,12,0:0:0:0:
256,192,103251,1,8,0:0:0:0:
256,192,103695,1,8,0:0:0:0:
256,192,104139,1,0,0:0:0:0:
256,192,105028,1,8,0:0:0:0:
256,192,105472,1,8,0:0:0:0:
256,192,105917,1,0,0:0:0:0:
256,192,106806,1,8,0:0:0:0:
256,192,107250,1,8,0:0:0:0:
256,192,107694,1,0,0:0:0:0:
256,192,108584,1,8,0:0:0:0:
256,192,109028,1,8,0:0:0:0:
256,192,109917,1,8,0:0:0:0:
256,192,110213,1,0,0:0:0:0:
256,192,110510,12,0,111399,0:0:0:0:
256,192,111695,12,0,112473,0:0:0:0:
256,192,113473,6,0,L|256:256,1,61.2500005841255
256,192,113917,1,8,0:0:0:0:
256,192,114139,1,8,0:0:0:0:
256,192,114251,1,0,0:0:0:0:
256,192,114362,1,0,0:0:0:0:
256,192,114584,1,8,0:0:0:0:
256,192,114806,1,8,0:0:0:0:
256,192,115028,1,8,0:0:0:0:
256,192,115139,1,0,0:0:0:0:
256,192,115251,1,8,0:0:0:0:
256,192,115473,1,8,0:0:0:0:
256,192,115695,1,8,0:0:0:0:
256,192,115917,1,8,0:0:0:0:
256,192,116028,1,0,0:0:0:0:
256,192,116140,1,0,0:0:0:0:
256,192,116362,1,8,0:0:0:0:
256,192,116584,1,8,0:0:0:0:
256,192,116806,1,8,0:0:0:0:
256,192,116917,1,0,0:0:0:0:
256,192,117029,1,8,0:0:0:0:
256,192,117251,1,8,0:0:0:0:
256,192,117473,1,8,0:0:0:0:
256,192,117695,1,8,0:0:0:0:
256,192,117806,1,8,0:0:0:0:
256,192,117918,1,0,0:0:0:0:
256,192,118140,1,0,0:0:0:0:
256,192,118362,1,8,0:0:0:0:
256,192,118584,1,8,0:0:0:0:
256,192,118695,1,0,0:0:0:0:
256,192,118806,1,8,0:0:0:0:
256,192,119029,1,8,0:0:0:0:
256,192,119251,1,0,0:0:0:0:
256,192,120584,1,12,0:0:0:0:
256,192,121028,1,8,0:0:0:0:
256,192,121250,1,8,0:0:0:0:
256,192,121362,1,0,0:0:0:0:
256,192,121473,1,0,0:0:0:0:
256,192,121695,1,8,0:0:0:0:
256,192,121917,1,8,0:0:0:0:
256,192,122139,1,8,0:0:0:0:
256,192,122250,1,0,0:0:0:0:
256,192,122362,1,8,0:0:0:0:
256,192,122584,1,8,0:0:0:0:
256,192,122806,1,8,0:0:0:0:
256,192,123028,1,8,0:0:0:0:
256,192,123139,1,0,0:0:0:0:
256,192,123251,1,0,0:0:0:0:
256,192,123473,1,8,0:0:0:0:
256,192,123695,1,8,0:0:0:0:
256,192,123917,1,8,0:0:0:0:
256,192,124028,1,0,0:0:0:0:
256,192,124140,1,8,0:0:0:0:
256,192,124362,1,8,0:0:0:0:
256,192,124584,1,8,0:0:0:0:
256,192,124806,1,8,0:0:0:0:
256,192,124917,1,8,0:0:0:0:
256,192,125029,1,0,0:0:0:0:
256,192,125251,1,0,0:0:0:0:
256,192,125473,1,8,0:0:0:0:
256,192,125695,5,8,0:0:0:0:
256,192,125806,1,0,0:0:0:0:
256,192,125917,1,8,0:0:0:0:
256,192,126140,1,8,0:0:0:0:
256,192,126362,1,12,0:0:0:0:
256,192,127399,12,0,128288,0:0:0:0:
256,192,128584,12,0,129362,0:0:0:0:
