osu file format v14

[General]
AudioFilename: audio.mp3
AudioLeadIn: 0
PreviewTime: 58224
Countdown: 0
SampleSet: Soft
StackLeniency: 0.7
Mode: 0
LetterboxInBreaks: 0
WidescreenStoryboard: 0

[Editor]
DistanceSpacing: 1
BeatDivisor: 4
GridSize: 4
TimelineZoom: 1

[Metadata]
Title:Mata ne Bye Bye feat.Rika
TitleUnicode:またねバイバイ feat.利香
Artist:Room97
ArtistUnicode:Room97
Creator:timemon
Version:Normal
Source:
Tags:Girl's Over tsutsuminium のりる
BeatmapID:1425385
BeatmapSetID:673361

[Difficulty]
HPDrainRate:4
CircleSize:3
OverallDifficulty:4
ApproachRate:5
SliderMultiplier:1
SliderTickRate:1

[Events]
//Background and Video events
0,0,"ayy lmaov2.jpg",0,0
//Break Periods
2,84866,95836
2,205290,217627
//Storyboard Layer 0 (Background)
//Storyboard Layer 1 (Fail)
//Storyboard Layer 2 (Pass)
//Storyboard Layer 3 (Foreground)
//Storyboard Sound Samples

[TimingPoints]
911,447.761194029851,4,2,1,35,1,0
911,-100,4,2,1,35,0,0
15239,-100,4,2,1,60,0,0
29567,-100,4,2,1,60,0,0
43896,-100,4,2,1,50,0,0
51060,-100,4,2,1,60,0,0
55090,-100,4,2,1,60,0,0
58224,-100,4,2,1,70,0,1
70985,-100,4,2,1,70,0,0
72552,-100,4,2,1,70,0,1
83299,-100,4,2,1,60,0,0
97627,-100,4,2,1,60,0,0
110612,-100,4,2,1,60,0,0
111955,-100,4,2,1,60,0,0
122478,-100,4,2,1,60,0,0
126284,-100,4,2,1,50,0,0
133448,-100,4,2,1,60,0,0
137030,-100,4,2,1,60,0,0
137925,-100,4,2,1,60,0,0
138821,-100,4,2,1,60,0,0
140612,-100,4,2,1,70,0,1
153373,-100,4,2,1,70,0,0
154940,-100,4,2,1,70,0,1
165687,-100,4,2,1,60,0,0
178224,-100,4,2,1,60,0,0
180015,-100,4,2,1,60,0,0
190761,-100,4,2,1,50,0,0
197925,-100,4,2,1,60,0,0
203522,-100,4,2,1,20,0,0
205090,-100,4,2,1,50,0,0
219418,-100,4,2,1,50,0,0
230164,-100,4,2,1,70,0,1
242925,-100,4,2,1,70,0,0
243597,-100,4,2,1,70,0,0
244493,-100,4,2,1,70,0,1
255239,-100,4,2,1,70,0,0
255687,-100,4,2,1,35,0,0
274940,-100,4,2,1,5,0,0

[Colours]
Combo1 : 213,213,170
Combo2 : 128,191,255
Combo3 : 192,192,192
Combo4 : 128,198,255

[HitObjects]
158,88,910,6,0,L|279:85,2,100,4|0|0,0:0|0:0|0:0,0:0:0:0:
84,156,2254,1,0,0:0:0:0:
84,156,2478,2,0,L|87:277,1,100,2|2,0:0|0:0,0:0:0:0:
87,305,3149,1,0,0:0:0:0:
178,263,3597,1,0,0:0:0:0:
240,341,4045,1,0,0:0:0:0:
316,275,4493,6,0,P|359:256|426:271,2,100,2|0|0,0:0|0:0|0:0,0:0:0:0:
246,203,5836,1,0,0:0:0:0:
246,203,6060,2,0,L|252:103,1,100,2|2,0:0|0:0,0:0:0:0:
256,53,6731,1,0,0:0:0:0:
341,104,7179,1,0,0:0:0:0:
427,53,7627,1,0,0:0:0:0:
490,130,8075,6,0,L|484:230,1,100,2|0,0:0|0:0,0:0:0:0:
384,218,8970,2,0,L|390:118,1,100,0|0,0:0|0:0,0:0:0:0:
393,68,9642,2,0,P|353:82|290:60,1,100,2|2,0:0|0:0,0:0:0:0:
256,41,10313,1,0,0:0:0:0:
185,111,10761,1,0,0:0:0:0:
221,204,11209,1,0,0:0:0:0:
168,288,11657,6,0,L|58:278,2,100,2|0|0,0:0|0:0|0:0,0:0:0:0:
221,204,13000,1,0,0:0:0:0:
300,264,13448,1,2,0:0:0:0:
390,144,14119,1,2,0:0:0:0:
106,104,15239,6,0,L|112:222,1,100,2|0,0:0|0:0,0:0:0:0:
117,253,15911,1,0,0:0:0:0:
117,253,16134,2,0,L|120:312,1,50
201,360,16806,2,0,L|300:350,2,100,2|2|0,0:0|0:0|0:0,0:0:0:0:
119,302,18149,1,0,0:0:0:0:
214,164,18821,6,0,L|98:175,1,100,2|0,0:0|0:0,0:0:0:0:
66,187,19493,1,0,0:0:0:0:
66,187,19716,2,0,B|51:222|51:222|73:298,2,100,0|0|0,0:0|0:0|0:0,0:0:0:0:
131,110,21060,1,0,0:0:0:0:
205,176,21508,1,0,0:0:0:0:
282,112,21955,1,0,0:0:0:0:
344,189,22403,6,0,P|380:202|453:177,1,100,2|0,0:0|0:0,0:0:0:0:
475,154,23075,1,0,0:0:0:0:
475,154,23299,2,0,L|470:96,1,50
399,34,23970,2,0,L|299:42,2,100,2|0|0,0:0|0:0|0:0,0:0:0:0:
498,23,25313,1,0,0:0:0:0:
479,171,25985,6,0,B|492:217|492:217|482:286,1,100,2|0,0:0|0:0,0:0:0:0:
450,305,26657,1,2,0:0:0:0:
450,305,26881,2,0,L|344:294,2,100,0|0|2,0:0|0:0|0:0,0:0:0:0:
253,364,28672,2,0,L|250:315,1,50,0|0,0:0|3:0,0:0:0:0:
249,264,29119,1,8,0:0:0:0:
244,164,29567,6,0,L|129:165,1,100,4|8,0:0|0:0,0:0:0:0:
115,123,30239,2,0,L|110:68,2,50,0|0|2,0:0|0:0|0:0,0:0:0:0:
57,204,31134,2,0,P|47:247|80:306,2,100,2|2|0,0:0|0:0|0:0,0:0:0:0:
115,123,32478,2,0,L|224:142,1,100,2|0,0:0|0:0,0:0:0:0:
243,180,33149,6,0,L|352:161,1,100,2|8,0:0|0:0,0:0:0:0:
381,127,33821,1,0,0:0:0:0:
381,127,34045,2,0,P|417:166|421:233,1,100,0|8,0:0|0:0,0:0:0:0:
412,259,34716,1,2,0:0:0:0:
331,318,35164,2,0,L|263:310,1,50,0|8,0:0|0:0,0:0:0:0:
253,270,35612,2,0,P|208:256|147:281,1,100,2|2,0:0|0:0,0:0:0:0:
123,306,36284,1,8,0:0:0:0:
49,238,36731,6,0,L|56:118,1,100,2|8,0:0|0:0,0:0:0:0:
154,147,37627,2,0,L|148:246,1,100,0|8,0:0|0:0,0:0:0:0:
176,288,38299,2,0,L|275:293,2,100,2|2|0,0:0|0:0|0:0,0:0:0:0:
37,345,39866,1,8,0:0:0:0:
37,345,40090,6,0,B|20:288|20:288|35:229,1,100,4|2,0:0|0:0,0:0:0:0:
65,213,40761,1,8,0:0:0:0:
65,213,40985,2,0,L|2:191,2,50,8|8|8,3:0|3:0|3:0,0:0:0:0:
110,302,41881,2,0,L|179:298,1,50,4|0,0:0|0:0,0:0:0:0:
187,257,42328,5,6,0:0:0:0:
252,332,42776,1,6,0:0:0:0:
280,235,43224,2,0,L|329:237,2,50,8|8|0,3:0|3:0|3:0,0:0:0:0:
239,200,43896,6,0,L|251:93,1,100,4|8,0:0|0:0,0:0:0:0:
383,31,45015,2,0,L|449:42,1,50,0|8,0:0|0:0,0:0:0:0:
466,75,45463,2,0,P|485:116|469:181,1,100,2|2,0:0|0:0,0:0:0:0:
434,195,46134,1,0,0:0:0:0:
434,195,46358,2,0,L|320:174,1,100,8|2,0:0|0:0,0:0:0:0:
286,165,47030,1,4,0:0:0:0:
236,252,47478,6,0,L|285:261,2,50,4|0|0,0:0|0:0|0:0,0:0:0:0:
138,138,48597,2,0,L|128:187,1,50,0|8,0:0|0:0,0:0:0:0:
89,218,49045,2,0,L|90:327,1,100,4|2,0:0|0:0,0:0:0:0:
125,353,49716,1,8,0:0:0:0:
203,290,50164,1,0,3:0:0:0:
274,359,50612,1,8,0:0:0:0:
338,282,51060,6,0,P|334:187|334:187,2,75,4|0|0,0:0|0:0|0:0,0:0:0:0:
372,318,51955,2,0,P|410:295|469:303,1,100,2|8,0:0|0:0,0:0:0:0:
500,334,52627,2,0,L|496:219,1,100,2|2,0:0|0:0,0:0:0:0:
478,187,53299,1,8,0:0:0:0:
478,187,53522,2,0,L|363:191,1,100,2|2,0:0|0:0,0:0:0:0:
295,133,54418,1,0,0:0:0:0:
295,133,54642,6,0,P|275:81|285:44,2,75,4|0|0,0:0|0:0|0:0,0:0:0:0:
342,147,55537,2,0,L|337:202,1,50,2|2,0:0|0:0,0:0:0:0:
302,232,55985,1,8,0:0:0:0:
219,174,56433,1,8,0:0:0:0:
219,174,56657,2,0,L|164:169,2,50,8|8|8,0:0|0:0|0:0,0:0:0:0:
287,100,57552,2,0,L|397:90,1,100,0|8,0:0|0:0,0:0:0:0:
426,121,58224,6,0,B|445:157|445:157|445:237,1,100,4|8,0:0|0:0,0:0:0:0:
406,248,58896,1,2,0:0:0:0:
406,248,59119,2,0,L|321:234,2,75,10|2|2,0:0|0:0|0:0,0:0:0:0:
441,283,60015,2,0,P|452:316|450:359,2,75,10|2|2,0:0|0:0|0:0,0:0:0:0:
406,248,60911,2,0,P|395:215|397:172,2,75,10|2|2,0:0|0:0|0:0,0:0:0:0:
441,283,61806,6,0,L|319:296,1,100,8|8,0:0|0:0,0:0:0:0:
307,330,62478,1,2,0:0:0:0:
307,330,62702,2,0,P|269:333|234:322,2,75,10|0|2,0:0|0:0|0:0,0:0:0:0:
341,293,63597,2,0,L|348:219,2,75,10|2|2,0:0|0:0|0:0,0:0:0:0:
307,330,64493,2,0,L|381:337,2,75,10|2|2,0:0|0:0|0:0,0:0:0:0:
264,356,65388,6,0,B|201:363|201:363|158:340,1,100,8|8,0:0|0:0,0:0:0:0:
117,259,66284,2,0,P|103:219|110:178,2,75,8|0|2,0:0|0:0|0:0,0:0:0:0:
157,288,67179,2,0,L|247:284,2,75,10|2|2,0:0|0:0|0:0,0:0:0:0:
127,328,68075,2,0,L|52:331,2,75,10|2|2,0:0|0:0|0:0,0:0:0:0:
157,288,68970,6,0,B|154:225|154:225|139:177,1,100,8|8,0:0|0:0,0:0:0:0:
58,135,69866,1,8,0:0:0:0:
79,37,70313,1,8,0:0:0:0:
79,37,70537,1,8,0:0:0:0:
161,93,70985,6,0,L|278:80,1,100,4|8,0:0|0:0,0:0:0:0:
282,36,71657,2,0,L|378:46,2,75,8|12|12,3:0|3:0|3:0,0:0:0:0:
260,81,72552,6,0,B|239:116|239:116|256:188,1,100,4|8,0:0|0:0,0:0:0:0:
299,262,73448,2,0,L|291:357,2,75,10|2|2,0:0|0:0|0:0,0:0:0:0:
331,223,74343,2,0,P|363:209|418:210,2,75,10|2|2,0:0|0:0|0:0,0:0:0:0:
281,215,75239,2,0,P|249:201|194:202,2,75,10|2|2,0:0|0:0|0:0,0:0:0:0:
299,262,76134,6,0,L|290:361,1,100,8|8,0:0|0:0,0:0:0:0:
189,361,77030,2,0,P|136:371|101:354,2,75,8|0|2,0:0|0:0|0:0,0:0:0:0:
225,326,77925,1,8,0:0:0:0:
151,257,78373,1,8,0:0:0:0:
214,179,78821,2,0,L|325:194,1,100,8|8,0:0|0:0,0:0:0:0:
396,137,79716,6,0,B|374:112|374:112|374:57,2,75,8|0|2,0:0|0:0|0:0,0:0:0:0:
433,173,80612,2,0,L|419:272,1,100,8|8,0:0|0:0,0:0:0:0:
377,299,81284,1,2,0:0:0:0:
377,299,81508,2,0,P|340:281|292:291,2,75,10|2|2,0:0|0:0|0:0,0:0:0:0:
405,340,82403,2,0,L|492:335,2,75,10|2|8,0:0|0:0|0:0,0:0:0:0:
365,371,83299,5,0,0:0:0:0:
99,75,97627,6,0,L|95:192,1,100,4|8,0:0|0:0,0:0:0:0:
120,218,98299,2,0,L|181:217,2,50,0|0|2,0:0|0:0|0:0,0:0:0:0:
45,285,99194,2,0,P|28:332|43:385,2,100,2|2|0,0:0|0:0|0:0,0:0:0:0:
120,218,100537,2,0,L|234:238,1,100,2|0,0:0|0:0,0:0:0:0:
245,192,101209,6,0,L|359:172,1,100,2|8,0:0|0:0,0:0:0:0:
381,208,101881,1,0,0:0:0:0:
381,208,102105,2,0,P|404:258|399:313,1,100,0|8,0:0|0:0,0:0:0:0:
385,348,102776,1,0,0:0:0:0:
290,314,103224,2,0,L|227:320,2,50,2|8|2,0:0|0:0|0:0,0:0:0:0:
335,224,104119,1,2,0:0:0:0:
212,137,104791,6,0,L|100:146,1,100,2|8,0:0|0:0,0:0:0:0:
72,114,105463,2,0,L|67:58,2,50,0|0|2,0:0|0:0|0:0,0:0:0:0:
37,207,106358,2,0,P|21:252|30:310,2,100,2|2|0,0:0|0:0|0:0,0:0:0:0:
116,267,107702,2,0,L|218:281,1,100,2|2,0:0|0:0,0:0:0:0:
241,322,108373,6,0,P|297:292|336:298,1,100,0|8,0:0|0:0,0:0:0:0:
368,329,109045,1,0,0:0:0:0:
368,329,109269,2,0,L|470:343,1,100,0|8,0:0|0:0,0:0:0:0:
496,247,110164,2,0,L|493:182,1,50,2|2,0:0|0:0,0:0:0:0:
491,146,110612,1,12,0:0:0:0:
424,71,111060,2,0,L|316:77,1,100,8|8,0:0|3:0,0:0:0:0:
247,12,111955,6,0,P|222:54|233:118,1,100,4|8,0:0|0:0,0:0:0:0:
262,137,112627,2,0,L|321:134,2,50,0|0|2,0:0|0:0|0:0,0:0:0:0:
206,220,113522,2,0,L|88:214,2,100,2|2|0,0:0|0:0|0:0,0:0:0:0:
267,298,114866,1,2,0:0:0:0:
190,362,115313,1,0,0:0:0:0:
190,362,115537,6,0,L|72:356,1,100,2|8,0:0|0:0,0:0:0:0:
49,327,116209,1,0,0:0:0:0:
49,327,116433,2,0,L|55:209,1,100,0|8,0:0|0:0,0:0:0:0:
57,177,117105,1,2,0:0:0:0:
136,116,117552,2,0,L|203:121,1,50,2|8,0:0|0:0,0:0:0:0:
220,155,118000,2,0,P|257:137|326:145,2,100,2|2|0,0:0|0:0|0:0,0:0:0:0:
186,192,119119,6,0,B|171:235|171:235|183:299,1,100,2|8,0:0|0:0,0:0:0:0:
268,338,120015,2,0,P|295:317|371:311,1,100,0|8,0:0|0:0,0:0:0:0:
398,276,120687,2,0,L|371:173,2,100,2|2|0,0:0|0:0|0:0,0:0:0:0:
271,195,122254,1,8,0:0:0:0:
271,195,122478,6,0,L|298:92,1,100,4|2,0:0|0:0,0:0:0:0:
310,52,123149,1,8,0:0:0:0:
310,52,123373,2,0,L|373:67,2,50,8|8|2,3:0|3:0|0:0,0:0:0:0:
218,10,124269,2,0,L|155:25,1,50,4|0,0:0|0:0,0:0:0:0:
123,41,124716,5,6,0:0:0:0:
94,136,125164,1,6,0:0:0:0:
186,176,125612,2,0,L|179:299,1,100,8|0,3:0|3:0,0:0:0:0:
141,307,126284,6,0,P|97:320|35:292,1,100,4|8,0:0|0:0,0:0:0:0:
8,158,127403,2,0,L|5:92,1,50,0|8,0:0|0:0,0:0:0:0:
36,68,127851,2,0,B|112:48|112:96|204:72,1,150,2|0,0:0|0:0,0:0:0:0:
218,41,128746,2,0,P|246:83|240:144,1,100,8|2,0:0|0:0,0:0:0:0:
226,177,129418,1,12,0:0:0:0:
157,249,129866,6,0,P|99:243|98:243,2,50,4|0|0,0:0|0:0|0:0,0:0:0:0:
270,347,130985,2,0,L|324:340,1,50,0|8,0:0|0:0,0:0:0:0:
337,293,131433,2,0,L|438:308,1,100,4|2,0:0|0:0,0:0:0:0:
467,268,132105,1,8,0:0:0:0:
419,179,132552,1,0,3:0:0:0:
466,91,133000,1,8,0:0:0:0:
395,20,133448,6,0,L|306:28,2,75,4|0|0,0:0|0:0|0:0,0:0:0:0:
434,50,134343,1,2,0:0:0:0:
487,134,134791,1,8,0:0:0:0:
487,134,135015,2,0,L|486:240,1,100,2|2,0:0|0:0,0:0:0:0:
446,264,135687,1,8,0:0:0:0:
446,264,135911,2,0,P|404:243|352:250,1,100,0|2,0:0|0:0,0:0:0:0:
272,308,136806,1,0,0:0:0:0:
272,308,137030,6,0,L|183:305,2,75,4|0|0,0:0|0:0|0:0,0:0:0:0:
312,278,137925,1,2,0:0:0:0:
360,365,138373,1,8,0:0:0:0:
422,287,138821,1,8,0:0:0:0:
422,287,139045,2,0,L|418:230,2,50,8|8|8,0:0|0:0|0:0,0:0:0:0:
360,365,139940,2,0,L|244:348,1,100,0|8,0:0|0:0,0:0:0:0:
211,359,140612,6,0,P|224:326|205:248,1,100,4|8,0:0|0:0,0:0:0:0:
183,224,141284,1,0,0:0:0:0:
183,224,141508,2,0,L|92:235,2,75,10|2|2,0:0|0:0|0:0,0:0:0:0:
218,189,142403,2,0,P|227:152|215:103,2,75,10|2|0,0:0|0:0|0:0,0:0:0:0:
183,224,143299,2,0,P|174:261|186:310,2,75,10|2|2,0:0|0:0|0:0,0:0:0:0:
218,189,144194,6,0,L|340:202,1,100,8|8,0:0|0:0,0:0:0:0:
352,163,144866,1,0,0:0:0:0:
352,163,145090,2,0,L|360:69,2,75,8|0|2,0:0|0:0|0:0,0:0:0:0:
388,197,145985,2,0,P|405:225|397:286,2,75,10|2|2,0:0|0:0|0:0,0:0:0:0:
352,163,146881,2,0,P|319:163|270:126,2,75,10|2|2,0:0|0:0|0:0,0:0:0:0:
381,122,147776,6,0,P|416:97|482:94,1,100,8|8,0:0|0:0,0:0:0:0:
501,187,148672,2,0,L|496:272,2,75,8|0|2,0:0|0:0|0:0,0:0:0:0:
452,197,149567,2,0,P|407:209|365:196,2,75,10|2|2,0:0|0:0|0:0,0:0:0:0:
501,187,150463,2,0,P|506:150|494:114,2,75,10|2|2,0:0|0:0|0:0,0:0:0:0:
452,197,151358,6,0,L|331:186,1,100,8|8,0:0|0:0,0:0:0:0:
282,115,152254,1,8,0:0:0:0:
233,202,152702,1,8,0:0:0:0:
233,202,152925,1,8,0:0:0:0:
160,133,153373,6,0,B|138:76|138:76|150:16,1,100,4|8,0:0|0:0,0:0:0:0:
189,14,154045,1,8,3:0:0:0:
189,14,154269,2,0,L|244:14,2,50,4|0|0,0:0|3:0|3:0,0:0:0:0:
145,37,154940,6,0,P|116:77|121:141,1,100,4|8,0:0|0:0,0:0:0:0:
142,168,155612,1,0,0:0:0:0:
142,168,155836,2,0,L|237:161,2,75,10|2|2,0:0|0:0|0:0,0:0:0:0:
110,206,156731,2,0,P|99:247|119:293,2,75,10|2|0,0:0|0:0|0:0,0:0:0:0:
142,168,157627,2,0,P|153:127|133:81,2,75,10|2|2,0:0|0:0|0:0,0:0:0:0:
178,202,158522,6,0,L|301:196,1,100,8|8,0:0|0:0,0:0:0:0:
354,262,159418,2,0,L|449:271,2,75,8|0|2,0:0|0:0|0:0,0:0:0:0:
321,299,160313,2,0,P|276:284|213:294,1,100,8|8,0:0|0:0,0:0:0:0:
146,226,161209,2,0,L|150:119,1,100,8|8,0:0|0:0,0:0:0:0:
206,43,162105,6,0,P|258:30|292:35,2,75,8|0|0,0:0|0:0|0:0,0:0:0:0:
160,22,163000,2,0,L|48:18,1,100,8|8,0:0|0:0,0:0:0:0:
23,52,163672,1,2,0:0:0:0:
23,52,163896,2,0,L|28:144,2,75,10|2|0,0:0|0:0|0:0,0:0:0:0:
60,18,164791,2,0,L|152:13,2,75,10|2|8,0:0|0:0|0:0,0:0:0:0:
23,52,165687,6,0,L|30:172,1,100,4|8,0:0|0:0,0:0:0:0:
106,212,166582,2,0,L|101:332,1,100,8|8,0:0|0:0,0:0:0:0:
195,348,167478,2,0,P|235:367|296:344,1,100,8|8,0:0|0:0,0:0:0:0:
329,326,168149,1,2,0:0:0:0:
281,238,168597,1,2,0:0:0:0:
342,159,169045,1,2,0:0:0:0:
342,159,169269,6,0,L|452:173,1,100,8|8,0:0|0:0,0:0:0:0:
499,252,170164,2,0,L|486:351,1,100,8|8,0:0|0:0,0:0:0:0:
386,351,171060,2,0,P|339:327|294:333,1,100,8|8,0:0|0:0,0:0:0:0:
247,351,171731,1,2,0:0:0:0:
216,255,172179,1,2,0:0:0:0:
149,329,172627,1,2,0:0:0:0:
149,329,172851,6,0,P|125:293|124:225,1,100,8|8,0:0|0:0,0:0:0:0:
184,156,173746,2,0,L|295:173,1,100,8|8,0:0|0:0,0:0:0:0:
306,73,174642,2,0,L|207:57,1,100,8|8,0:0|0:0,0:0:0:0:
120,107,175537,2,0,B|97:140|97:140|109:217,1,100,8|8,0:0|0:0,0:0:0:0:
118,298,176433,6,0,P|161:270|223:274,1,100,8|8,0:0|0:0,0:0:0:0:
287,330,177328,1,8,0:0:0:0:
332,240,177776,1,8,0:0:0:0:
332,240,178000,1,8,0:0:0:0:
263,166,178448,2,0,L|143:178,1,100,4|8,0:0|0:0,0:0:0:0:
133,216,179119,2,0,P|121:254|133:304,2,75,8|8|8,3:0|3:0|3:0,0:0:0:0:
108,172,180015,6,0,L|118:62,1,100,4|8,0:0|0:0,0:0:0:0:
216,83,180911,2,0,L|206:182,1,100,8|8,0:0|0:0,0:0:0:0:
276,254,181806,2,0,P|323:271|379:258,1,100,8|8,0:0|0:0,0:0:0:0:
414,237,182478,1,2,0:0:0:0:
360,152,182925,1,2,0:0:0:0:
453,115,183373,1,2,0:0:0:0:
453,115,183597,6,0,L|449:233,1,100,8|8,0:0|0:0,0:0:0:0:
377,284,184493,2,0,P|339:263|265:269,1,100,8|8,0:0|0:0,0:0:0:0:
244,294,185164,1,2,0:0:0:0:
244,294,185388,2,0,L|127:288,1,100,8|8,0:0|0:0,0:0:0:0:
94,201,186284,2,0,L|193:206,1,100,8|8,0:0|0:0,0:0:0:0:
261,132,187179,6,0,B|273:82|273:82|267:25,1,100,8|8,0:0|0:0,0:0:0:0:
168,18,188075,2,0,L|57:23,1,100,8|8,0:0|0:0,0:0:0:0:
25,112,188970,2,0,P|14:160|36:211,1,100,8|8,0:0|0:0,0:0:0:0:
68,240,189642,1,2,0:0:0:0:
68,240,189866,2,0,L|182:225,1,100,8|8,0:0|0:0,0:0:0:0:
199,188,190537,1,8,0:0:0:0:
199,188,190761,6,0,L|193:123,2,50,8|8|8,3:0|3:0|3:0,0:0:0:0:
346,273,192328,6,0,L|342:160,1,100,4|2,0:0|0:0,0:0:0:0:
442,170,193224,2,0,L|445:269,1,100,8|2,0:0|0:0,0:0:0:0:
449,320,193896,1,12,0:0:0:0:
360,365,194343,6,0,L|303:355,2,50,2|0|0,0:0|0:0|0:0,0:0:0:0:
402,337,195015,1,2,0:0:0:0:
402,337,195239,2,0,L|398:237,1,100,2|8,0:0|0:0,0:0:0:0:
396,186,195911,2,0,P|346:202|287:182,1,100,4|2,0:0|0:0,0:0:0:0:
258,165,196582,1,8,0:0:0:0:
300,74,197030,1,0,0:0:0:0:
222,10,197478,1,0,0:0:0:0:
158,87,197925,6,0,L|164:179,2,75,4|0|0,0:0|0:0|0:0,0:0:0:0:
155,36,198821,1,2,0:0:0:0:
244,79,199269,1,8,0:0:0:0:
244,79,199493,2,0,P|284:98|347:78,1,100,2|2,0:0|0:0,0:0:0:0:
374,53,200164,1,8,0:0:0:0:
374,53,200388,2,0,L|473:72,1,100,0|2,0:0|0:0,0:0:0:0:
503,111,201060,1,8,0:0:0:0:
468,204,201508,5,2,3:2:0:0:
328,148,202179,1,2,3:2:0:0:
341,297,202851,1,6,3:2:0:0:
209,225,203522,6,0,L|98:236,2,100,2|2|2,0:0|0:0|0:0,0:0:0:0:
278,152,204866,5,8,0:0:0:0:
278,152,205090,1,4,0:0:0:0:
397,109,219418,6,0,L|390:229,1,100,4|0,0:0|0:0,0:0:0:0:
312,271,220313,2,0,P|268:283|233:268,2,75,0|0|2,0:0|0:0|0:0,0:0:0:0:
342,230,221209,2,0,L|341:148,2,75,2|0|2,0:0|0:0|0:0,0:0:0:0:
390,242,222105,2,0,L|390:316,2,75,2|0|2,0:0|0:0|0:0,0:0:0:0:
426,207,223000,1,0,0:0:0:0:
257,76,224119,6,0,P|207:65|154:84,1,100,2|2,0:0|0:0,0:0:0:0:
120,108,224791,2,0,L|129:222,2,100,2|0|0,0:0|0:0|0:0,0:0:0:0:
299,89,226582,6,0,L|397:77,2,75,2|0|2,0:0|0:0|0:0,0:0:0:0:
264,125,227478,1,0,0:0:0:0:
347,249,228149,1,2,0:0:0:0:
347,249,228373,2,0,P|355:288|347:339,2,75,2|0|2,0:0|0:0|0:0,0:0:0:0:
305,221,229269,2,0,P|297:182|305:131,2,75,0|0|0,0:0|0:0|0:0,0:0:0:0:
273,259,230164,6,0,L|171:248,1,100,4|8,0:0|0:0,0:0:0:0:
129,272,230836,1,2,0:0:0:0:
129,272,231060,2,0,P|114:304|131:356,2,75,10|2|2,0:0|0:0|0:0,0:0:0:0:
173,248,231955,2,0,L|172:154,2,75,10|2|2,0:0|0:0|0:0,0:0:0:0:
206,285,232851,2,0,L|280:284,2,75,10|2|2,0:0|0:0|0:0,0:0:0:0:
174,323,233746,6,0,P|106:340|69:320,1,100,8|8,0:0|0:0,0:0:0:0:
42,296,234418,1,2,0:0:0:0:
42,296,234642,2,0,L|36:379,2,75,8|0|2,0:0|0:0|0:0,0:0:0:0:
68,253,235537,2,0,P|111:239|151:241,2,75,10|2|2,0:0|0:0|0:0,0:0:0:0:
26,224,236433,2,0,P|12:181|14:141,2,75,10|2|2,0:0|0:0|0:0,0:0:0:0:
68,253,237328,6,0,L|61:360,1,100,8|8,0:0|0:0,0:0:0:0:
161,364,238224,2,0,L|251:363,2,75,8|0|2,0:0|0:0|0:0,0:0:0:0:
133,322,239119,2,0,P|128:283|146:234,2,75,10|2|2,0:0|0:0|0:0,0:0:0:0:
100,359,240015,2,0,L|18:351,2,75,10|2|2,0:0|0:0|0:0,0:0:0:0:
133,322,240911,6,0,B|174:299|174:299|243:315,1,100,8|8,0:0|0:0,0:0:0:0:
311,362,241806,1,8,0:0:0:0:
350,270,242254,1,8,0:0:0:0:
350,270,242478,1,8,0:0:0:0:
287,192,242925,6,0,L|176:206,1,100,4|8,0:0|0:0,0:0:0:0:
147,235,243597,2,0,P|133:278|146:324,2,75,8|12|12,3:0|3:0|3:0,3:0:0:0:
187,204,244493,6,0,L|298:218,1,100,4|8,0:0|0:0,0:0:0:0:
353,290,245388,2,0,P|392:269|436:269,2,75,10|2|2,0:0|0:0|0:0,0:0:0:0:
318,326,246284,2,0,L|231:298,2,75,10|2|2,0:0|0:0|0:0,0:0:0:0:
355,359,247179,2,0,L|442:331,2,75,10|2|2,0:0|0:0|0:0,0:0:0:0:
318,326,248075,6,0,P|278:310|210:322,1,100,8|8,0:0|0:0,0:0:0:0:
133,362,248970,2,0,L|46:353,2,75,8|0|2,0:0|0:0|0:0,0:0:0:0:
168,326,249866,1,8,0:0:0:0:
122,237,250313,1,8,0:0:0:0:
186,160,250761,2,0,L|183:52,1,100,8|8,0:0|0:0,0:0:0:0:
274,18,251657,6,0,P|312:33|359:24,2,75,8|0|2,0:0|0:0|0:0,0:0:0:0:
229,40,252552,2,0,L|226:148,1,100,8|8,0:0|0:0,0:0:0:0:
262,174,253224,1,2,0:0:0:0:
262,174,253448,2,0,P|309:155|355:153,2,75,10|2|2,0:0|0:0|0:0,0:0:0:0:
236,217,254343,2,0,P|189:198|143:196,2,75,10|2|8,0:0|0:0|0:0,0:0:0:0:
264,258,255239,6,0,L|384:257,2,100,4|0|0,0:0|0:0|0:0,0:0:0:0:
182,315,256582,1,0,0:0:0:0:
182,315,256806,2,0,P|125:337|70:323,1,100,2|2,0:0|0:0,0:0:0:0:
43,306,257478,1,0,0:0:0:0:
18,209,257925,1,0,0:0:0:0:
78,129,258373,1,0,0:0:0:0:
10,55,258821,6,0,P|56:32|114:37,2,100,2|0|0,0:0|0:0|0:0,0:0:0:0:
78,129,260164,1,0,0:0:0:0:
78,129,260388,2,0,L|188:125,1,100,2|2,0:0|0:0,0:0:0:0:
228,122,261060,1,0,0:0:0:0:
289,200,261508,1,0,0:0:0:0:
255,293,261955,1,0,0:0:0:0:
329,359,262403,6,0,P|367:337|430:340,2,100,2|0|0,0:0|0:0|0:0,0:0:0:0:
255,293,263746,1,0,0:0:0:0:
255,293,263970,2,0,L|265:186,1,100,2|2,0:0|0:0,0:0:0:0:
269,143,264642,1,0,0:0:0:0:
361,180,265090,1,0,0:0:0:0:
413,94,265537,1,0,0:0:0:0:
320,56,265985,6,0,L|197:68,2,100,2|0|0,0:0|0:0|0:0,0:0:0:0:
397,119,267328,1,0,0:0:0:0:
339,200,267776,2,0,L|344:311,1,100,2|0,0:0|0:0,0:0:0:0:
346,350,268448,5,2,0:0:0:0:
256,192,270015,12,0,274940,0:0:0:0:
