osu file format v14

[General]
AudioFilename: audio.mp3
AudioLeadIn: 0
PreviewTime: 58224
Countdown: 0
SampleSet: Soft
StackLeniency: 0.4
Mode: 0
LetterboxInBreaks: 0
WidescreenStoryboard: 0

[Editor]
DistanceSpacing: 1.5
BeatDivisor: 4
GridSize: 4
TimelineZoom: 1

[Metadata]
Title:Mata ne Bye Bye feat.Rika
TitleUnicode:またねバイバイ feat.利香
Artist:Room97
ArtistUnicode:Room97
Creator:timemon
Version:Insane
Source:
Tags:Girl's Over tsutsuminium のりる
BeatmapID:1425080
BeatmapSetID:673361

[Difficulty]
HPDrainRate:5.8
CircleSize:4
OverallDifficulty:8
ApproachRate:8.3
SliderMultiplier:1.6
SliderTickRate:1

[Events]
//Background and Video events
0,0,"ayy lmaov2.jpg",0,0
//Break Periods
2,84866,95836
2,205290,217627
//Storyboard Layer 0 (Background)
//Storyboard Layer 1 (Fail)
//Storyboard Layer 2 (Pass)
//Storyboard Layer 3 (Foreground)
//Storyboard Sound Samples

[TimingPoints]
911,447.761194029851,4,2,1,35,1,0
911,-125,4,2,1,35,0,0
15239,-125,4,2,1,60,0,0
29567,-100,4,2,1,60,0,0
40090,-83.3333333333333,4,2,1,60,0,0
42328,-66.6666666666667,4,2,1,60,0,0
43224,-83.3333333333333,4,2,1,60,0,0
43896,-125,4,2,1,50,0,0
49045,-125,4,2,1,50,0,0
51060,-100,4,2,1,60,0,0
54642,-100,4,2,1,60,0,0
55090,-83.3333333333333,4,2,1,60,0,0
58224,-83.3333333333333,4,2,1,70,0,1
70985,-83.3333333333333,4,2,1,70,0,0
71657,-66.6666666666667,4,2,1,70,0,0
72552,-83.3333333333333,4,2,1,70,0,1
83299,-125,4,2,1,60,0,0
97627,-100,4,2,1,60,0,0
110612,-83.3333333333333,4,2,1,60,0,0
111955,-100,4,2,1,60,0,0
122478,-83.3333333333333,4,2,1,60,0,0
126284,-125,4,2,1,50,0,0
133448,-100,4,2,1,60,0,0
137030,-83.3333333333333,4,2,1,60,0,0
137925,-100,4,2,1,60,0,0
138821,-100,4,2,1,60,0,0
140612,-83.3333333333333,4,2,1,70,0,1
153373,-66.6666666666667,4,2,1,70,0,0
154940,-83.3333333333333,4,2,1,70,0,1
165687,-100,4,2,1,60,0,0
178224,-83.3333333333333,4,2,1,60,0,0
180015,-100,4,2,1,60,0,0
190761,-125,4,2,1,50,0,0
197925,-100,4,2,1,60,0,0
203522,-100,4,2,1,20,0,0
205090,-125,4,2,1,50,0,0
219418,-125,4,2,1,50,0,0
230164,-83.3333333333333,4,2,1,70,0,1
242925,-83.3333333333333,4,2,1,70,0,0
243597,-66.6666666666667,4,2,1,70,0,0
244493,-83.3333333333333,4,2,1,70,0,1
255239,-125,4,2,1,70,0,0
255687,-125,4,2,1,35,0,0
274940,-125,4,2,1,5,0,0

[Colours]
Combo1 : 213,213,170
Combo2 : 128,191,255
Combo3 : 192,192,192
Combo4 : 128,198,255

[HitObjects]
380,87,910,5,4,0:0:0:0:
380,87,1358,2,0,L|381:180,1,64
461,186,1806,2,0,L|461:123,1,64
402,248,2254,1,0,0:0:0:0:
280,250,2478,2,0,P|339:234|418:258,1,128,2|2,0:0|0:0,0:0:0:0:
225,178,3149,2,0,P|200:206|191:237,1,64
214,315,3597,1,0,0:0:0:0:
214,315,4045,1,0,0:0:0:0:
136,351,4269,1,0,0:0:0:0:
68,298,4493,6,0,L|82:153,2,128,2|0|0,0:0|0:0|0:0,0:0:0:0:
90,88,5836,1,0,0:0:0:0:
90,88,6060,2,0,L|235:102,1,128,2|2,0:0|0:0,0:0:0:0:
264,37,6731,2,0,P|296:84|269:161,1,128
280,149,7627,1,0,0:0:0:0:
280,149,8075,6,0,B|321:163|321:163|401:134,2,128,2|0|0,0:0|0:0|0:0,0:0:0:0:
159,48,9418,1,0,0:0:0:0:
159,48,9642,2,0,L|26:39,1,128,2|2,0:0|0:0,0:0:0:0:
6,60,10313,1,0,0:0:0:0:
11,71,10761,1,0,0:0:0:0:
15,82,11209,1,0,0:0:0:0:
219,120,11657,6,0,L|139:125,1,64,2|0,0:0|0:0,0:0:0:0:
171,45,12105,2,0,L|91:50,1,64,0|2,0:0|0:0,0:0:0:0:
218,147,12552,2,0,L|298:152,1,64,0|2,0:0|0:0,0:0:0:0:
266,72,13000,2,0,L|346:77,1,64,0|2,0:0|0:0,0:0:0:0:
308,241,13448,5,2,0:0:0:0:
312,257,13896,5,0,0:0:0:0:
406,196,14120,1,2,0:0:0:0:
129,290,15239,6,0,B|197:270|197:322|268:296,1,128,2|0,0:0|0:0,0:0:0:0:
325,258,15911,1,0,0:0:0:0:
282,192,16134,1,0,0:0:0:0:
379,198,16358,2,0,P|400:230|404:270,1,64
343,375,16806,6,0,P|360:340|392:317,1,64,2|0,0:0|0:0,0:0:0:0:
477,300,17254,2,0,P|473:338|469:380,1,64,2|0,0:0|0:0,0:0:0:0:
398,191,17702,2,0,P|402:229|406:271,1,64
445,124,18149,1,0,0:0:0:0:
445,124,18821,6,0,B|400:96|352:128|352:128|308:152|264:120,1,192,2|0,0:0|0:0,0:0:0:0:
193,81,19716,2,0,P|229:127|223:216,1,128
134,166,20388,2,0,L|66:174,1,64,2|0,0:0|0:0,0:0:0:0:
95,74,20836,5,2,0:0:0:0:
100,68,20948,1,0,0:0:0:0:
105,62,21060,1,0,0:0:0:0:
193,81,21284,2,0,L|274:77,1,64
330,33,21731,1,0,0:0:0:0:
330,33,21955,1,0,0:0:0:0:
470,221,22403,6,0,P|426:196|332:209,1,128,2|0,0:0|0:0,0:0:0:0:
280,259,23075,1,0,0:0:0:0:
352,321,23299,1,0,0:0:0:0:
216,372,23522,2,0,P|209:341|215:303,1,64
322,229,23970,6,0,L|245:239,1,64,2|0,0:0|0:0,0:0:0:0:
242,156,24418,2,0,L|319:146,1,64,2|0,0:0|0:0,0:0:0:0:
289,67,24866,2,0,L|225:75,1,64
131,86,25313,1,0,0:0:0:0:
131,86,25985,6,0,P|99:137|195:135,1,192,2|2,0:0|0:0,0:0:0:0:
310,104,26881,1,0,0:0:0:0:
310,104,27105,2,0,P|273:97|235:89,1,64,2|0,0:0|0:0,0:0:0:0:
262,171,27552,1,2,0:0:0:0:
351,39,27776,6,0,L|358:176,1,128,2|2,0:0|0:0,0:0:0:0:
368,268,28448,1,0,0:0:0:0:
368,268,28560,1,0,0:0:0:0:
368,268,28672,1,0,0:0:0:0:
259,189,28896,1,0,3:0:0:0:
457,158,29119,1,8,0:0:0:0:
269,30,29567,6,0,L|258:210,1,160,4|8,0:0|0:0,0:0:0:0:
143,142,30239,1,0,0:0:0:0:
185,293,30463,1,0,0:0:0:0:
48,235,30687,2,0,P|89:232|142:227,1,80,2|8,0:0|0:0,0:0:0:0:
265,300,31134,2,0,P|224:297|171:292,1,80,2|0,0:0|0:0,0:0:0:0:
187,161,31582,6,0,P|182:122|191:77,1,80,2|8,0:0|0:0,0:0:0:0:
267,221,32030,2,0,P|272:260|263:305,1,80
353,167,32478,2,0,P|348:128|357:83,1,80,2|8,0:0|0:0,0:0:0:0:
138,23,32925,1,0,0:0:0:0:
138,23,33037,1,0,0:0:0:0:
138,23,33149,6,0,B|185:19|185:19|249:39|249:39|313:35,1,160,2|8,0:0|0:0,0:0:0:0:
407,29,33821,1,0,0:0:0:0:
360,187,34045,2,0,P|356:148|373:104,1,80,0|2,0:0|0:0,0:0:0:0:
454,159,34493,1,8,0:0:0:0:
376,280,34716,1,2,0:0:0:0:
376,280,35164,6,0,L|378:319,2,40,2|0|8,0:0|0:0|0:0,0:0:0:0:
429,228,35612,2,0,P|376:250|302:223,1,120,2|0,0:0|0:0,0:0:0:0:
296,221,36060,1,2,0:0:0:0:
369,148,36284,1,8,0:0:0:0:
269,121,36508,1,0,0:0:0:0:
424,305,36731,6,0,P|372:276|274:305,1,160,2|8,0:0|0:0,0:0:0:0:
178,332,37403,1,0,0:0:0:0:
88,186,37627,2,0,L|86:271,1,80,0|2,0:0|0:0,0:0:0:0:
188,142,38075,1,8,0:0:0:0:
6,44,38299,6,0,B|88:16|88:92|176:48,1,160,2|2,0:0|0:0,0:0:0:0:
278,42,38970,1,8,0:0:0:0:
249,195,39194,2,0,P|221:142|269:52,1,160,0|2,0:0|0:0,0:0:0:0:
158,24,39866,1,8,0:0:0:0:
116,207,40090,6,0,B|105:118|105:118|145:68,1,143.999995605469,4|0,0:0|0:0,0:0:0:0:
160,55,40537,1,2,0:0:0:0:
240,174,40761,1,8,0:0:0:0:
326,62,40985,1,8,3:0:0:0:
327,86,41096,1,8,3:0:0:0:
329,110,41208,1,8,3:0:0:0:
331,134,41320,1,8,3:0:0:0:
333,158,41432,1,8,3:0:0:0:
239,12,41657,1,8,0:0:0:0:
336,181,41881,6,0,L|237:174,1,95.9999970703126,4|0,0:0|0:0,0:0:0:0:
65,16,42328,5,6,0:0:0:0:
126,266,42552,1,8,0:0:0:0:
200,35,42776,5,6,0:0:0:0:
134,236,43000,1,8,0:0:0:0:
283,25,43224,5,8,3:0:0:0:
283,25,43336,1,8,3:0:0:0:
283,25,43448,2,8,L|217:32,1,47.9999985351563,8|8,3:0|3:0,3:0:0:0:
131,134,43672,2,0,L|197:141,1,47.9999985351563,0|0,3:0|3:0,3:0:0:0:
276,323,43896,6,0,P|297:253|264:189,1,128,4|8,0:0|0:0,0:0:0:0:
208,262,44567,2,0,L|132:252,1,64,2|2,0:0|0:0,0:0:0:0:
75,285,45015,1,0,0:0:0:0:
80,303,45239,1,8,0:0:0:0:
88,180,45463,6,0,B|66:248|66:248|84:321,1,128,2|2,0:0|0:0,0:0:0:0:
154,366,46134,1,0,0:0:0:0:
166,351,46358,2,0,P|214:325|285:358,1,128,8|2,0:0|0:0,0:0:0:0:
205,188,47030,1,4,0:0:0:0:
205,188,47478,6,0,L|200:114,2,64,4|0|0,0:0|0:0|0:0,0:0:0:0:
265,42,48149,1,2,0:0:0:0:
259,60,48373,1,2,0:0:0:0:
127,23,48597,2,0,L|122:86,1,64,0|8,0:0|0:0,0:0:0:0:
173,166,49045,2,0,P|211:162|241:169,1,64,4|0,0:0|0:0,0:0:0:0:
338,235,49493,5,2,0:0:0:0:
308,82,49717,1,8,0:0:0:0:
352,214,49940,5,2,0:0:0:0:
294,61,50164,1,0,3:3:0:0:
366,193,50388,5,2,0:0:0:0:
280,40,50611,1,8,0:0:0:0:
425,74,50836,1,0,3:0:0:0:
453,244,51060,6,0,P|407:226|313:252,1,120,4|0,0:0|0:0,0:0:0:0:
325,257,51508,1,8,0:0:0:0:
389,335,51731,1,0,0:0:0:0:
330,177,51955,2,0,L|324:263,1,80,2|2,0:0|0:0,0:0:0:0:
420,223,52403,1,8,0:0:0:0:
222,311,52627,6,0,L|227:231,1,80,2|0,0:0|0:0,0:0:0:0:
60,274,53075,1,2,0:0:0:0:
132,357,53299,1,8,0:0:0:0:
227,231,53522,2,0,L|222:311,1,80,2|2,0:0|0:0,0:0:0:0:
110,204,53970,2,0,L|116:125,1,80,2|8,0:0|0:0,0:0:0:0:
63,43,54418,1,0,0:0:0:0:
63,43,54530,1,0,0:0:0:0:
63,43,54642,6,0,P|119:27|187:59,1,120,4|0,0:0|0:0,0:0:0:0:
200,70,55090,1,8,0:0:0:0:
227,187,55313,1,0,0:0:0:0:
430,102,55537,1,2,0:0:0:0:
364,265,55761,1,2,0:0:0:0:
316,32,55985,1,8,0:0:0:0:
430,102,56209,6,0,L|428:152,2,47.9999985351563,0|0|8,0:0|0:0|0:0,0:0:0:0:
309,202,56657,1,8,0:0:0:0:
313,182,56769,1,8,0:0:0:0:
317,162,56881,1,8,0:0:0:0:
227,187,57105,1,8,0:0:0:0:
223,207,57217,1,8,0:0:0:0:
263,88,57552,6,0,L|215:86,3,47.9999985351563
159,142,58000,1,8,0:0:0:0:
159,142,58112,1,8,0:0:0:0:
159,142,58224,6,0,P|200:167|224:210,1,95.9999970703126,4|0,0:0|0:0,0:0:0:0:
100,331,58672,2,0,P|101:282|126:240,1,95.9999970703126,8|2,0:0|0:0,0:0:0:0:
338,305,59119,2,0,L|225:311,1,95.9999970703126,8|2,0:0|0:0,0:0:0:0:
216,313,59455,1,0,0:0:0:0:
216,313,59567,1,8,0:0:0:0:
297,201,59791,1,2,0:0:0:0:
210,65,60015,6,0,L|217:178,1,95.9999970703126,8|0,0:0|0:0,0:0:0:0:
297,201,60351,1,0,0:0:0:0:
297,201,60463,2,0,L|291:105,1,95.9999970703126,8|2,0:0|0:0,0:0:0:0:
134,120,60911,2,0,L|141:233,1,95.9999970703126,8|2,0:0|0:0,0:0:0:0:
221,256,61247,1,0,0:0:0:0:
221,256,61359,2,0,L|215:160,1,95.9999970703126,8|2,0:0|0:0,0:0:0:0:
472,355,61806,6,0,P|437:297|308:256,1,191.999994140625,8|8,0:0|0:0,0:0:0:0:
217,295,62478,1,2,0:0:0:0:
24,203,62702,2,0,L|174:213,1,143.999995605469,8|0,0:0|0:0,0:0:0:0:
194,214,63149,1,8,0:0:0:0:
240,377,63373,1,2,0:0:0:0:
375,162,63597,6,0,P|385:204|375:259,1,95.9999970703126,8|0,0:0|0:0,0:0:0:0:
296,201,63933,1,0,0:0:0:0:
296,201,64045,2,0,P|286:159|296:104,1,95.9999970703126,8|2,0:0|0:0,0:0:0:0:
224,261,64493,2,0,P|234:303|224:358,1,95.9999970703126,8|2,0:0|0:0,0:0:0:0:
145,300,64829,1,0,0:0:0:0:
145,300,64941,2,0,P|135:258|145:203,1,95.9999970703126,8|2,0:0|0:0,0:0:0:0:
286,98,65388,6,0,P|280:145|276:193,1,95.9999970703126,8|0,0:0|0:0,0:0:0:0:
116,196,65836,2,0,P|121:148|125:100,1,95.9999970703126,8|2,0:0|0:0,0:0:0:0:
193,28,66284,2,0,P|246:17|291:22,1,95.9999970703126,8|2,0:0|0:0,0:0:0:0:
287,21,66619,1,0,0:0:0:0:
287,21,66731,1,8,0:0:0:0:
248,118,66955,1,2,0:0:0:0:
93,86,67179,6,0,L|93:215,1,95.9999970703126,8|0,0:0|0:0,0:0:0:0:
176,244,67515,1,0,0:0:0:0:
176,244,67627,2,0,L|176:115,1,95.9999970703126,8|2,0:0|0:0,0:0:0:0:
428,257,68075,2,0,P|381:237|333:238,1,95.9999970703126,8|2,0:0|0:0,0:0:0:0:
279,182,68411,1,0,0:0:0:0:
279,182,68523,2,0,L|279:86,1,95.9999970703126,8|2,0:0|0:0,0:0:0:0:
90,251,68970,6,0,P|140:237|197:247,1,95.9999970703126,8|0,0:0|0:0,0:0:0:0:
350,126,69418,1,8,0:0:0:0:
324,267,69642,1,2,0:0:0:0:
183,242,69866,1,8,0:0:0:0:
208,100,70090,1,2,0:0:0:0:
324,267,70313,1,8,0:0:0:0:
327,253,70425,1,8,0:0:0:0:
330,239,70537,1,8,0:0:0:0:
260,335,70761,6,0,L|227:332,2,23.9999992675781,0|0|0,3:0|3:0|3:0,3:0:0:0:
278,370,70985,6,0,P|314:329|417:325,1,143.999995605469,4|0,0:0|0:0,0:0:0:0:
475,246,71433,1,8,0:0:0:0:
477,231,71545,1,8,0:0:0:0:
479,213,71657,6,0,L|486:78,1,120.000004577637,8|0,3:0|0:0,0:0:0:0:
430,39,71993,2,0,P|372:9|288:20,1,120.000004577637,12|0,3:0|0:0,0:0:0:0:
250,46,72328,1,12,3:0:0:0:
284,252,72552,6,0,P|292:202|281:145,1,95.9999970703126,4|0,0:0|0:0,0:0:0:0:
145,104,73000,2,0,P|137:154|148:211,1,95.9999970703126,8|2,0:0|0:0,0:0:0:0:
415,153,73448,2,0,L|411:248,1,95.9999970703126,8|2,0:0|0:0,0:0:0:0:
413,277,73784,1,0,0:0:0:0:
413,277,73896,1,8,0:0:0:0:
420,63,74119,1,2,0:0:0:0:
204,100,74343,6,0,L|302:106,1,95.9999970703126,8|0,0:0|0:0,0:0:0:0:
399,184,74679,1,0,0:0:0:0:
399,184,74791,2,0,L|301:190,1,95.9999970703126,8|2,0:0|0:0,0:0:0:0:
92,257,75239,2,0,L|190:263,1,95.9999970703126,8|2,0:0|0:0,0:0:0:0:
287,341,75575,1,0,0:0:0:0:
287,341,75687,2,0,L|189:347,1,95.9999970703126,8|2,0:0|0:0,0:0:0:0:
32,168,76134,6,0,B|128:140|128:204|232:168,1,191.999994140625,8|8,0:0|0:0,0:0:0:0:
271,92,76806,1,2,0:0:0:0:
328,290,77030,2,0,L|330:185,1,95.9999970703126,8|2,0:0|0:0,0:0:0:0:
334,166,77366,1,0,0:0:0:0:
334,166,77478,1,8,0:0:0:0:
216,23,77702,1,2,0:0:0:0:
407,29,77925,6,0,P|425:67|420:127,1,95.9999970703126,8|0,0:0|0:0,0:0:0:0:
352,196,78261,1,0,0:0:0:0:
352,196,78373,2,0,P|375:161|430:135,1,95.9999970703126,8|2,0:0|0:0,0:0:0:0:
281,104,78821,1,8,0:0:0:0:
277,75,79045,1,2,0:0:0:0:
188,196,79269,1,8,0:0:0:0:
192,167,79493,1,2,0:0:0:0:
91,214,79716,6,0,P|117:263|218:291,1,143.999995605469,8|0,0:0|0:0,0:0:0:0:
228,283,80164,1,8,0:0:0:0:
306,365,80388,1,2,0:0:0:0:
383,196,80612,2,0,P|381:245|379:308,1,95.9999970703126,8|2,0:0|0:0,0:0:0:0:
279,213,81060,1,8,0:0:0:0:
386,98,81284,1,2,0:0:0:0:
164,40,81508,6,0,B|215:30|215:30|276:49|276:49|320:42,1,143.999995605469,8|0,0:0|0:0,0:0:0:0:
330,24,81955,1,8,0:0:0:0:
378,126,82179,1,2,0:0:0:0:
341,278,82403,2,0,P|325:231|335:177,1,95.9999970703126,8|2,0:0|0:0,0:0:0:0:
378,126,82739,1,0,0:0:0:0:
378,126,82851,2,8,L|441:120,1,47.9999985351563
510,198,83075,2,8,L|447:192,1,47.9999985351563
471,54,83299,5,0,0:0:0:0:
394,78,97627,6,0,P|421:143|387:233,1,160,4|8,0:0|0:0,0:0:0:0:
291,179,98299,1,0,0:0:0:0:
306,289,98522,1,0,0:0:0:0:
196,154,98746,2,0,P|195:199|193:245,1,80,2|8,0:0|0:0,0:0:0:0:
32,358,99194,6,0,P|86:315|189:312,1,160,2|2,0:0|0:0,0:0:0:0:
261,354,99866,1,8,0:0:0:0:
343,288,100090,2,0,P|385:275|422:270,1,80
450,121,100537,2,0,P|455:160|467:198,1,80,2|8,0:0|0:0,0:0:0:0:
366,166,100985,1,0,0:0:0:0:
503,71,101209,6,0,P|449:87|346:47,1,160,2|8,0:0|0:0,0:0:0:0:
266,5,101881,1,0,0:0:0:0:
200,162,102105,2,0,L|201:70,1,80,0|2,0:0|0:0,0:0:0:0:
266,5,102552,1,8,0:0:0:0:
116,29,102776,1,0,0:0:0:0:
116,29,103224,5,2,0:0:0:0:
200,162,103448,1,8,0:0:0:0:
28,128,103672,2,0,P|79:118|113:115,1,80,2|0,0:0|0:0,0:0:0:0:
297,66,104119,2,0,P|246:56|212:53,1,80,2|8,0:0|0:0,0:0:0:0:
64,244,104791,6,0,B|160:220|160:220|244:236,1,160,2|8,0:0|0:0,0:0:0:0:
284,371,105463,2,0,P|289:324|284:276,1,80
275,169,105911,1,2,0:0:0:0:
371,222,106134,1,8,0:0:0:0:
287,140,106358,6,0,P|252:159|132:113,1,160,2|2,0:0|0:0,0:0:0:0:
332,0,107030,1,8,0:0:0:0:
332,0,107254,2,0,P|347:38|340:79,1,80
462,138,107702,2,0,P|424:153|383:146,1,80,2|8,0:0|0:0,0:0:0:0:
500,60,108149,1,2,0:0:0:0:
500,212,108373,6,0,P|478:130|509:49,1,160,0|8,0:0|0:0,0:0:0:0:
386,147,109045,1,0,0:0:0:0:
295,50,109269,2,0,L|384:45,1,80,0|2,0:0|0:0,0:0:0:0:
201,57,109716,1,8,0:0:0:0:
267,167,109940,1,0,0:0:0:0:
267,167,110052,1,0,0:0:0:0:
267,167,110164,5,2,0:0:0:0:
126,156,110388,1,2,0:0:0:0:
313,66,110612,2,0,L|197:57,1,95.9999970703126,12|0,0:0|0:0,0:0:0:0:
67,52,111060,1,8,0:0:0:0:
126,156,111284,2,0,L|184:151,2,31.9999990234375,0|0|0,3:0|3:0|3:0,3:0:0:0:
72,214,111508,1,8,3:0:0:0:
67,232,111619,1,8,3:0:0:0:
62,250,111731,1,8,3:0:0:0:
223,362,111955,6,0,B|235:252|235:252|211:202,1,160,4|8,0:0|0:0,0:0:0:0:
145,68,112627,1,0,0:0:0:0:
283,111,112851,1,0,0:0:0:0:
420,27,113075,2,0,L|332:19,1,80,2|8,0:0|0:0,0:0:0:0:
203,119,113522,2,0,L|282:111,1,80,2|0,0:0|0:0,0:0:0:0:
402,229,113970,6,0,P|405:187|399:147,1,80,2|8,0:0|0:0,0:0:0:0:
276,285,114418,2,0,P|273:243|279:203,1,80
408,382,114866,2,0,P|411:340|405:300,1,80,2|8,0:0|0:0,0:0:0:0:
278,205,115313,1,0,0:0:0:0:
483,272,115537,6,0,P|404:279|313:288,1,160,2|8,0:0|0:0,0:0:0:0:
235,354,116209,1,0,0:0:0:0:
235,354,116433,2,0,P|274:357|320:362,2,80,0|2|8,0:0|0:0|0:0,0:0:0:0:
173,240,117105,1,2,0:0:0:0:
173,240,117552,5,2,0:0:0:0:
234,117,117776,1,8,0:0:0:0:
101,298,118000,2,0,P|88:255|92:211,1,80,2|0,0:0|0:0,0:0:0:0:
315,151,118448,2,0,P|284:183|244:202,1,80,2|8,0:0|0:0,0:0:0:0:
133,76,118896,1,0,0:0:0:0:
135,67,119008,1,0,0:0:0:0:
137,58,119119,6,0,P|192:38|305:62,1,160,2|8,0:0|0:0,0:0:0:0:
349,245,120015,2,0,P|357:206|346:168,2,80,0|2|8,0:0|0:0|0:0,0:0:0:0:
305,352,120687,1,2,0:0:0:0:
305,352,121134,1,2,0:0:0:0:
231,299,121358,2,0,L|141:306,2,80,8|0|0,0:0|0:0|0:0,0:0:0:0:
268,224,122030,1,2,0:0:0:0:
118,145,122254,1,8,0:0:0:0:
205,370,122478,6,0,P|161:327|194:236,1,143.999995605469,4|0,0:0|0:0,0:0:0:0:
192,235,122925,1,2,0:0:0:0:
324,130,123149,1,8,0:0:0:0:
162,37,123373,1,8,3:0:0:0:
163,51,123485,1,8,3:0:0:0:
165,65,123597,1,8,3:0:0:0:
279,27,123821,1,2,0:0:0:0:
211,192,124045,1,8,0:0:0:0:
403,243,124269,6,0,L|405:138,1,95.9999970703126,4|0,0:0|0:0,0:0:0:0:
279,27,124716,5,6,0:0:0:0:
225,250,124940,1,8,0:0:0:0:
166,11,125164,5,6,0:0:0:0:
218,223,125388,1,8,0:0:0:0:
398,117,125612,1,8,3:0:0:0:
398,117,125724,1,8,3:0:0:0:
398,117,125836,2,8,L|348:111,1,47.9999985351563,8|8,3:0|3:0,3:0:0:0:
211,192,126060,2,0,L|261:186,1,47.9999985351563,0|0,3:0|3:0,3:0:0:0:
381,306,126284,6,0,P|342:287|258:317,1,128,4|8,0:0|0:0,0:0:0:0:
194,364,126955,1,2,0:0:0:0:
191,337,127179,1,2,0:0:0:0:
187,274,127403,2,0,L|192:348,1,64,0|8,0:0|0:0,0:0:0:0:
242,206,127851,6,0,P|184:230|125:209,1,128,2|2,0:0|0:0,0:0:0:0:
54,168,128522,1,0,0:0:0:0:
60,143,128746,2,0,L|81:16,1,128,8|2,0:0|0:0,0:0:0:0:
167,86,129418,1,12,0:0:0:0:
167,86,129866,5,4,0:0:0:0:
248,55,130090,1,0,0:0:0:0:
294,126,130313,2,0,P|311:167|299:253,1,128,0|2,0:0|0:0,0:0:0:0:
240,305,130985,1,0,0:0:0:0:
215,297,131209,1,8,0:0:0:0:
306,369,131433,2,0,L|397:366,1,64,4|0,0:0|0:0,0:0:0:0:
412,292,131881,5,2,0:0:0:0:
382,139,132105,1,2,0:0:0:0:
426,271,132328,5,2,0:0:0:0:
368,118,132552,1,2,0:0:0:0:
440,250,132776,5,2,0:0:0:0:
354,97,132999,1,2,0:0:0:0:
493,117,133224,1,0,3:0:0:0:
455,226,133448,6,0,P|411:201|384:115,1,120,4|0,0:0|0:0,0:0:0:0:
387,107,133896,1,8,0:0:0:0:
327,33,134119,1,0,0:0:0:0:
261,199,134343,2,0,L|167:201,1,80,2|2,0:0|0:0,0:0:0:0:
294,116,134791,1,8,0:0:0:0:
377,322,135015,6,0,P|391:266|362:192,1,120,2|0,0:0|0:0,0:0:0:0:
361,183,135463,1,2,0:0:0:0:
207,327,135687,2,0,P|254:315|295:318,1,80,8|0,0:0|0:0,0:0:0:0:
175,192,136134,2,0,P|161:238|138:272,2,80,2|2|8,0:0|0:0|0:0,0:0:0:0:
216,68,136806,1,0,0:0:0:0:
216,68,137030,6,0,P|279:103|364:54,1,143.999995605469,4|0,0:0|0:0,0:0:0:0:
372,57,137478,1,8,0:0:0:0:
345,175,137702,1,0,0:0:0:0:
479,148,137925,2,0,P|460:190|469:256,1,80,2|2,0:0|0:0,0:0:0:0:
375,289,138373,2,0,L|268:268,1,80,8|0,0:0|0:0,0:0:0:0:
188,169,138821,5,8,0:0:0:0:
128,369,139045,1,8,0:0:0:0:
133,353,139157,1,8,0:0:0:0:
138,337,139269,1,8,0:0:0:0:
68,259,139493,1,8,0:0:0:0:
73,275,139605,1,8,0:0:0:0:
148,166,139940,6,0,L|193:169,3,40
233,237,140388,5,8,0:0:0:0:
233,237,140500,1,8,0:0:0:0:
233,237,140612,6,0,L|336:234,1,95.9999970703126,4|0,0:0|0:0,0:0:0:0:
362,72,141060,2,0,P|382:116|379:168,1,95.9999970703126,8|0,0:0|0:0,0:0:0:0:
283,132,141508,1,8,0:0:0:0:
376,37,141731,1,2,0:0:0:0:
186,15,141955,2,0,L|186:119,1,95.9999970703126,8|2,0:0|0:0,0:0:0:0:
243,264,142403,6,0,P|201:248|143:249,1,95.9999970703126,8|0,0:0|0:0,0:0:0:0:
122,272,142739,1,0,0:0:0:0:
122,272,142851,2,0,P|138:230|137:172,1,95.9999970703126,8|0,0:0|0:0,0:0:0:0:
59,42,143299,2,0,L|181:49,1,95.9999970703126,8|2,0:0|0:0,0:0:0:0:
186,52,143634,1,0,0:0:0:0:
186,52,143746,1,8,0:0:0:0:
138,179,143970,1,2,0:0:0:0:
235,282,144194,6,0,P|278:253|422:257,1,191.999994140625,8|8,0:0|0:0,0:0:0:0:
488,360,144866,1,0,0:0:0:0:
503,103,145090,2,0,L|498:219,1,95.9999970703126,8|2,0:0|0:0,0:0:0:0:
498,198,145425,1,0,0:0:0:0:
498,198,145537,1,8,0:0:0:0:
414,116,145761,1,2,0:0:0:0:
489,19,145985,6,0,P|440:29|380:13,1,95.9999970703126,8|0,0:0|0:0,0:0:0:0:
331,63,146321,1,0,0:0:0:0:
331,63,146433,2,0,L|338:161,1,95.9999970703126,8|0,0:0|0:0,0:0:0:0:
210,295,146881,2,0,L|221:179,1,95.9999970703126,8|2,0:0|0:0,0:0:0:0:
226,168,147216,1,0,0:0:0:0:
226,168,147328,1,8,0:0:0:0:
202,381,147552,1,2,0:0:0:0:
24,291,147776,6,0,B|121:251|113:331|224:291,1,191.999994140625,8|8,0:0|0:0,0:0:0:0:
312,215,148448,1,0,0:0:0:0:
312,215,148672,2,0,L|307:115,1,95.9999970703126,8|2,0:0|0:0,0:0:0:0:
309,94,149008,1,0,0:0:0:0:
309,94,149119,1,8,0:0:0:0:
413,163,149343,1,2,0:0:0:0:
127,42,149567,6,0,P|176:53|228:34,1,95.9999970703126,8|0,0:0|0:0,0:0:0:0:
247,27,149903,1,0,0:0:0:0:
247,27,150015,1,8,0:0:0:0:
221,165,150239,1,0,0:0:0:0:
429,79,150463,2,0,P|380:68|328:87,1,95.9999970703126,8|2,0:0|0:0,0:0:0:0:
315,100,150799,1,0,0:0:0:0:
315,100,150911,1,8,0:0:0:0:
387,183,151134,1,2,0:0:0:0:
293,349,151358,6,0,L|291:241,1,95.9999970703126,8|0,0:0|0:0,0:0:0:0:
156,204,151806,1,8,0:0:0:0:
205,68,152030,1,0,0:0:0:0:
340,117,152254,1,8,0:0:0:0:
291,253,152478,1,2,0:0:0:0:
156,204,152702,1,8,0:0:0:0:
156,218,152813,1,8,0:0:0:0:
155,232,152925,1,8,0:0:0:0:
78,155,153149,2,0,L|83:95,1,47.9999985351563,0|0,3:0|3:0,3:0:0:0:
48,179,153373,6,0,P|113:164|191:195,1,120.000004577637,4|0,0:0|0:0,0:0:0:0:
230,141,153709,1,8,0:0:0:0:
229,129,153821,1,8,0:0:0:0:
227,117,153933,1,8,0:0:0:0:
226,107,154045,2,0,L|219:41,1,60.0000022888184,10|0,0:0|0:0,0:0:0:0:
359,81,154269,2,0,L|348:165,1,60.0000022888184,12|0,0:0|0:0,0:0:0:0:
339,235,154493,1,8,0:0:0:0:
339,235,154605,1,8,0:0:0:0:
339,235,154716,1,8,0:0:0:0:
188,304,154940,6,0,B|292:272|288:348|388:312,1,191.999994140625,4|8,0:0|0:0,0:0:0:0:
469,240,155612,1,0,0:0:0:0:
393,33,155836,2,0,P|362:70|374:161,1,143.999995605469,8|0,0:0|0:0,0:0:0:0:
389,180,156284,1,8,0:0:0:0:
483,67,156508,1,2,0:0:0:0:
326,83,156731,6,0,L|229:78,1,95.9999970703126,8|0,0:0|0:0,0:0:0:0:
175,133,157067,1,0,0:0:0:0:
175,133,157179,2,0,L|78:138,1,95.9999970703126,8|0,0:0|0:0,0:0:0:0:
186,301,157627,2,0,L|283:306,1,95.9999970703126,8|2,0:0|0:0,0:0:0:0:
337,251,157963,1,0,0:0:0:0:
337,251,158075,2,0,L|434:246,1,95.9999970703126,8|2,0:0|0:0,0:0:0:0:
278,170,158522,6,0,P|243:207|240:253,1,95.9999970703126,8|0,0:0|0:0,0:0:0:0:
371,149,158970,2,0,P|351:105|311:81,1,95.9999970703126,8|0,0:0|0:0,0:0:0:0:
70,56,159418,2,0,L|226:44,1,143.999995605469,8|0,0:0|0:0,0:0:0:0:
238,40,159866,1,8,0:0:0:0:
204,182,160090,1,2,0:0:0:0:
52,137,160313,6,0,P|39:182|49:237,1,95.9999970703126,8|0,0:0|0:0,0:0:0:0:
164,361,160761,2,0,P|177:316|167:261,1,95.9999970703126,8|0,0:0|0:0,0:0:0:0:
136,135,161209,1,8,0:0:0:0:
127,104,161433,1,2,0:0:0:0:
276,203,161657,1,8,0:0:0:0:
285,172,161881,1,2,0:0:0:0:
429,73,162105,6,0,L|424:172,1,95.9999970703126,8|0,0:0|0:0,0:0:0:0:
424,168,162440,1,0,0:0:0:0:
424,168,162552,1,8,0:0:0:0:
327,116,162776,1,0,0:0:0:0:
239,234,163000,2,0,P|288:220|340:227,1,95.9999970703126,8|2,0:0|0:0,0:0:0:0:
410,301,163448,1,8,0:0:0:0:
299,369,163672,1,2,0:0:0:0:
212,187,163896,6,0,L|206:305,1,95.9999970703126,8|0,0:0|0:0,0:0:0:0:
209,311,164231,1,0,0:0:0:0:
209,311,164343,1,8,0:0:0:0:
108,235,164567,1,0,0:0:0:0:
270,116,164791,2,0,P|320:127|373:108,1,95.9999970703126,8|2,0:0|0:0,0:0:0:0:
426,64,165127,1,0,0:0:0:0:
426,64,165239,2,8,L|420:11,1,47.9999985351563
482,163,165463,2,8,L|488:110,1,47.9999985351563
408,198,165687,6,0,P|379:258|409:353,1,160,4|8,0:0|0:0,0:0:0:0:
296,377,166358,1,2,0:0:0:0:
296,377,166582,2,0,L|211:370,1,80,8|2,0:0|0:0,0:0:0:0:
150,281,167030,2,0,L|235:274,1,80,8|2,0:0|0:0,0:0:0:0:
314,186,167478,6,0,P|326:138|295:67,1,120,8|0,0:0|0:0,0:0:0:0:
281,52,167925,1,8,0:0:0:0:
196,151,168149,2,0,P|147:156|108:146,1,80,2|8,0:0|0:0,0:0:0:0:
281,52,168597,2,0,P|286:101|276:140,1,80,2|8,0:0|0:0,0:0:0:0:
114,23,169045,1,2,0:0:0:0:
114,23,169269,6,0,L|283:16,1,160,8|8,0:0|0:0,0:0:0:0:
363,113,169940,1,2,0:0:0:0:
363,113,170164,2,0,L|360:31,1,80,8|2,0:0|0:0,0:0:0:0:
451,83,170612,1,8,0:0:0:0:
364,212,170836,1,2,0:0:0:0:
364,212,170948,1,0,0:0:0:0:
364,212,171060,6,0,B|311:225|311:225|196:191,1,160,8|8,0:0|0:0,0:0:0:0:
64,68,171731,2,0,P|106:56|154:53,1,80,2|8,0:0|0:0,0:0:0:0:
266,133,172179,2,0,P|224:121|176:118,1,80,2|8,0:0|0:0,0:0:0:0:
339,65,172627,1,2,0:0:0:0:
409,139,172851,6,0,L|394:310,1,160,8|8,0:0|0:0,0:0:0:0:
249,207,173522,1,2,0:0:0:0:
249,207,173746,2,0,L|264:378,1,160,8|8,0:0|0:0,0:0:0:0:
148,292,174418,1,2,0:0:0:0:
249,207,174642,6,0,P|199:198|164:180,1,80,8|0,0:0|0:0,0:0:0:0:
296,69,175090,2,0,P|264:92|239:124,1,80,8|2,0:0|0:0,0:0:0:0:
132,29,175537,2,0,L|233:22,1,80,8|2,0:0|0:0,0:0:0:0:
375,74,175985,2,0,L|274:67,1,80,8|2,0:0|0:0,0:0:0:0:
435,29,176433,6,0,P|411:76|413:163,1,120,8|0,0:0|0:0,0:0:0:0:
418,167,176881,1,8,0:0:0:0:
308,121,177105,1,2,0:0:0:0:
262,233,177328,1,8,0:0:0:0:
372,277,177552,1,2,0:0:0:0:
271,363,177776,1,8,0:0:0:0:
269,351,177888,1,8,0:0:0:0:
268,339,178000,1,8,0:0:0:0:
141,308,178224,6,0,L|179:303,2,23.9999992675781,0|0|0,3:0|3:0|3:0,3:0:0:0:
118,335,178448,6,0,B|117:222|117:223,1,95.9999970703126,4|0,0:0|0:0,0:0:0:0:
229,95,178896,1,8,0:0:0:0:
226,111,179008,1,8,0:0:0:0:
222,125,179119,2,0,P|283:139|341:88,2,143.999995605469,8|8|8,3:0|3:0|3:0,3:0:0:0:
62,131,180015,6,0,L|240:124,1,160,4|8,0:0|0:0,0:0:0:0:
263,40,180687,1,2,0:0:0:0:
263,40,180799,1,0,0:0:0:0:
263,40,180911,1,8,0:0:0:0:
345,191,181134,2,0,L|340:97,1,80,2|8,0:0|0:0,0:0:0:0:
436,145,181582,1,2,0:0:0:0:
460,264,181806,6,0,B|384:232|388:296|304:260,1,160,8|8,0:0|0:0,0:0:0:0:
177,337,182478,2,0,L|268:332,1,80,2|8,0:0|0:0,0:0:0:0:
188,157,182925,1,2,0:0:0:0:
212,247,183149,1,8,0:0:0:0:
246,88,183373,1,2,0:0:0:0:
244,76,183485,1,0,0:0:0:0:
241,64,183597,6,0,P|191:70|91:-6,1,160,8|8,0:0|0:0,0:0:0:0:
43,96,184269,2,0,L|50:152,2,40,2|0|8,0:0|0:0|0:0,0:0:0:0:
122,232,184716,2,0,L|136:115,1,80,2|8,0:0|0:0,0:0:0:0:
57,304,185164,1,2,0:0:0:0:
57,304,185276,1,0,0:0:0:0:
57,304,185388,6,0,P|104:269|220:263,1,160,8|8,0:0|0:0,0:0:0:0:
287,322,186060,1,2,0:0:0:0:
383,82,186284,2,0,P|389:140|337:243,1,160,8|8,0:0|0:0,0:0:0:0:
263,130,186955,1,2,0:0:0:0:
456,48,187179,6,0,B|404:36|404:36|344:60|344:60|284:44,1,160,8|8,0:0|0:0,0:0:0:0:
176,7,187851,1,2,0:0:0:0:
178,18,187963,1,0,0:0:0:0:
179,29,188075,2,0,L|168:122,1,80,8|2,0:0|0:0,0:0:0:0:
33,186,188522,2,0,P|73:169|116:166,1,80,8|2,0:0|0:0,0:0:0:0:
214,219,188970,6,0,P|209:261|202:315,1,80,8|0,0:0|0:0,0:0:0:0:
298,361,189418,2,0,P|303:319|310:265,1,80,8|2,0:0|0:0,0:0:0:0:
307,281,189754,1,0,0:0:0:0:
307,281,189866,1,8,0:0:0:0:
406,215,190090,1,2,0:0:0:0:
285,90,190313,1,8,0:0:0:0:
282,109,190424,1,8,0:0:0:0:
279,129,190536,1,8,0:0:0:0:
277,149,190648,1,8,0:0:0:0:
275,169,190760,5,8,3:0:0:0:
206,217,190985,1,8,3:0:0:0:
144,160,191209,1,8,3:0:0:0:
144,160,192328,6,0,L|286:156,1,128,4|2,0:0|0:0,0:0:0:0:
348,336,193000,1,0,0:0:0:0:
348,336,193224,2,0,L|344:194,1,128,8|2,0:0|0:0,0:0:0:0:
344,98,193896,1,12,0:0:0:0:
344,98,194343,6,0,L|272:93,2,64,2|0|0,0:0|0:0|0:0,0:0:0:0:
399,175,195015,1,2,0:0:0:0:
399,175,195239,2,0,P|446:181|514:133,1,128,2|8,0:0|0:0,0:0:0:0:
430,76,195911,1,4,0:0:0:0:
294,352,196358,5,2,0:0:0:0:
264,199,196582,1,8,0:0:0:0:
308,331,196805,5,2,0:0:0:0:
250,178,197029,1,0,3:3:0:0:
322,310,197253,5,2,0:0:0:0:
236,157,197478,1,8,0:0:0:0:
368,219,197701,1,0,3:0:0:0:
209,255,197925,6,0,L|221:116,1,120,4|0,0:0|0:0,0:0:0:0:
223,104,198373,1,8,0:0:0:0:
132,160,198597,1,0,0:0:0:0:
76,17,198821,2,0,L|67:114,1,80,2|2,0:0|0:0,0:0:0:0:
42,224,199269,1,8,0:0:0:0:
61,209,199493,6,0,P|103:187|213:208,1,160,2|2,0:0|0:0,0:0:0:0:
259,282,200164,1,8,0:0:0:0:
191,347,200388,2,0,P|169:304|171:260,1,80,0|2,0:0|0:0,0:0:0:0:
248,148,200836,1,2,0:0:0:0:
271,142,201060,1,8,0:0:0:0:
183,60,201284,1,0,0:0:0:0:
160,54,201508,5,2,3:2:0:0:
126,192,202179,1,2,3:2:0:0:
320,76,202851,1,6,3:2:0:0:
320,76,203522,5,2,0:0:0:0:
316,91,203970,1,2,0:0:0:0:
312,106,204418,1,2,0:0:0:0:
401,46,204866,5,8,0:0:0:0:
401,46,204978,1,8,0:0:0:0:
401,46,205090,1,4,0:0:0:0:
156,83,219418,6,0,L|288:84,1,128,4|0,0:0|0:0,0:0:0:0:
342,144,220090,1,2,0:0:0:0:
404,22,220313,2,0,L|406:98,1,64,0|2,0:0|0:0,0:0:0:0:
441,96,220649,2,0,L|439:172,1,64
468,186,220985,1,2,0:0:0:0:
348,237,221209,6,0,P|309:220|247:224,2,96,2|0|2,0:0|0:0|0:0,0:0:0:0:
399,326,222105,2,0,P|438:309|500:313,2,96,2|0|2,0:0|0:0|0:0,0:0:0:0:
307,366,223000,1,0,0:0:0:0:
307,366,224119,6,0,P|262:376|187:331,1,128,2|2,0:0|0:0,0:0:0:0:
154,260,224791,2,0,L|161:115,2,128,2|0|0,0:0|0:0|0:0,0:0:0:0:
54,141,226582,6,0,B|99:129|99:129|175:148,2,96,2|0|2,0:0|0:0|0:0,0:0:0:0:
16,215,227478,1,0,0:0:0:0:
132,327,228149,1,2,0:0:0:0:
132,327,228373,6,0,L|246:326,2,96,2|0|2,0:0|0:0|0:0,0:0:0:0:
71,235,229269,1,0,0:0:0:0:
181,139,229493,1,0,0:0:0:0:
181,139,229605,1,0,0:0:0:0:
181,139,229716,2,0,L|226:132,1,32
313,217,229940,2,0,L|268:210,1,32
367,92,230164,6,0,L|355:304,1,191.999994140625,4|8,0:0|0:0,0:0:0:0:
182,379,230836,1,2,0:0:0:0:
118,300,231060,2,0,P|166:281|222:285,1,95.9999970703126,8|2,0:0|0:0,0:0:0:0:
238,295,231396,1,0,0:0:0:0:
238,295,231508,1,8,0:0:0:0:
171,180,231731,1,2,0:0:0:0:
347,384,231955,6,0,L|343:276,1,95.9999970703126,8|0,0:0|0:0,0:0:0:0:
421,245,232291,1,0,0:0:0:0:
421,245,232403,2,0,L|424:340,1,95.9999970703126,8|2,0:0|0:0,0:0:0:0:
341,198,232851,2,0,L|337:90,1,95.9999970703126,8|2,0:0|0:0,0:0:0:0:
415,59,233187,1,0,0:0:0:0:
415,59,233299,2,0,L|418:154,1,95.9999970703126,8|2,0:0|0:0,0:0:0:0:
266,69,233746,6,0,P|217:58|154:76,1,95.9999970703126,8|0,0:0|0:0,0:0:0:0:
119,236,234194,2,0,P|130:187|112:124,1,95.9999970703126,8|2,0:0|0:0,0:0:0:0:
53,291,234642,2,0,P|106:269|211:293,1,143.999995605469,8|0,0:0|0:0,0:0:0:0:
213,296,235090,1,8,0:0:0:0:
298,158,235313,1,2,0:0:0:0:
450,330,235537,6,0,L|347:336,1,95.9999970703126,8|0,0:0|0:0,0:0:0:0:
289,259,235873,1,0,0:0:0:0:
289,259,235985,2,0,L|384:253,1,95.9999970703126,8|2,0:0|0:0,0:0:0:0:
270,342,236433,2,0,L|167:348,1,95.9999970703126,8|2,0:0|0:0,0:0:0:0:
109,271,236769,1,0,0:0:0:0:
109,271,236881,2,0,L|204:265,1,95.9999970703126,8|2,0:0|0:0,0:0:0:0:
100,42,237328,6,0,P|84:87|102:141,1,95.9999970703126,8|0,0:0|0:0,0:0:0:0:
205,265,237776,2,0,P|221:220|203:166,1,95.9999970703126,8|2,0:0|0:0,0:0:0:0:
159,317,238224,2,0,L|276:314,1,95.9999970703126,8|2,0:0|0:0,0:0:0:0:
288,314,238560,1,0,0:0:0:0:
288,314,238672,1,8,0:0:0:0:
209,174,238896,1,2,0:0:0:0:
358,359,239119,6,0,P|371:306|336:247,1,95.9999970703126,8|0,0:0|0:0,0:0:0:0:
310,212,239455,1,0,0:0:0:0:
310,212,239567,2,0,P|363:225|422:190,1,95.9999970703126,8|2,0:0|0:0,0:0:0:0:
258,23,240015,2,0,L|264:127,1,95.9999970703126,8|2,0:0|0:0,0:0:0:0:
182,125,240351,1,0,0:0:0:0:
182,125,240463,2,0,L|176:29,1,95.9999970703126,8|2,0:0|0:0,0:0:0:0:
38,209,240911,6,0,P|89:194|144:191,1,95.9999970703126,8|0,0:0|0:0,0:0:0:0:
280,240,241358,1,8,0:0:0:0:
208,363,241582,1,2,0:0:0:0:
83,291,241806,1,8,0:0:0:0:
156,167,242030,1,2,0:0:0:0:
214,351,242254,1,8,0:0:0:0:
221,338,242366,1,8,0:0:0:0:
228,326,242478,1,8,0:0:0:0:
83,291,242702,6,0,L|118:284,2,23.9999992675781,0|0|0,3:0|3:0|3:0,0:0:0:0:
42,341,242925,6,0,P|74:291|44:209,1,143.999995605469,4|0,0:0|0:0,0:0:0:0:
24,135,243373,1,8,0:0:0:0:
37,140,243485,1,8,0:0:0:0:
50,143,243597,6,0,L|173:141,1,120.000004577637,8|0,3:0|3:0,3:0:0:0:
251,130,243933,2,0,P|218:76|161:55,1,120.000004577637,12|0,3:0|3:0,3:0:0:0:
88,50,244269,1,12,3:0:0:0:
251,201,244493,6,0,P|287:165|339:146,1,95.9999970703126,4|0,0:0|0:0,0:0:0:0:
248,298,244940,2,0,P|198:284|156:249,1,95.9999970703126,8|2,0:0|0:0,0:0:0:0:
303,378,245388,2,0,P|339:341|333:249,1,143.999995605469,8|0,0:0|0:0,0:0:0:0:
323,229,245836,1,8,0:0:0:0:
450,321,246060,1,2,0:0:0:0:
192,250,246284,6,0,L|196:358,1,95.9999970703126,8|0,0:0|0:0,0:0:0:0:
114,311,246619,1,0,0:0:0:0:
114,311,246731,2,0,L|110:215,1,95.9999970703126,8|2,0:0|0:0,0:0:0:0:
187,72,247179,2,0,L|191:180,1,95.9999970703126,8|2,0:0|0:0,0:0:0:0:
109,133,247515,1,0,0:0:0:0:
109,133,247627,2,0,L|105:37,1,95.9999970703126,8|2,0:0|0:0,0:0:0:0:
174,227,248075,6,0,P|234:185|371:185,1,191.999994140625,8|8,0:0|0:0,0:0:0:0:
427,366,248746,1,2,0:0:0:0:
427,366,248970,2,0,L|422:248,1,95.9999970703126,8|2,0:0|0:0,0:0:0:0:
424,237,249306,1,0,0:0:0:0:
424,237,249418,1,8,0:0:0:0:
316,311,249642,1,2,0:0:0:0:
155,243,249866,6,0,P|204:225|259:229,1,95.9999970703126,8|0,0:0|0:0,0:0:0:0:
301,172,250202,1,0,0:0:0:0:
301,172,250313,2,0,L|294:74,1,95.9999970703126,8|2,0:0|0:0,0:0:0:0:
167,22,250761,1,8,0:0:0:0:
162,50,250985,1,2,0:0:0:0:
53,118,251209,1,8,0:0:0:0:
58,146,251433,1,2,0:0:0:0:
111,245,251657,6,0,P|165:230|258:272,1,143.999995605469,8|0,0:0|0:0,0:0:0:0:
265,279,252105,1,8,0:0:0:0:
168,363,252328,1,2,0:0:0:0:
67,208,252552,2,0,L|83:335,1,95.9999970703126,8|2,0:0|0:0,0:0:0:0:
14,84,253000,2,0,L|141:68,1,95.9999970703126,8|2,0:0|0:0,0:0:0:0:
336,164,253448,6,0,B|292:156|292:156|230:173|230:173|180:156,1,143.999995605469,8|0,0:0|0:0,0:0:0:0:
184,136,253896,1,8,0:0:0:0:
279,52,254119,1,2,0:0:0:0:
385,213,254343,2,0,L|383:113,1,95.9999970703126,8|2,0:0|0:0,0:0:0:0:
406,48,254679,1,0,0:0:0:0:
406,48,254791,2,8,L|467:44,1,47.9999985351563
310,102,255015,2,8,L|249:98,1,47.9999985351563
385,213,255239,5,4,0:0:0:0:
385,213,255687,6,0,L|384:286,1,64
304,320,256134,2,0,L|304:256,1,64
304,177,256582,1,0,0:0:0:0:
185,323,256806,2,0,P|226:303|309:324,1,128,2|2,0:0|0:0,0:0:0:0:
358,372,257478,1,0,0:0:0:0:
358,372,257925,1,0,0:0:0:0:
358,372,258373,2,0,L|432:369,1,64
313,359,258821,6,0,P|334:316|297:226,1,128,2|0,0:0|0:0,0:0:0:0:
212,182,259716,2,0,P|238:221|335:234,1,128
369,182,260388,2,0,L|357:47,1,128,2|2,0:0|0:0,0:0:0:0:
354,25,261060,1,0,0:0:0:0:
350,37,261508,1,0,0:0:0:0:
346,49,261955,1,0,0:0:0:0:
223,43,262403,6,0,P|291:31|358:57,1,128,2|0,0:0|0:0,0:0:0:0:
151,139,263299,2,0,P|169:78|156:17,1,128
80,71,263970,2,0,P|61:131|74:193,1,128,2|2,0:0|0:0,0:0:0:0:
120,260,264642,2,0,L|258:254,2,128
294,159,265985,6,0,L|374:154,1,64,2|0,0:0|0:0,0:0:0:0:
342,234,266433,2,0,L|422:229,1,64,0|2,0:0|0:0,0:0:0:0:
295,132,266881,2,0,L|215:127,1,64,0|2,0:0|0:0,0:0:0:0:
247,207,267328,2,0,L|167:202,1,64,0|2,0:0|0:0,0:0:0:0:
183,61,267776,5,2,0:0:0:0:
190,71,268224,5,2,0:0:0:0:
256,21,268448,1,2,0:0:0:0:
256,192,270015,12,0,274940,0:0:0:0:
