osu file format v14

[General]
AudioFilename: audio.mp3
AudioLeadIn: 0
PreviewTime: 58224
Countdown: 0
SampleSet: Soft
StackLeniency: 0.7
Mode: 0
LetterboxInBreaks: 0
WidescreenStoryboard: 0

[Editor]
DistanceSpacing: 1.4
BeatDivisor: 4
GridSize: 4
TimelineZoom: 1.1

[Metadata]
Title:Mata ne Bye Bye feat.Rika
TitleUnicode:またねバイバイ feat.利香
Artist:Room97
ArtistUnicode:Room97
Creator:timemon
Version:Hard
Source:
Tags:Girl's Over tsutsuminium のりる
BeatmapID:1425199
BeatmapSetID:673361

[Difficulty]
HPDrainRate:5
CircleSize:3.5
OverallDifficulty:6
ApproachRate:7
SliderMultiplier:1.4
SliderTickRate:1

[Events]
//Background and Video events
0,0,"ayy lmaov2.jpg",0,0
//Break Periods
2,84866,95836
2,205290,217627
//Storyboard Layer 0 (Background)
//Storyboard Layer 1 (Fail)
//Storyboard Layer 2 (Pass)
//Storyboard Layer 3 (Foreground)
//Storyboard Sound Samples

[TimingPoints]
911,447.761194029851,4,2,1,35,1,0
911,-125,4,2,1,35,0,0
15239,-125,4,2,1,60,0,0
29567,-100,4,2,1,60,0,0
43896,-125,4,2,1,50,0,0
51060,-100,4,2,1,60,0,0
55090,-100,4,2,1,60,0,0
58224,-90.9090909090909,4,2,1,70,0,1
70985,-90.9090909090909,4,2,1,70,0,0
72552,-90.9090909090909,4,2,1,70,0,1
83299,-125,4,2,1,60,0,0
97627,-100,4,2,1,60,0,0
111955,-100,4,2,1,60,0,0
126284,-125,4,2,1,50,0,0
133448,-100,4,2,1,60,0,0
137925,-100,4,2,1,60,0,0
138821,-100,4,2,1,60,0,0
140612,-90.9090909090909,4,2,1,70,0,1
153373,-90.9090909090909,4,2,1,70,0,0
154940,-90.9090909090909,4,2,1,70,0,1
165687,-100,4,2,1,60,0,0
180015,-100,4,2,1,60,0,0
190761,-125,4,2,1,50,0,0
195911,-100,4,2,1,50,0,0
197925,-100,4,2,1,60,0,0
203522,-100,4,2,1,20,0,0
205090,-125,4,2,1,50,0,0
219418,-125,4,2,1,50,0,0
230164,-90.9090909090909,4,2,1,70,0,1
242925,-90.9090909090909,4,2,1,70,0,0
244493,-90.9090909090909,4,2,1,70,0,1
255239,-125,4,2,1,70,0,0
255687,-125,4,2,1,35,0,0
274940,-125,4,2,1,5,0,0

[Colours]
Combo1 : 213,213,170
Combo2 : 128,191,255
Combo3 : 192,192,192
Combo4 : 128,198,255

[HitObjects]
392,215,910,5,4,0:0:0:0:
392,215,1358,2,0,L|391:153,1,56,0|0,0:0|0:0,0:0:0:0:
463,127,1806,2,0,L|462:65,1,56,0|0,0:0|0:0,0:0:0:0:
393,32,2254,1,0,0:0:0:0:
393,32,2478,2,0,P|351:18|269:32,1,112,2|2,0:0|0:0,0:0:0:0:
225,76,3149,2,0,L|233:204,1,112,0|0,0:0|0:0,0:0:0:0:
235,354,4045,2,0,L|169:363,1,56,0|0,0:0|0:0,0:0:0:0:
118,311,4493,6,0,P|136:264|103:197,2,112,2|0|0,0:0|0:0|0:0,0:0:0:0:
58,154,5836,1,0,0:0:0:0:
58,154,6060,2,0,L|196:151,1,112,2|2,0:0|0:0,0:0:0:0:
233,103,6731,1,0,0:0:0:0:
233,103,7179,1,0,0:0:0:0:
233,103,7627,1,0,0:0:0:0:
368,24,8075,6,0,P|372:81|376:149,2,112,2|0|0,0:0|0:0|0:0,0:0:0:0:
211,37,9418,1,0,0:0:0:0:
211,37,9642,2,0,P|268:33|336:29,1,112,2|2,0:0|0:0,0:0:0:0:
377,86,10313,2,0,P|396:121|387:200,2,112,0|0|0,0:0|0:0|0:0,0:0:0:0:
229,35,11657,5,2,0:0:0:0:
377,86,12105,1,0,0:0:0:0:
326,234,12552,1,0,0:0:0:0:
177,183,13000,1,0,0:0:0:0:
229,35,13448,5,2,0:0:0:0:
229,35,14119,1,2,0:0:0:0:
229,35,15239,6,0,P|216:86|243:147,1,112,2|0,0:0|0:0,0:0:0:0:
298,197,15911,1,0,0:0:0:0:
298,197,16134,1,0,0:0:0:0:
367,151,16358,2,0,L|374:96,1,56
446,157,16806,2,0,L|440:213,1,56,2|0,0:0|0:0,0:0:0:0:
373,61,17254,2,0,P|427:63|492:65,2,112,2|0|0,0:0|0:0|0:0,0:0:0:0:
373,61,18821,6,0,B|285:37|285:97|201:57,1,168,2|0,0:0|0:0,0:0:0:0:
139,18,19716,2,0,P|157:59|141:144,1,112,0|0,0:0|0:0,0:0:0:0:
139,208,20388,2,0,P|165:171|247:143,1,112,2|2,0:0|0:0,0:0:0:0:
291,196,21060,1,0,0:0:0:0:
291,196,21284,2,0,L|412:187,1,112,0|0,0:0|0:0,0:0:0:0:
458,250,21955,1,0,0:0:0:0:
329,358,22403,6,0,L|208:349,1,112,2|0,0:0|0:0,0:0:0:0:
154,292,23075,1,0,0:0:0:0:
154,292,23299,1,0,0:0:0:0:
219,240,23522,2,0,L|217:162,1,56,0|0,0:0|0:0,0:0:0:0:
149,134,23970,2,0,P|104:126|40:169,2,112,2|2|0,0:0|0:0|0:0,0:0:0:0:
149,134,25313,1,0,0:0:0:0:
157,142,25985,6,0,L|280:134,1,112,2|0,0:0|0:0,0:0:0:0:
251,35,26657,1,2,0:0:0:0:
251,35,26881,2,0,L|139:42,1,112,0|0,0:0|0:0,0:0:0:0:
51,185,27776,6,0,P|35:242|62:299,1,112,2|2,0:0|0:0,0:0:0:0:
125,333,28448,2,0,L|166:327,2,28,0|0|0,0:0|0:0|0:0,0:0:0:0:
50,371,28896,1,0,3:0:0:0:
127,249,29119,1,8,0:0:0:0:
127,249,29567,6,0,P|201:242|258:279,1,140,4|8,0:0|0:0,0:0:0:0:
313,354,30239,1,0,0:0:0:0:
313,354,30463,1,0,0:0:0:0:
368,273,30687,2,0,L|442:276,1,70,2|8,0:0|0:0,0:0:0:0:
495,196,31134,2,0,L|425:193,1,70,2|0,0:0|0:0,0:0:0:0:
373,121,31582,2,0,L|374:45,1,70,2|8,0:0|0:0,0:0:0:0:
455,49,32030,2,0,L|455:118,1,70,0|0,0:0|0:0,0:0:0:0:
373,51,32478,2,0,P|336:35|242:66,1,140,2|0,0:0|0:0,0:0:0:0:
165,120,33149,6,0,P|202:104|296:135,1,140,2|8,0:0|0:0,0:0:0:0:
350,211,33821,1,0,0:0:0:0:
350,211,34045,2,0,L|346:356,1,140,0|8,0:0|0:0,0:0:0:0:
436,354,34716,2,0,L|439:214,1,140,2|0,0:0|0:0,0:0:0:0:
443,115,35388,1,8,0:0:0:0:
348,139,35612,2,0,P|301:155|216:113,1,140,2|2,0:0|0:0,0:0:0:0:
159,43,36284,1,8,0:0:0:0:
159,43,36508,1,0,0:0:0:0:
64,109,36731,6,0,B|39:151|39:151|56:252,1,140,2|8,0:0|0:0,0:0:0:0:
134,298,37403,1,0,0:0:0:0:
134,298,37627,2,0,L|213:290,1,70,0|2,0:0|0:0,0:0:0:0:
290,373,38075,1,8,0:0:0:0:
290,373,38299,2,0,P|313:327|274:233,1,140,2|2,0:0|0:0,0:0:0:0:
217,179,38970,1,8,0:0:0:0:
217,179,39194,2,0,P|263:202|357:163,1,140,0|2,0:0|0:0,0:0:0:0:
413,107,39866,1,8,0:0:0:0:
498,186,40090,6,0,L|489:346,1,140,4|2,0:0|0:0,0:0:0:0:
400,358,40761,1,8,0:0:0:0:
400,267,40985,1,8,3:0:0:0:
400,267,41097,1,8,3:0:0:0:
400,267,41209,2,0,L|355:267,2,35,8|8|8,3:2|3:0|3:0,0:0:0:0:
303,323,41657,1,8,0:0:0:0:
246,194,41881,6,0,L|321:191,1,70,4|0,0:0|0:0,0:0:0:0:
386,132,42328,1,6,0:0:0:0:
388,99,42552,1,8,0:0:0:0:
288,67,42776,1,6,0:0:0:0:
286,34,43000,1,8,0:0:0:0:
203,108,43224,1,8,3:0:0:0:
203,108,43336,1,8,3:0:0:0:
203,108,43448,2,0,L|159:108,3,35,8|8|0|0,3:0|3:0|3:0|3:0,0:0:0:0:
134,129,43896,6,0,P|112:178|136:246,1,112,4|8,0:0|0:0,0:0:0:0:
184,284,44567,1,2,0:0:0:0:
181,314,44791,1,2,0:0:0:0:
249,362,45015,2,0,L|316:359,1,56,0|8,0:0|0:0,0:0:0:0:
369,295,45463,2,0,P|350:238|294:208,1,112,2|2,0:0|0:0,0:0:0:0:
225,194,46134,1,0,0:0:0:0:
144,218,46358,2,0,P|87:230|31:192,1,112,8|2,0:0|0:0,0:0:0:0:
6,128,47030,1,4,0:0:0:0:
6,128,47478,6,0,L|7:61,1,56,4|0,0:0|0:0,0:0:0:0:
93,101,47925,2,0,L|204:94,1,112,0|2,0:0|0:0,0:0:0:0:
252,24,48597,1,0,0:0:0:0:
292,97,48821,1,8,0:0:0:0:
377,9,49045,6,0,L|372:142,1,112,4|2,0:0|0:0,0:0:0:0:
441,169,49716,1,8,0:0:0:0:
441,169,49940,1,2,0:0:0:0:
403,243,50164,1,0,3:0:0:0:
403,243,50388,1,2,0:0:0:0:
470,304,50612,2,0,L|464:375,1,56,8|0,0:0|3:0,0:0:0:0:
364,358,51060,6,0,P|311:324|231:327,1,140,4|8,0:0|0:0,0:0:0:0:
145,363,51731,1,0,0:0:0:0:
79,289,51955,2,0,L|87:143,1,140,2|8,0:0|0:0,0:0:0:0:
189,161,52627,2,0,L|181:300,1,140,2|2,0:0|0:0,0:0:0:0:
263,354,53299,1,8,0:0:0:0:
263,354,53522,2,0,B|311:331|311:331|413:348,1,140,2|2,0:0|0:0,0:0:0:0:
462,271,54194,1,8,0:0:0:0:
408,188,54418,1,0,0:0:0:0:
408,188,54530,1,0,0:0:0:0:
408,188,54642,6,0,L|320:192,1,70,4|0,0:0|0:0,0:0:0:0:
215,117,55090,2,0,L|303:121,1,70,8|0,0:0|0:0,0:0:0:0:
349,46,55537,1,2,0:0:0:0:
416,116,55761,1,2,0:0:0:0:
473,23,55985,1,8,0:0:0:0:
349,46,56209,6,0,L|307:40,2,35,0|0|8,0:0|0:0|0:0,0:0:0:0:
416,116,56657,1,8,0:0:0:0:
416,116,56769,1,8,0:0:0:0:
416,116,56881,1,8,0:0:0:0:
334,167,57105,2,0,L|282:163,1,35,8|8,0:0|0:0,0:0:0:0:
205,95,57552,6,0,L|153:99,3,35
142,117,58000,1,8,0:0:0:0:
142,117,58112,1,8,0:0:0:0:
142,117,58224,6,0,P|166:166|131:264,1,154.000004699707,4|8,0:0|0:0,0:0:0:0:
58,329,58896,1,2,0:0:0:0:
155,374,59119,2,0,L|243:362,1,77.0000023498536,8|2,0:0|0:0,0:0:0:0:
293,275,59567,2,0,L|381:287,1,77.0000023498536,8|2,0:0|0:0,0:0:0:0:
451,214,60015,6,0,P|460:172|449:131,1,77.0000023498536,8|0,0:0|0:0,0:0:0:0:
431,116,60351,1,0,0:0:0:0:
431,116,60463,2,0,P|421:78|429:41,1,77.0000023498536,8|2,0:0|0:0,0:0:0:0:
322,21,60911,2,0,L|233:12,1,77.0000023498536,8|2,0:0|0:0,0:0:0:0:
221,44,61246,1,0,0:0:0:0:
221,44,61358,2,0,L|144:51,1,77.0000023498536,8|2,0:0|0:0,0:0:0:0:
52,109,61806,6,0,L|64:270,1,154.000004699707,8|8,0:0|0:0,0:0:0:0:
78,369,62478,1,2,0:0:0:0:
164,304,62702,2,0,P|209:283|287:303,2,115.50000352478,8|0|2,0:0|0:0|0:0,0:0:0:0:
85,170,63597,6,0,L|86:255,1,77.0000023498536,8|0,0:0|0:0,0:0:0:0:
54,266,63933,1,0,0:0:0:0:
54,266,64045,2,0,L|55:351,1,77.0000023498536,8|2,0:0|0:0,0:0:0:0:
156,363,64493,2,0,P|197:368|249:350,1,77.0000023498536,8|2,0:0|0:0,0:0:0:0:
253,332,64828,1,0,0:0:0:0:
253,332,64940,2,0,P|258:291|240:239,1,77.0000023498536,8|2,0:0|0:0,0:0:0:0:
160,203,65388,6,0,P|232:152|313:178,1,154.000004699707,8|8,0:0|0:0,0:0:0:0:
375,238,66060,1,2,0:0:0:0:
375,238,66284,2,0,L|373:101,2,115.50000352478,8|0|2,0:0|0:0|0:0,0:0:0:0:
466,295,67179,6,0,P|410:272|338:284,2,115.50000352478,10|2|2,0:0|0:0|0:0,0:0:0:0:
313,381,68075,2,0,P|369:358|441:370,2,115.50000352478,10|2|2,0:0|0:0|0:0,0:0:0:0:
200,315,68970,6,0,P|181:241|233:168,1,154.000004699707,8|8,0:0|0:0,0:0:0:0:
310,120,69642,1,2,0:0:0:0:
417,110,69866,1,8,0:0:0:0:
426,217,70090,1,2,0:0:0:0:
320,228,70313,1,8,0:0:0:0:
320,228,70425,1,8,0:0:0:0:
320,228,70537,1,8,0:0:0:0:
81,290,70985,6,0,L|253:283,1,154.000004699707,4|8,0:0|0:0,0:0:0:0:
301,198,71657,2,0,L|163:192,2,115.50000352478,8|12|12,3:0|3:0|3:0,0:0:0:0:
375,120,72552,6,0,B|343:158|343:158|343:268,1,154.000004699707,4|8,0:0|0:0,0:0:0:0:
424,333,73224,1,2,0:0:0:0:
424,333,73448,2,0,L|425:244,1,77.0000023498536,8|2,0:0|0:0,0:0:0:0:
496,174,73896,2,0,L|497:85,1,77.0000023498536,8|2,0:0|0:0,0:0:0:0:
406,37,74343,6,0,P|363:47|328:39,1,77.0000023498536,8|0,0:0|0:0,0:0:0:0:
302,16,74679,1,0,0:0:0:0:
302,16,74791,2,0,L|204:11,1,77.0000023498536,8|2,0:0|0:0,0:0:0:0:
162,100,75239,2,0,L|260:95,1,77.0000023498536,8|2,0:0|0:0,0:0:0:0:
272,118,75575,1,0,0:0:0:0:
272,118,75687,2,0,P|282:161|276:201,1,77.0000023498536,8|2,0:0|0:0,0:0:0:0:
203,276,76134,6,0,B|279:248|279:308|359:284,1,154.000004699707,8|8,0:0|0:0,0:0:0:0:
438,215,76806,1,2,0:0:0:0:
361,138,77030,2,0,L|369:21,2,115.50000352478,8|0|2,0:0|0:0|0:0,0:0:0:0:
298,225,77925,6,0,P|252:209|203:198,1,77.0000023498536,8|0,0:0|0:0,0:0:0:0:
151,308,78373,2,0,P|197:292|246:281,1,77.0000023498536,8|2,0:0|0:0,0:0:0:0:
143,215,78821,2,0,P|105:205|69:192,2,77.0000023498536,8|2|8,0:0|0:0|0:0,0:0:0:0:
142,113,79493,1,2,0:0:0:0:
142,113,79716,6,0,P|175:88|259:81,2,115.50000352478,8|0|2,0:0|0:0|0:0,0:0:0:0:
226,181,80612,2,0,L|305:174,1,77.0000023498536,8|2,0:0|0:0,0:0:0:0:
354,269,81060,2,0,L|275:262,1,77.0000023498536,8|2,0:0|0:0,0:0:0:0:
404,196,81508,6,0,B|392:156|392:156|405:82,2,115.50000352478,8|0|2,0:0|0:0|0:0,0:0:0:0:
496,250,82403,1,8,0:0:0:0:
465,351,82627,1,2,0:0:0:0:
465,351,82739,1,0,0:0:0:0:
465,351,82851,2,0,L|415:341,3,38.5000011749268,8|8|8|8,0:0|0:0|0:0|0:0,0:0:0:0:
411,314,83299,5,0,0:0:0:0:
57,223,97627,6,0,L|62:76,1,140,4|8,0:0|0:0,0:0:0:0:
141,24,98299,1,0,0:0:0:0:
141,24,98522,1,0,0:0:0:0:
196,104,98746,2,0,L|286:100,1,70,2|8,0:0|0:0,0:0:0:0:
380,33,99194,2,0,L|290:29,1,70,2|0,0:0|0:0,0:0:0:0:
463,62,99642,2,0,P|445:92|417:113,1,70,2|8,0:0|0:0,0:0:0:0:
332,142,100090,2,0,P|350:172|378:193,1,70
448,243,100537,2,0,P|384:227|318:271,1,140,2|0,0:0|0:0,0:0:0:0:
249,328,101209,6,0,L|88:315,1,140,2|8,0:0|0:0,0:0:0:0:
47,240,101881,1,0,0:0:0:0:
47,240,102105,2,0,L|60:79,1,140,0|8,0:0|0:0,0:0:0:0:
138,44,102776,1,0,0:0:0:0:
138,44,103224,1,2,0:0:0:0:
200,119,103448,1,8,0:0:0:0:
249,34,103672,2,0,L|336:35,1,70,2|0,0:0|0:0,0:0:0:0:
421,112,104119,2,0,L|351:111,1,70,2|8,0:0|0:0,0:0:0:0:
458,275,104791,6,0,B|464:197|464:197|451:113,1,140,2|8,0:0|0:0,0:0:0:0:
406,50,105463,1,0,0:0:0:0:
339,122,105687,1,0,0:0:0:0:
267,54,105911,2,0,P|229:57|182:62,1,70,2|8,0:0|0:0,0:0:0:0:
156,149,106358,2,0,P|118:146|71:141,1,70,2|0,0:0|0:0,0:0:0:0:
25,65,106806,2,0,L|41:213,2,140,2|0|2,0:0|0:0|0:0,0:0:0:0:
214,12,108149,1,2,0:0:0:0:
214,12,108373,6,0,L|353:27,1,140,0|8,0:0|0:0,0:0:0:0:
416,102,109045,1,0,0:0:0:0:
416,102,109269,2,0,P|436:161|394:230,1,140,0|8,0:0|0:0,0:0:0:0:
317,277,109940,1,0,0:0:0:0:
317,277,110052,1,0,0:0:0:0:
317,277,110164,2,0,L|240:269,1,70,2|2,0:0|0:0,0:0:0:0:
183,333,110612,6,0,B|212:294|212:294|208:194,1,140,12|8,0:0|0:0,0:0:0:0:
209,104,111284,1,0,3:0:0:0:
209,104,111396,1,0,3:0:0:0:
209,104,111508,2,0,L|209:49,2,35,8|8|8,3:0|3:0|3:0,0:0:0:0:
284,168,111955,6,0,B|356:148|356:196|440:176,1,140,4|8,0:0|0:0,0:0:0:0:
482,256,112627,1,0,0:0:0:0:
444,346,112851,1,0,0:0:0:0:
359,295,113075,2,0,L|274:287,1,70,2|8,0:0|0:0,0:0:0:0:
181,368,113522,2,0,L|266:360,1,70,2|0,0:0|0:0,0:0:0:0:
194,280,113970,2,0,P|172:229|203:150,2,140,2|0|2,0:0|0:0|0:0,0:0:0:0:
273,111,115313,1,0,0:0:0:0:
273,111,115537,6,0,L|118:94,1,140,2|8,0:0|0:0,0:0:0:0:
49,145,116209,1,0,0:0:0:0:
49,145,116433,2,0,L|33:284,1,140,0|8,0:0|0:0,0:0:0:0:
104,352,117105,1,2,0:0:0:0:
104,352,117552,5,2,0:0:0:0:
182,293,117776,1,8,0:0:0:0:
269,336,118000,1,2,0:0:0:0:
269,336,118448,5,2,0:0:0:0:
330,259,118672,1,8,0:0:0:0:
284,172,118896,1,0,0:0:0:0:
204,117,119119,6,0,P|246:82|344:94,1,140,2|8,0:0|0:0,0:0:0:0:
396,155,119791,1,0,0:0:0:0:
486,116,120015,2,0,L|475:288,1,140,0|8,0:0|0:0,0:0:0:0:
408,328,120687,2,0,B|308:288|304:376|184:324,1,210,2|8,0:0|0:0,0:0:0:0:
134,262,121582,2,0,L|145:90,1,140,0|2,0:0|0:0,0:0:0:0:
152,24,122254,1,8,0:0:0:0:
243,82,122478,6,0,P|291:102|385:53,1,140,4|2,0:0|0:0,0:0:0:0:
440,4,123149,1,8,0:0:0:0:
497,83,123373,1,8,3:0:0:0:
497,83,123485,1,8,3:0:0:0:
497,83,123597,1,8,3:0:0:0:
426,151,123821,1,2,0:0:0:0:
500,214,124045,1,8,0:0:0:0:
421,272,124269,6,0,L|335:267,1,70,4|0,0:0|0:0,0:0:0:0:
277,332,124716,1,6,0:0:0:0:
274,305,124940,1,8,0:0:0:0:
177,285,125164,1,6,0:0:0:0:
180,258,125388,1,8,0:0:0:0:
129,174,125612,1,8,3:0:0:0:
129,174,125724,1,8,3:0:0:0:
129,174,125836,2,0,L|78:182,3,35,8|8|0|0,3:0|3:0|3:0|3:0,0:0:0:0:
64,200,126284,6,0,B|76:150|76:150|68:71,1,112,4|8,0:0|0:0,0:0:0:0:
121,30,126955,1,2,0:0:0:0:
121,30,127179,1,2,0:0:0:0:
183,76,127403,2,0,L|257:66,1,56,0|8,0:0|0:0,0:0:0:0:
302,114,127851,2,0,P|344:71|408:72,1,112,2|2,0:0|0:0,0:0:0:0:
455,124,128522,1,0,0:0:0:0:
455,124,128746,2,0,L|453:254,1,112,8|2,0:0|0:0,0:0:0:0:
390,283,129418,1,12,0:0:0:0:
268,183,129866,6,0,L|197:190,1,56,4|0,0:0|0:0,0:0:0:0:
158,245,130313,2,0,P|163:197|122:134,1,112,0|2,0:0|0:0,0:0:0:0:
80,84,130985,1,0,0:0:0:0:
141,34,131209,1,8,0:0:0:0:
213,86,131433,6,0,P|252:104|321:81,1,112,4|2,0:0|0:0,0:0:0:0:
381,31,132105,1,8,0:0:0:0:
381,31,132328,1,2,0:0:0:0:
432,105,132552,1,0,3:0:0:0:
432,105,132776,1,2,0:0:0:0:
482,180,133000,2,0,L|477:242,1,56,8|0,0:0|3:0,0:0:0:0:
400,296,133448,6,0,B|356:276|356:276|264:280,1,140,4|8,0:0|0:0,0:0:0:0:
193,347,134119,1,0,0:0:0:0:
193,347,134343,2,0,P|166:286|195:209,1,140,2|8,0:0|0:0,0:0:0:0:
251,147,135015,2,0,L|407:177,1,140,2|2,0:0|0:0,0:0:0:0:
472,123,135687,1,8,0:0:0:0:
416,42,135911,2,0,L|278:15,1,140,0|2,0:0|0:0,0:0:0:0:
193,64,136582,1,8,0:0:0:0:
233,153,136806,1,0,0:0:0:0:
152,208,137030,6,0,P|202:188|291:218,1,140,4|8,0:0|0:0,0:0:0:0:
340,290,137702,1,0,0:0:0:0:
340,290,137925,2,0,L|339:378,1,70,2|2,0:0|0:0,0:0:0:0:
428,322,138373,2,0,L|427:234,1,70,8|0,0:0|0:0,0:0:0:0:
423,153,138821,5,8,0:0:0:0:
507,201,139045,1,8,0:0:0:0:
507,201,139157,1,8,0:0:0:0:
507,201,139269,1,8,0:0:0:0:
504,102,139493,2,0,L|501:64,1,35,8|8,0:0|0:0,0:0:0:0:
370,40,139940,6,0,L|332:43,3,35
311,65,140388,1,8,0:0:0:0:
311,65,140500,1,8,0:0:0:0:
311,65,140612,6,0,L|316:232,1,154.000004699707,4|8,0:0|0:0,0:0:0:0:
402,283,141284,1,0,0:0:0:0:
321,354,141508,2,0,L|240:348,1,77.0000023498536,8|2,0:0|0:0,0:0:0:0:
137,277,141955,2,0,L|221:272,1,77.0000023498536,8|2,0:0|0:0,0:0:0:0:
264,176,142403,6,0,P|271:130|265:88,1,77.0000023498536,8|0,0:0|0:0,0:0:0:0:
264,60,142739,1,0,0:0:0:0:
264,60,142851,2,0,L|362:54,1,77.0000023498536,8|0,0:0|0:0,0:0:0:0:
481,112,143299,2,0,L|386:103,1,77.0000023498536,8|2,0:0|0:0,0:0:0:0:
377,129,143634,1,0,0:0:0:0:
377,129,143746,1,8,0:0:0:0:
426,224,143970,1,2,0:0:0:0:
334,299,144194,6,0,P|287:258|179:266,1,154.000004699707,8|8,0:0|0:0,0:0:0:0:
119,329,144866,1,0,0:0:0:0:
37,258,145090,2,0,L|46:165,1,77.0000023498536,8|2,0:0|0:0,0:0:0:0:
149,133,145537,2,0,L|142:215,1,77.0000023498536,8|2,0:0|0:0,0:0:0:0:
251,169,145985,6,0,P|293:180|337:165,1,77.0000023498536,8|0,0:0|0:0,0:0:0:0:
354,149,146321,1,0,0:0:0:0:
354,149,146433,2,0,P|392:137|431:147,1,77.0000023498536,8|0,0:0|0:0,0:0:0:0:
509,235,146881,2,0,L|505:333,1,77.0000023498536,8|2,0:0|0:0,0:0:0:0:
488,338,147216,1,0,0:0:0:0:
488,338,147328,1,8,0:0:0:0:
402,257,147552,1,2,0:0:0:0:
336,354,147776,6,0,B|285:332|285:332|171:359,1,154.000004699707,8|8,0:0|0:0,0:0:0:0:
99,293,148448,1,0,0:0:0:0:
164,207,148672,2,0,P|222:194|297:217,2,115.50000352478,8|0|2,0:0|0:0|0:0,0:0:0:0:
104,268,149567,6,0,L|112:118,2,115.50000352478,10|2|0,0:0|0:0|0:0,0:0:0:0:
225,201,150463,2,0,L|218:316,2,115.50000352478,10|2|2,0:0|0:0|0:0,0:0:0:0:
234,93,151358,6,0,P|288:73|385:101,1,154.000004699707,8|8,0:0|0:0,0:0:0:0:
415,198,152030,1,0,0:0:0:0:
379,299,152254,1,8,0:0:0:0:
277,262,152478,1,2,0:0:0:0:
314,161,152702,1,8,0:0:0:0:
314,161,152813,1,8,0:0:0:0:
314,161,152925,1,8,0:0:0:0:
122,60,153373,6,0,L|126:220,1,154.000004699707,4|8,0:0|0:0,0:0:0:0:
227,175,154045,1,10,0:0:0:0:
204,280,154269,1,12,0:0:0:0:
204,280,154381,1,0,0:0:0:0:
204,280,154493,2,0,L|268:278,2,38.5000011749268,8|8|8,0:0|0:0|0:0,0:0:0:0:
288,347,154940,6,0,P|328:313|431:319,1,154.000004699707,4|8,0:0|0:0,0:0:0:0:
486,226,155612,1,0,0:0:0:0:
486,226,155836,2,0,L|479:136,1,77.0000023498536,8|0,0:0|0:0,0:0:0:0:
372,140,156284,2,0,L|379:50,1,77.0000023498536,8|2,0:0|0:0,0:0:0:0:
281,18,156731,6,0,L|275:94,1,77.0000023498536,8|0,0:0|0:0,0:0:0:0:
250,115,157067,1,0,0:0:0:0:
250,115,157179,2,0,P|210:98|164:99,1,77.0000023498536,8|0,0:0|0:0,0:0:0:0:
46,178,157627,2,0,P|86:161|132:162,1,77.0000023498536,8|2,0:0|0:0,0:0:0:0:
150,183,157963,1,0,0:0:0:0:
150,183,158075,2,0,L|144:259,1,77.0000023498536,8|2,0:0|0:0,0:0:0:0:
202,339,158522,6,0,B|257:307|257:307|369:338,1,154.000004699707,8|8,0:0|0:0,0:0:0:0:
423,258,159194,1,0,0:0:0:0:
356,173,159418,2,0,L|361:76,1,77.0000023498536,8|0,0:0|0:0,0:0:0:0:
460,54,159866,2,0,L|456:130,1,77.0000023498536,8|2,0:0|0:0,0:0:0:0:
360,61,160313,2,0,L|175:51,1,154.000004699707,8|8,0:0|0:0,0:0:0:0:
114,111,160985,1,0,0:0:0:0:
114,111,161209,2,0,L|113:199,1,77.0000023498536,8|2,0:0|0:0,0:0:0:0:
17,239,161657,2,0,L|18:327,1,77.0000023498536,8|2,0:0|0:0,0:0:0:0:
118,356,162105,6,0,P|148:322|235:324,2,115.50000352478,8|0|0,0:0|0:0|0:0,0:0:0:0:
63,262,163000,2,0,P|51:222|65:180,1,77.0000023498536,8|2,0:0|0:0,0:0:0:0:
149,128,163448,2,0,L|256:146,1,77.0000023498536,8|2,0:0|0:0,0:0:0:0:
295,67,163896,6,0,B|318:144|318:144|301:208,2,115.50000352478,8|0|0,0:0|0:0|0:0,0:0:0:0:
382,4,164791,1,8,0:0:0:0:
438,96,165015,1,2,0:0:0:0:
438,96,165127,1,0,0:0:0:0:
438,96,165239,2,0,L|429:152,3,38.5000011749268,8|8|8|8,0:0|0:0|0:0|0:0,0:0:0:0:
468,172,165687,6,0,P|396:163|331:204,1,140,4|8,0:0|0:0,0:0:0:0:
288,278,166358,1,2,0:0:0:0:
288,278,166582,2,0,L|291:365,1,70,8|2,0:0|0:0,0:0:0:0:
197,240,167030,2,0,L|200:327,1,70,8|2,0:0|0:0,0:0:0:0:
110,215,167478,2,0,L|104:67,1,140,8|8,0:0|0:0,0:0:0:0:
176,5,168149,2,0,L|249:8,1,70,2|8,0:0|0:0,0:0:0:0:
300,91,168598,2,0,L|227:94,1,70,2|8,0:0|0:0,0:0:0:0:
167,169,169045,1,2,0:0:0:0:
167,169,169269,6,0,P|203:202|204:298,1,140,8|8,0:0|0:0,0:0:0:0:
80,353,169940,1,2,0:0:0:0:
80,353,170164,2,0,L|163:346,1,70,8|2,0:0|0:0,0:0:0:0:
208,288,170612,1,8,0:0:0:0:
272,361,170836,1,2,0:0:0:0:
272,361,170948,1,0,0:0:0:0:
272,361,171060,6,0,L|438:347,1,140,8|8,0:0|0:0,0:0:0:0:
471,278,171731,2,0,P|496:311|500:360,1,70,2|8,0:0|0:0,0:0:0:0:
371,268,172179,2,0,P|393:241|402:207,1,70,2|8,0:0|0:0,0:0:0:0:
445,119,172627,1,2,0:0:0:0:
445,119,172851,6,0,L|279:105,1,140,8|8,0:0|0:0,0:0:0:0:
273,14,173522,1,2,0:0:0:0:
273,14,173746,2,0,L|122:84,1,140,8|8,0:0|0:0,0:0:0:0:
61,122,174418,1,2,0:0:0:0:
138,181,174642,2,0,B|154:225|154:225|144:320,1,140,8|8,0:0|0:0,0:0:0:0:
85,379,175313,1,2,0:0:0:0:
85,379,175537,2,0,P|145:346|235:355,1,140,8|8,0:0|0:0,0:0:0:0:
306,382,176209,1,2,0:0:0:0:
373,290,176433,6,0,L|366:140,1,140,8|8,0:0|0:0,0:0:0:0:
262,138,177105,1,2,0:0:0:0:
275,39,177328,1,8,0:0:0:0:
372,54,177552,1,2,0:0:0:0:
367,151,177776,1,8,0:0:0:0:
367,151,177888,1,8,0:0:0:0:
367,151,178000,1,8,0:0:0:0:
135,37,178448,6,0,L|274:38,1,140,4|8,0:0|0:0,0:0:0:0:
311,67,179008,1,8,0:0:0:0:
311,67,179119,2,0,P|365:36|422:38,2,105,8|8|8,3:0|3:0|3:0,0:0:0:0:
230,137,180015,6,0,L|239:288,1,140,4|8,0:0|0:0,0:0:0:0:
315,338,180687,1,2,0:0:0:0:
315,338,180799,1,0,0:0:0:0:
315,338,180911,2,0,L|394:333,1,70,8|2,0:0|0:0,0:0:0:0:
425,248,181358,2,0,L|355:252,1,70,8|2,0:0|0:0,0:0:0:0:
299,171,181806,6,0,B|287:75|287:75|304:31,1,140,8|8,0:0|0:0,0:0:0:0:
385,88,182478,2,0,P|426:96|460:86,1,70,2|8,0:0|0:0,0:0:0:0:
302,34,182925,2,0,P|261:26|227:36,1,70,2|8,0:0|0:0,0:0:0:0:
158,95,183373,1,2,0:0:0:0:
158,95,183485,1,0,0:0:0:0:
158,95,183597,2,0,L|161:243,1,140,8|8,0:0|0:0,0:0:0:0:
223,310,184269,2,0,L|265:304,2,35,2|0|8,0:0|0:0|0:0,0:0:0:0:
140,362,184716,2,0,L|56:350,2,70,2|8|2,0:0|0:0|0:0,0:0:0:0:
223,310,185388,6,0,B|291:286|288:344|379:318,1,140,8|8,0:0|0:0,0:0:0:0:
436,262,186060,1,2,0:0:0:0:
436,262,186284,2,0,L|428:122,1,140,8|8,0:0|0:0,0:0:0:0:
345,69,186955,1,2,0:0:0:0:
399,0,187179,2,0,P|333:41|254:28,1,140,8|8,0:0|0:0,0:0:0:0:
219,105,187851,1,2,0:0:0:0:
219,105,187963,1,0,0:0:0:0:
219,105,188075,2,0,P|285:64|364:77,1,140,8|8,0:0|0:0,0:0:0:0:
412,139,188746,1,2,0:0:0:0:
412,139,188970,6,0,L|401:288,1,140,8|8,0:0|0:0,0:0:0:0:
324,339,189642,1,2,0:0:0:0:
324,339,189754,1,0,0:0:0:0:
324,339,189866,2,0,L|225:333,1,70,8|2,0:0|0:0,0:0:0:0:
182,267,190313,2,0,L|188:221,3,35,8|8|8|8,0:0|0:0|0:0|0:0,0:0:0:0:
163,197,190761,5,8,3:0:0:0:
238,159,190985,1,8,3:0:0:0:
198,84,191209,1,8,3:0:0:0:
198,84,192328,6,0,L|334:79,1,112,4|2,0:0|0:0,0:0:0:0:
455,165,193224,2,0,L|319:160,1,112,8|2,0:0|0:0,0:0:0:0:
258,155,193896,1,12,0:0:0:0:
121,251,194343,6,0,L|185:247,2,56,2|0|0,0:0|0:0|0:0,0:0:0:0:
69,317,195015,1,2,0:0:0:0:
69,317,195239,2,0,P|91:258|74:199,1,112,2|8,0:0|0:0,0:0:0:0:
0,141,195911,6,0,P|45:114|132:127,1,140,4|2,0:0|0:0,0:0:0:0:
213,169,196582,1,8,0:0:0:0:
169,256,196806,1,2,0:0:0:0:
81,211,197030,1,0,0:0:0:0:
126,125,197254,2,0,L|113:36,2,70,2|0|0,0:0|0:0|3:0,0:0:0:0:
213,169,197925,6,0,P|267:147|358:170,1,140,4|8,0:0|0:0,0:0:0:0:
409,242,198597,1,0,0:0:0:0:
464,161,198821,2,0,P|499:207|485:305,1,140,2|8,0:0|0:0,0:0:0:0:
435,363,199493,2,0,P|392:338|283:367,1,140,2|2,0:0|0:0,0:0:0:0:
210,372,200164,1,8,0:0:0:0:
237,277,200388,1,0,0:0:0:0:
162,213,200612,2,0,L|3:233,1,140,2|8,0:0|0:0,0:0:0:0:
7,133,201284,1,0,0:0:0:0:
67,55,201508,5,2,3:2:0:0:
277,260,202179,1,2,3:2:0:0:
308,22,202851,1,6,3:2:0:0:
426,196,203522,5,2,0:0:0:0:
431,184,203970,1,2,0:0:0:0:
436,172,204418,1,2,0:0:0:0:
396,290,204866,5,8,0:0:0:0:
396,290,204978,1,8,0:0:0:0:
396,290,205090,1,4,0:0:0:0:
104,84,219418,6,0,B|192:60|192:124|268:96,1,168,4|2,0:0|0:0,0:0:0:0:
342,61,220313,2,0,P|403:47|435:59,2,84,0|0|2,0:0|0:0|0:0,0:0:0:0:
291,128,221209,2,0,L|299:230,2,84,2|0|2,0:0|0:0|0:0,0:0:0:0:
206,138,222105,2,0,L|214:240,2,84,2|0|2,0:0|0:0|0:0,0:0:0:0:
125,163,223000,6,0,P|89:220|126:312,1,168,0|0,0:0|0:0,0:0:0:0:
269,256,224119,2,0,L|401:287,1,112,2|2,0:0|0:0,0:0:0:0:
419,353,224791,2,0,P|456:307|412:208,1,168,2|0,0:0|0:0,0:0:0:0:
348,171,225687,2,0,L|238:145,1,112,0|0,0:0|0:0,0:0:0:0:
123,39,226582,6,0,P|110:88|125:133,2,84,2|0|2,0:0|0:0|0:0,0:0:0:0:
197,13,227478,1,0,0:0:0:0:
197,13,228149,1,2,0:0:0:0:
255,72,228373,2,0,L|339:69,2,84,2|0|2,0:0|0:0|0:0,0:0:0:0:
226,151,229269,2,0,L|310:148,2,84,0|0|0,0:0|0:0|0:0,0:0:0:0:
129,87,230164,6,0,B|95:128|95:128|100:232,1,154.000004699707,4|8,0:0|0:0,0:0:0:0:
190,270,230836,1,2,0:0:0:0:
100,349,231060,2,0,L|185:363,1,77.0000023498536,8|2,0:0|0:0,0:0:0:0:
291,274,231508,2,0,L|206:288,1,77.0000023498536,8|2,0:0|0:0,0:0:0:0:
142,196,231955,6,0,P|132:154|142:113,1,77.0000023498536,8|0,0:0|0:0,0:0:0:0:
161,93,232291,1,0,0:0:0:0:
161,93,232403,2,0,P|203:83|244:93,1,77.0000023498536,8|2,0:0|0:0,0:0:0:0:
322,160,232851,2,0,L|317:246,1,77.0000023498536,8|2,0:0|0:0,0:0:0:0:
330,272,233187,1,0,0:0:0:0:
330,272,233299,2,0,L|416:277,1,77.0000023498536,8|2,0:0|0:0,0:0:0:0:
498,206,233746,6,0,L|507:39,1,154.000004699707,8|8,0:0|0:0,0:0:0:0:
407,47,234418,1,2,0:0:0:0:
301,25,234642,2,0,L|389:43,1,77.0000023498536,8|0,0:0|0:0,0:0:0:0:
446,133,235090,2,0,L|358:151,1,77.0000023498536,8|2,0:0|0:0,0:0:0:0:
277,210,235537,6,0,P|260:170|267:120,1,77.0000023498536,8|0,0:0|0:0,0:0:0:0:
275,104,235873,1,0,0:0:0:0:
275,104,235985,2,0,L|171:92,1,77.0000023498536,8|2,0:0|0:0,0:0:0:0:
55,165,236433,2,0,L|159:153,1,77.0000023498536,8|2,0:0|0:0,0:0:0:0:
163,175,236769,1,0,0:0:0:0:
163,175,236881,2,0,P|180:215|173:265,1,77.0000023498536,8|2,0:0|0:0,0:0:0:0:
108,329,237328,6,0,P|149:299|256:306,1,154.000004699707,8|8,0:0|0:0,0:0:0:0:
341,357,238000,1,2,0:0:0:0:
341,357,238224,2,0,B|399:376|399:376|476:345,2,115.50000352478,8|0|2,0:0|0:0|0:0,0:0:0:0:
262,279,239119,6,0,P|238:221|265:153,2,115.50000352478,10|2|2,0:0|0:0|0:0,0:0:0:0:
348,214,240015,2,0,P|372:156|345:88,2,115.50000352478,10|2|2,0:0|0:0|0:0,0:0:0:0:
288,60,240911,6,0,L|454:84,1,154.000004699707,8|8,0:0|0:0,0:0:0:0:
492,176,241582,1,2,0:0:0:0:
467,281,241806,1,8,0:0:0:0:
362,256,242030,1,2,0:0:0:0:
387,151,242254,1,8,0:0:0:0:
387,151,242366,1,8,0:0:0:0:
387,151,242478,1,8,0:0:0:0:
275,334,242925,6,0,B|251:225|251:225|278:173,1,154.000004699707,4|8,0:0|0:0,0:0:0:0:
289,155,243485,1,8,0:0:0:0:
289,155,243597,2,0,L|148:167,2,115.50000352478,8|12|12,3:0|3:0|3:0,0:0:0:0:
364,68,244493,6,0,P|400:100|399:208,1,154.000004699707,4|8,0:0|0:0,0:0:0:0:
346,291,245164,1,2,0:0:0:0:
437,348,245388,2,0,L|434:253,1,77.0000023498536,8|0,0:0|0:0,0:0:0:0:
327,254,245836,2,0,L|329:330,1,77.0000023498536,8|2,0:0|0:0,0:0:0:0:
227,368,246284,6,0,P|184:358|151:359,1,77.0000023498536,8|0,0:0|0:0,0:0:0:0:
121,336,246619,1,0,0:0:0:0:
121,336,246731,2,0,L|130:243,1,77.0000023498536,8|2,0:0|0:0,0:0:0:0:
207,192,247179,2,0,L|216:285,1,77.0000023498536,8|2,0:0|0:0,0:0:0:0:
241,300,247515,1,0,0:0:0:0:
241,300,247627,2,0,P|284:290|317:291,1,77.0000023498536,8|2,0:0|0:0,0:0:0:0:
383,196,248075,6,0,L|377:107,1,77.0000023498536,8|0,0:0|0:0,0:0:0:0:
467,68,248522,2,0,L|472:144,1,77.0000023498536,8|2,0:0|0:0,0:0:0:0:
388,272,248970,2,0,L|382:183,1,77.0000023498536,8|2,0:0|0:0,0:0:0:0:
385,163,249306,1,0,0:0:0:0:
385,163,249418,1,8,0:0:0:0:
285,205,249642,1,2,0:0:0:0:
186,118,249866,6,0,P|145:108|107:107,1,77.0000023498536,8|0,0:0|0:0,0:0:0:0:
49,201,250313,2,0,P|90:191|128:190,1,77.0000023498536,8|2,0:0|0:0,0:0:0:0:
186,284,250761,2,0,P|145:274|107:273,2,77.0000023498536,8|2|8,0:0|0:0|0:0,0:0:0:0:
274,343,251433,1,2,0:0:0:0:
274,343,251657,6,0,L|270:200,2,115.50000352478,8|0|2,0:0|0:0|0:0,0:0:0:0:
369,280,252552,2,0,L|364:108,1,154.000004699707,8|8,0:0|0:0,0:0:0:0:
268,150,253224,1,2,0:0:0:0:
228,62,253448,6,0,B|188:35|188:35|108:52|108:52,2,115.50000352478,8|0|2,0:0|0:0|0:0,0:0:0:0:
296,145,254343,1,8,0:0:0:0:
223,224,254567,1,2,0:0:0:0:
223,224,254679,1,0,0:0:0:0:
223,224,254791,2,0,L|232:282,3,38.5000011749268,8|8|8|8,0:0|0:0|0:0|0:0,0:0:0:0:
206,290,255239,5,4,0:0:0:0:
113,163,255687,2,0,L|114:225,1,56,0|0,0:0|0:0,0:0:0:0:
42,251,256135,2,0,L|43:313,1,56,0|0,0:0|0:0,0:0:0:0:
112,346,256583,1,0,0:0:0:0:
112,346,256807,2,0,P|154:360|236:346,1,112,2|2,0:0|0:0,0:0:0:0:
280,302,257478,2,0,L|272:174,1,112,0|0,0:0|0:0,0:0:0:0:
269,21,258374,2,0,L|335:12,1,56,0|0,0:0|0:0,0:0:0:0:
386,64,258822,6,0,P|368:111|401:178,2,112,2|0|0,0:0|0:0|0:0,0:0:0:0:
450,222,260165,1,0,0:0:0:0:
450,222,260389,2,0,L|312:225,1,112,2|2,0:0|0:0,0:0:0:0:
272,275,261060,1,0,0:0:0:0:
272,275,261508,1,0,0:0:0:0:
272,275,261956,1,0,0:0:0:0:
137,354,262404,6,0,P|133:297|129:229,2,112,2|0|0,0:0|0:0|0:0,0:0:0:0:
294,341,263747,1,0,0:0:0:0:
294,341,263971,2,0,P|237:345|169:349,1,112,2|2,0:0|0:0,0:0:0:0:
128,292,264642,2,0,P|109:257|118:178,2,112,0|0|0,0:0|0:0|0:0,0:0:0:0:
276,343,265986,5,2,0:0:0:0:
128,292,266434,1,0,0:0:0:0:
179,144,266881,1,0,0:0:0:0:
328,195,267329,1,0,0:0:0:0:
276,343,267777,5,2,0:0:0:0:
276,343,268448,1,2,0:0:0:0:
256,192,270015,12,0,274940,0:0:0:0:
