osu file format v14

[General]
AudioFilename: audio.mp3
AudioLeadIn: 0
PreviewTime: 2860
Countdown: 1
SampleSet: Soft
StackLeniency: 0.7
Mode: 0
LetterboxInBreaks: 0
WidescreenStoryboard: 0

[Editor]
DistanceSpacing: 5.9
BeatDivisor: 8
GridSize: 4
TimelineZoom: 1

[Metadata]
Title:Banger
TitleUnicode:Banger
Artist:Rontsoil
ArtistUnicode:Rontsoil
Creator:Justus
Version:Mulla kilisee taskussa kulta?
Source:
Tags:
BeatmapID:2033425
BeatmapSetID:971130

[Difficulty]
HPDrainRate:1
CircleSize:4
OverallDifficulty:8
ApproachRate:9
SliderMultiplier:3.5
SliderTickRate:1

[Events]
//Background and Video events
0,0,"rontsoilxd.png",0,0
//Break Periods
//Storyboard Layer 0 (Background)
//Storyboard Layer 1 (Fail)
//Storyboard Layer 2 (Pass)
//Storyboard Layer 3 (Foreground)
//Storyboard Sound Samples

[TimingPoints]
2860,625,4,2,0,75,1,0
2860,-50,4,2,0,75,0,1
5047,-33.3333333333333,4,2,0,75,0,1
5360,-200,4,2,0,75,0,1
5672,-50,4,2,0,75,0,1
7469,-33.3333333333333,4,2,0,75,0,1
7860,-200,4,2,0,75,0,1
8485,-50,4,2,0,75,0,1
9813,-200,4,2,0,75,0,1
10985,-50,4,2,0,75,0,1
11375,-200,4,2,0,75,0,1
12469,-50,4,2,0,75,0,1
13172,-200,4,2,0,75,0,1
14422,-50,4,2,0,75,0,1
14813,-200,4,2,0,75,0,0

[Colours]
Combo1 : 0,128,0
Combo2 : 0,128,64

[HitObjects]
105,210,2860,6,0,B|66:222|27:184|55:130|107:135|107:135|188:146|173:216|293:187,1,350
356,99,3328,1,0,0:0:0:0:
230,293,3485,2,0,B|183:304|143:285|143:285|137:228|84:194,1,175
239,109,3797,2,0,B|289:16|289:16|223:37,1,175
106,211,4110,2,0,B|41:226|0:216|0:216|31:184|60:191,1,175
230,293,4422,2,0,B|275:341|287:382|287:382|244:371|236:342,1,175
234,135,4735,2,0,B|253:71|282:40|282:40|294:83|273:104,1,175
480,229,5047,6,0,B|445:153|443:98|443:98|434:140|413:180|413:180|392:146|391:109|391:109|378:166|334:205,1,393.750015020371
206,216,5360,2,0,P|238:214|271:219,1,65.625
91,69,5672,5,0,0:0:0:0:
101,218,5750,1,0,0:0:0:0:
113,364,5828,1,0,0:0:0:0:
18,117,5985,6,0,P|-22:184|46:222,1,175
366,58,6297,2,0,P|326:69|297:118,1,87.5
285,299,6453,2,0,P|291:256|271:218,1,87.5
142,87,6610,2,0,P|164:123|204:139,1,87.5
379,145,6766,1,0,0:0:0:0:
200,270,6922,2,0,B|144:264|54:328|54:328|100:287|124:232,1,262.5
220,55,7235,1,0,0:0:0:0:
338,251,7391,5,0,0:0:0:0:
338,251,7469,2,0,B|389:264|465:241|465:241|400:198|281:203|281:203|290:212|290:212|199:248|105:200,1,525.000020027161
56,119,7860,2,0,L|52:140,4,21.875
129,313,8328,5,0,0:0:0:0:
257,320,8406,1,0,0:0:0:0:
398,323,8485,2,0,P|472:200|329:205,1,350
399,242,8953,2,0,B|340:273|326:329|326:329|287:286|234:277|194:294,1,262.5
37,165,9266,2,0,B|96:195|110:251|110:251|149:208|202:199|242:216,1,262.5
307,165,9578,2,0,P|285:93|359:98,1,175
423,98,9813,6,0,P|391:106|359:98,1,65.625
221,30,10203,1,0,0:0:0:0:
176,111,10360,1,0,0:0:0:0:
176,111,10438,2,0,L|171:137,4,21.875
96,67,10906,5,0,0:0:0:0:
25,147,10985,2,0,B|63:163|113:164|113:164|127:196|126:254|126:254|216:210|314:228,1,350
367,282,11375,6,0,P|420:288|473:276,1,109.375
415,170,11844,1,0,0:0:0:0:
253,314,12000,2,0,L|251:335,1,21.875
105,201,12235,2,0,L|106:222,2,21.875
340,81,12469,6,0,B|319:53|319:53|307:95|307:95|330:117|330:117|303:162|319:225|351:258,1,262.5
412,177,12860,1,0,0:0:0:0:
230,228,13016,1,0,0:0:0:0:
98,50,13172,6,0,L|103:100,1,43.75
451,74,13485,2,0,L|446:124,1,43.75
112,177,13797,6,0,L|117:227,1,43.75
439,198,14110,2,0,L|434:248,1,43.75
136,296,14422,5,0,0:0:0:0:
136,296,14500,2,0,B|143:349|143:349|203:314|203:314|208:258|264:228|302:237,1,262.5
293,321,14813,2,0,P|317:342|348:352,1,65.625
370,274,15203,1,0,0:0:0:0:
40,141,15360,5,0,0:0:0:0:
199,124,15438,1,0,0:0:0:0:
357,104,15516,2,0,L|400:105,2,43.75
70,227,15985,2,0,L|26:228,1,43.75
140,279,16297,2,0,L|183:277,1,43.75
