osu file format v14

[General]
AudioFilename: audio.mp3
AudioLeadIn: 0
PreviewTime: 42470
Countdown: 0
SampleSet: Soft
StackLeniency: 0.7
Mode: 0
LetterboxInBreaks: 0
WidescreenStoryboard: 0

[Editor]
DistanceSpacing: 2.4
BeatDivisor: 4
GridSize: 4
TimelineZoom: 1

[Metadata]
Title:ONA BY TAK CHCIALA
TitleUnicode:ONA BY TAK CHCIAƁA
Artist:Ronnie Ferrari
ArtistUnicode:Ronnie Ferrari
Creator:olsonn
Version:Sprezynka
Source:
Tags:polska dance disco polo jumps
BeatmapID:2167514
BeatmapSetID:1036690

[Difficulty]
HPDrainRate:6
CircleSize:4.1
OverallDifficulty:9
ApproachRate:9.5
SliderMultiplier:2
SliderTickRate:1

[Events]
//Background and Video events
0,0,"ANIME-PICTURES.NET_-_609339-1250x884-touhou-shameimaru+aya-inubashiri+momiji-himekaidou+hatate-maachi+(fsam4547)-long+hair.png",0,0
//Break Periods
//Storyboard Layer 0 (Background)
//Storyboard Layer 1 (Fail)
//Storyboard Layer 2 (Pass)
//Storyboard Layer 3 (Foreground)
//Storyboard Layer 4 (Overlay)
//Storyboard Sound Samples

[TimingPoints]
9647,352.941176470588,4,2,0,80,1,0
42823,-66.6666666666667,4,2,0,80,0,0
43529,-100,4,2,0,80,0,1
48470,-66.6666666666667,4,2,0,80,0,1
49176,-100,4,2,0,80,0,1

[HitObjects]
78,78,9647,5,0,0:0:0:0:
109,315,9823,1,0,0:0:0:0:
197,53,9999,5,0,0:0:0:0:
198,293,10176,1,0,0:0:0:0:
315,53,10352,5,0,0:0:0:0:
314,293,10529,1,0,0:0:0:0:
434,78,10705,5,0,0:0:0:0:
403,315,10881,1,0,0:0:0:0:
163,336,11058,5,0,0:0:0:0:
75,111,11235,1,0,0:0:0:0:
244,279,11411,5,0,0:0:0:0:
166,51,11588,1,0,0:0:0:0:
268,279,11764,5,0,0:0:0:0:
346,51,11941,1,0,0:0:0:0:
349,336,12117,5,0,0:0:0:0:
437,111,12294,1,0,0:0:0:0:
247,257,12470,5,0,0:0:0:0:
486,259,12646,1,0,0:0:0:0:
244,179,12823,5,0,0:0:0:0:
483,181,12999,1,0,0:0:0:0:
243,100,13176,5,0,0:0:0:0:
482,102,13352,1,0,0:0:0:0:
245,23,13529,5,0,0:0:0:0:
484,25,13705,1,0,0:0:0:0:
252,105,13882,5,0,0:0:0:0:
12,102,14058,1,0,0:0:0:0:
252,187,14235,5,0,0:0:0:0:
12,184,14411,1,0,0:0:0:0:
254,275,14588,5,0,0:0:0:0:
14,272,14764,1,0,0:0:0:0:
254,357,14941,5,0,0:0:0:0:
14,354,15117,1,0,0:0:0:0:
134,145,15294,5,0,0:0:0:0:
259,348,15470,1,0,0:0:0:0:
271,108,15646,5,0,0:0:0:0:
146,311,15822,1,0,0:0:0:0:
134,70,15999,5,0,0:0:0:0:
259,273,16175,1,0,0:0:0:0:
271,33,16351,5,0,0:0:0:0:
146,236,16529,1,0,0:0:0:0:
385,225,16705,5,0,0:0:0:0:
260,24,16881,1,0,0:0:0:0:
272,262,17057,5,0,0:0:0:0:
397,59,17233,1,0,0:0:0:0:
385,300,17410,5,0,0:0:0:0:
260,97,17586,1,0,0:0:0:0:
272,337,17762,5,0,0:0:0:0:
397,134,17938,1,0,0:0:0:0:
168,300,18117,5,0,0:0:0:0:
138,62,18294,1,0,0:0:0:0:
346,300,18470,5,0,0:0:0:0:
376,62,18647,1,0,0:0:0:0:
216,259,18823,5,0,0:0:0:0:
186,21,19000,1,0,0:0:0:0:
292,259,19176,5,0,0:0:0:0:
322,21,19353,1,0,0:0:0:0:
95,98,19529,5,0,0:0:0:0:
334,97,19705,1,0,0:0:0:0:
175,307,19882,5,0,0:0:0:0:
54,100,20058,1,0,0:0:0:0:
318,134,20235,5,0,0:0:0:0:
199,343,20411,1,0,0:0:0:0:
191,102,20588,6,0,B|191:57|191:57|181:43|181:43|181:-14,1,100
72,220,20941,6,0,P|121:240|183:213,1,100
344,61,21294,2,0,P|295:41|233:68,1,100
423,215,21646,2,0,L|422:93,1,100
237,267,21999,2,0,L|239:410,1,100
369,273,22352,1,0,0:0:0:0:
365,112,22529,1,0,0:0:0:0:
315,354,22705,6,0,P|361:372|414:349,1,100
285,38,23058,2,0,P|267:84|290:137,1,100
475,273,23411,1,0,0:0:0:0:
475,112,23588,1,0,0:0:0:0:
331,181,23764,5,0,0:0:0:0:
491,186,23941,1,0,0:0:0:0:
258,129,24117,2,0,P|238:187|274:252,1,100
436,372,24470,2,0,P|456:314|420:249,1,100
210,329,24823,2,0,L|322:327,1,100
235,185,25176,1,0,0:0:0:0:
75,185,25352,1,0,0:0:0:0:
310,240,25529,6,0,P|326:190|296:121,1,100
113,13,25882,2,0,P|97:63|127:132,1,100
286,269,26235,1,0,0:0:0:0:
286,109,26411,1,0,0:0:0:0:
147,189,26588,5,0,0:0:0:0:
306,187,26764,1,0,0:0:0:0:
70,146,26941,6,0,P|48:192|86:257,1,100
262,103,27294,2,0,P|284:57|246:-8,1,100
201,241,27646,2,0,L|202:362,1,100
335,251,27999,5,0,0:0:0:0:
330,90,28176,1,0,0:0:0:0:
384,323,28352,6,0,P|339:342|277:312,1,100
155,129,28705,2,0,P|200:110|262:140,1,100
404,284,29058,1,0,0:0:0:0:
243,284,29235,1,0,0:0:0:0:
324,147,29411,5,0,0:0:0:0:
325,307,29588,1,0,0:0:0:0:
274,73,29764,6,0,P|337:58|388:81,1,100
512,257,30117,2,0,P|449:272|398:249,1,100
467,26,30470,2,0,L|469:164,1,100
374,256,30823,5,0,0:0:0:0:
370,96,30999,1,0,0:0:0:0:
429,329,31176,2,0,P|386:345|317:324,1,100
222,122,31529,2,0,P|257:151|273:221,1,100
80,342,31882,6,0,B|80:297|80:297|70:283|70:283|70:226,1,100
201,46,32235,2,0,P|237:85|244:145,1,100
256,370,32588,1,0,0:0:0:0:
130,154,32764,1,0,0:0:0:0:
449,227,32941,6,0,P|410:263|350:270,1,100
125,282,33294,1,0,0:0:0:0:
359,196,33470,1,0,0:0:0:0:
164,351,33646,6,0,P|128:312|121:252,1,100
128,16,33999,1,0,0:0:0:0:
128,16,34087,1,0,0:0:0:0:
128,16,34175,1,0,0:0:0:0:
304,194,34352,2,0,P|325:133|294:97,1,100
71,146,34705,2,0,L|194:145,1,100
327,301,35058,6,0,P|281:281|223:313,1,100
474,376,35411,1,0,0:0:0:0:
474,376,35588,1,0,0:0:0:0:
391,139,35764,1,0,0:0:0:0:
391,139,35941,1,0,0:0:0:0:
231,317,36117,1,0,0:0:0:0:
456,232,36294,1,0,0:0:0:0:
277,72,36470,6,0,P|259:119|287:170,1,100
465,11,36823,1,0,0:0:0:0:
465,11,36999,1,0,0:0:0:0:
224,18,37176,1,0,0:0:0:0:
224,18,37352,1,0,0:0:0:0:
287,250,37529,1,0,0:0:0:0:
351,19,37705,1,0,0:0:0:0:
118,83,37882,6,0,P|103:141|148:199,1,100
278,355,38235,1,0,0:0:0:0:
220,122,38411,1,0,0:0:0:0:
52,295,38588,6,0,P|110:310|168:265,1,100
324,135,38941,1,0,0:0:0:0:
91,193,39117,1,0,0:0:0:0:
256,367,39294,6,0,P|271:309|226:251,1,100
145,60,39647,1,0,0:0:0:0:
145,60,39735,1,0,0:0:0:0:
145,60,39823,1,0,0:0:0:0:
47,278,39999,6,0,P|26:221|71:163,1,100
273,240,40352,2,0,L|169:241,1,100
367,99,40705,2,0,P|384:157|336:222,1,100
186,346,41058,5,0,0:0:0:0:
173,105,41235,1,0,0:0:0:0:
378,228,41411,5,0,0:0:0:0:
137,241,41588,1,0,0:0:0:0:
292,70,41764,5,0,0:0:0:0:
335,306,41941,2,0,P|292:330|238:300,2,100
190,113,42470,5,0,0:0:0:0:
186,352,42646,1,0,0:0:0:0:
410,217,42823,2,0,P|386:131|293:96,1,150.000005722046
285,99,43088,1,0,0:0:0:0:
238,121,43176,2,0,P|322:127|378:39,1,150.000005722046
127,60,43529,5,0,0:0:0:0:
160,296,43705,1,0,0:0:0:0:
318,114,43882,5,0,0:0:0:0:
82,147,44058,1,0,0:0:0:0:
231,335,44235,5,0,0:0:0:0:
166,104,44411,1,0,0:0:0:0:
1,279,44588,1,0,0:0:0:0:
230,347,44764,2,0,L|341:348,1,100
130,212,45117,2,0,L|19:213,1,100
252,120,45470,1,0,0:0:0:0:
147,335,45646,5,0,0:0:0:0:
150,94,45823,1,0,0:0:0:0:
358,211,45999,1,0,0:0:0:0:
56,278,46176,2,0,P|7:214|94:108,1,200
182,333,46705,5,0,0:0:0:0:
144,85,46882,1,0,0:0:0:0:
374,181,47058,2,0,P|398:226|374:300,1,100
160,367,47411,1,0,0:0:0:0:
472,219,47588,6,0,P|476:329|382:345,1,200
299,46,48117,5,0,0:0:0:0:
408,271,48294,1,0,0:0:0:0:
161,244,48470,2,0,P|122:177|171:117,1,150.000005722046
196,98,48735,1,0,0:0:0:0:
239,129,48823,2,0,P|192:162|111:105,1,150.000005722046
342,14,49176,5,0,0:0:0:0:
332,263,49352,1,0,0:0:0:0:
165,62,49529,5,0,0:0:0:0:
414,72,49705,1,0,0:0:0:0:
231,257,49882,5,0,0:0:0:0:
241,9,50058,1,0,0:0:0:0:
464,143,50235,1,0,0:0:0:0:
237,268,50411,2,0,L|121:268,1,100
358,361,50764,2,0,L|463:361,1,100
283,195,51117,1,0,0:0:0:0:
471,45,51294,5,0,0:0:0:0:
407,275,51470,1,0,0:0:0:0:
233,110,51646,1,0,0:0:0:0:
