osu file format v14

[General]
AudioFilename: audio.mp3
AudioLeadIn: 0
PreviewTime: -1
Countdown: 1
SampleSet: None
StackLeniency: 0.7
Mode: 0
LetterboxInBreaks: 0
WidescreenStoryboard: 0

[Editor]
DistanceSpacing: 1.5
BeatDivisor: 4
GridSize: 4
TimelineZoom: 1.8

[Metadata]
Title:Celtic Kittens
TitleUnicode:Celtic Kittens
Artist:Ronan Hardiman
ArtistUnicode:Ronan Hardiman
Creator:Ameyy
Version:Insane
Source:
Tags:
BeatmapID:981590
BeatmapSetID:458043

[Difficulty]
HPDrainRate:7
CircleSize:4
OverallDifficulty:8
ApproachRate:9
SliderMultiplier:2
SliderTickRate:1

[Events]
//Background and Video events
//Break Periods
//Storyboard Layer 0 (Background)
//Storyboard Layer 1 (Fail)
//Storyboard Layer 2 (Pass)
//Storyboard Layer 3 (Foreground)
//Storyboard Sound Samples

[TimingPoints]
56116,465.044179197024,4,2,0,50,1,0
70993,-83.3333333333333,4,2,0,60,0,1

[HitObjects]
164,88,56111,6,0,B|184:136|184:136|156:216,1,100
168,181,56464,1,0,0:0:0:0:
168,181,56581,1,0,0:0:0:0:
52,276,56813,1,0,0:0:0:0:
120,308,56929,1,0,0:0:0:0:
192,328,57046,2,0,L|260:292,1,50
260,232,57278,2,0,L|316:196,1,50
308,128,57511,1,0,0:0:0:0:
452,88,57743,5,0,0:0:0:0:
472,160,57860,1,0,0:0:0:0:
452,232,57976,1,0,0:0:0:0:
408,292,58092,1,0,0:0:0:0:
336,316,58208,1,0,0:0:0:0:
260,312,58325,1,0,0:0:0:0:
200,268,58441,1,0,0:0:0:0:
160,204,58557,1,0,0:0:0:0:
168,128,58674,1,0,0:0:0:0:
216,72,58790,1,0,0:0:0:0:
288,52,58906,2,0,B|268:144|312:144|292:256,1,200
376,124,59604,5,0,0:0:0:0:
428,72,59720,1,0,0:0:0:0:
468,136,59836,2,0,L|400:204,1,50
352,312,60069,2,0,L|400:264,1,50
260,128,60301,2,0,L|208:184,1,50
200,332,60534,2,0,L|252:276,1,50
356,156,60766,6,0,P|384:108|384:84,1,50
184,236,60999,2,0,P|152:284|136:320,1,50
272,104,61231,2,0,P|264:48|256:32,1,50
304,288,61464,2,0,P|312:344|320:360,1,50
384,344,61696,5,0,0:0:0:0:
320,208,61929,1,0,0:0:0:0:
248,236,62045,1,0,0:0:0:0:
196,184,62161,1,0,0:0:0:0:
96,72,62394,1,0,0:0:0:0:
196,184,62626,2,0,P|136:264|172:392,1,200
276,284,63324,5,0,0:0:0:0:
276,284,63440,1,0,0:0:0:0:
276,284,63557,2,0,L|320:212,1,50
288,100,63789,1,0,0:0:0:0:
288,100,63906,1,0,0:0:0:0:
288,100,64022,2,0,L|256:156,1,50
188,132,64254,5,0,0:0:0:0:
124,172,64371,1,0,0:0:0:0:
84,236,64487,1,0,0:0:0:0:
96,312,64603,1,0,0:0:0:0:
156,356,64719,1,0,0:0:0:0:
232,348,64836,1,0,0:0:0:0:
288,296,64952,1,0,0:0:0:0:
348,248,65068,1,0,0:0:0:0:
420,224,65184,1,0,0:0:0:0:
468,168,65300,1,0,0:0:0:0:
396,152,65417,6,0,P|344:176|320:200,1,50
136,268,65649,2,0,P|180:252|212:220,1,50
236,116,65882,2,0,B|232:88|232:88|204:48,1,50
288,296,66114,2,0,B|292:324|292:324|320:364,1,50
364,296,66347,2,0,B|416:276|416:196|416:196|484:192|500:84,1,250
344,96,67044,5,0,0:0:0:0:
280,132,67161,1,0,0:0:0:0:
208,156,67277,2,0,P|124:168|112:168,1,50
304,228,67509,2,0,P|388:216|400:216,1,50
236,320,67742,2,0,P|152:332|140:332,1,50
332,380,67974,2,0,P|416:368|428:368,1,50
468,288,68207,6,0,P|488:228|488:212,1,50
371,172,68439,2,0,P|351:232|351:248,1,50
232,240,68672,2,0,P|212:296|212:316,1,50
96,372,68904,2,0,P|104:312|100:292,1,50
60,264,69137,5,0,0:0:0:0:
104,108,69369,1,0,0:0:0:0:
176,128,69486,1,0,0:0:0:0:
224,72,69602,1,0,0:0:0:0:
372,40,69834,1,0,0:0:0:0:
296,168,70067,2,0,P|256:236|368:352,1,250
116,104,70997,6,0,P|116:72|100:12,1,59.9999981689454
212,196,71230,2,0,P|200:256|200:288,1,59.9999981689454
216,80,71462,2,0,P|260:28|280:16,1,59.9999981689454
104,212,71695,2,0,P|80:268|44:304,1,59.9999981689454
128,344,71927,1,0,0:0:0:0:
164,332,72044,1,0,0:0:0:0:
208,300,72160,1,0,0:0:0:0:
228,248,72276,1,0,0:0:0:0:
232,196,72392,1,0,0:0:0:0:
256,148,72509,1,0,0:0:0:0:
300,116,72625,1,0,0:0:0:0:
352,108,72741,1,0,0:0:0:0:
404,128,72857,6,0,L|480:160,1,59.9999981689454
256,148,73090,2,0,L|184:120,1,59.9999981689454
316,296,73322,2,0,L|404:344,1,59.9999981689454
152,312,73555,2,0,L|72:268,1,59.9999981689454
344,224,73787,2,0,P|420:252|488:224,1,119.999996337891
168,160,74252,2,0,P|92:132|24:160,1,119.999996337891
99,283,74601,6,0,L|159:243,2,59.9999981689454
56,140,74950,2,0,P|52:64|64:32,1,59.9999981689454
192,120,75183,2,0,P|204:188|200:216,1,59.9999981689454
332,256,75415,2,0,P|324:180|328:164,1,59.9999981689454
192,120,75880,6,0,P|204:188|200:216,1,59.9999981689454
332,256,76113,2,0,P|324:180|328:164,1,59.9999981689454
432,96,76345,2,0,P|440:168|432:196,1,59.9999981689454
412,300,76578,5,0,0:0:0:0:
328,332,76694,1,0,0:0:0:0:
232,308,76810,1,0,0:0:0:0:
156,260,76926,1,0,0:0:0:0:
128,176,77043,1,0,0:0:0:0:
248,32,77275,1,0,0:0:0:0:
128,176,77508,2,0,P|40:160|-8:104,1,119.999996337891
320,156,77973,2,0,P|400:156|472:204,1,119.999996337891
371,296,78321,5,0,0:0:0:0:
200,288,78438,2,0,B|168:296|168:296|124:296,1,59.9999981689454
128,148,78670,2,0,B|96:140|96:140|60:116,1,59.9999981689454
312,288,78903,2,0,B|344:296|344:296|388:296,1,59.9999981689454
384,148,79135,2,0,B|416:140|416:140|452:116,1,59.9999981689454
296,76,79368,5,0,0:0:0:0:
268,88,79484,1,0,0:0:0:0:
244,108,79600,1,0,0:0:0:0:
228,132,79716,1,0,0:0:0:0:
216,160,79833,1,0,0:0:0:0:
212,188,79949,1,0,0:0:0:0:
216,216,80065,1,0,0:0:0:0:
228,244,80182,1,0,0:0:0:0:
236,272,80298,6,0,L|168:304,1,59.9999981689454
52,236,80530,2,0,L|124:204,1,59.9999981689454
152,76,80763,2,0,L|80:112,1,59.9999981689454
232,152,80995,2,0,L|296:116,1,59.9999981689454
424,164,81228,2,0,B|424:200|424:200|436:244|436:244|436:288,1,119.999996337891
110,221,81693,2,0,B|110:185|110:185|98:141|98:141|98:97,1,119.999996337891
228,172,82042,5,0,0:0:0:0:
168,300,82158,2,0,L|124:368,1,59.9999981689454
264,284,82390,2,0,L|224:352,1,59.9999981689454
352,248,82623,2,0,P|424:268|440:272,1,59.9999981689454
160,136,82856,2,0,P|88:116|72:112,1,59.9999981689454
236,68,83088,2,0,P|308:88|324:92,1,59.9999981689454
276,316,83321,2,0,P|204:296|188:292,1,59.9999981689454
120,196,83553,2,0,L|100:112,1,59.9999981689454
392,188,83786,2,0,L|412:272,1,59.9999981689454
280,316,84018,5,0,0:0:0:0:
180,44,84251,1,0,0:0:0:0:
256,92,84367,1,0,0:0:0:0:
332,44,84483,1,0,0:0:0:0:
184,148,84716,1,0,0:0:0:0:
184,328,84948,2,0,P|240:276|408:304,1,239.999992675781
