osu file format v14

[General]
AudioFilename: Matryoshika_1.1.mp3
AudioLeadIn: 1500
PreviewTime: 55454
Countdown: 0
SampleSet: None
StackLeniency: 0.7
Mode: 3
LetterboxInBreaks: 0
SpecialStyle: 0
WidescreenStoryboard: 0

[Editor]
DistanceSpacing: 0.8
BeatDivisor: 4
GridSize: 16
TimelineZoom: 2.6

[Metadata]
Title:Matryoshika
TitleUnicode:Matryoshika
Artist:Ron
ArtistUnicode:Ron
Creator:booty
Version:Challenge x1.1
Source:
Tags:
BeatmapID:1557668
BeatmapSetID:738138

[Difficulty]
HPDrainRate:7
CircleSize:4
OverallDifficulty:7
ApproachRate:9
SliderMultiplier:1.4
SliderTickRate:1

[Events]
//Background and Video events
0,0,"Matryoshika bg.jpg",0,0
//Break Periods
//Storyboard Layer 0 (Background)
//Storyboard Layer 1 (Fail)
//Storyboard Layer 2 (Pass)
//Storyboard Layer 3 (Foreground)
//Storyboard Sound Samples

[TimingPoints]
-386,266.075454545455,4,1,0,15,1,0

[HitObjects]
64,0,650,5,0,0:0:0:0:
448,0,650,1,0,0:0:0:0:
448,0,1050,1,0,0:0:0:0:
320,0,1182,1,0,0:0:0:0:
448,0,1182,1,0,0:0:0:0:
64,0,1581,1,0,0:0:0:0:
448,0,1581,1,0,0:0:0:0:
448,0,1848,1,0,0:0:0:0:
64,0,1980,1,0,0:0:0:0:
448,0,2113,1,0,0:0:0:0:
320,0,2247,1,0,0:0:0:0:
448,0,2247,1,0,0:0:0:0:
448,0,2513,1,0,0:0:0:0:
448,0,2646,1,0,0:0:0:0:
64,0,2779,1,0,0:0:0:0:
448,0,2779,1,0,0:0:0:0:
448,0,3178,1,0,0:0:0:0:
320,0,3311,1,0,0:0:0:0:
448,0,3311,1,0,0:0:0:0:
64,0,3710,1,0,0:0:0:0:
448,0,3710,1,0,0:0:0:0:
448,0,3976,1,0,0:0:0:0:
64,0,4110,1,0,0:0:0:0:
448,0,4242,1,0,0:0:0:0:
320,0,4375,1,0,0:0:0:0:
448,0,4375,1,0,0:0:0:0:
64,0,4509,1,0,0:0:0:0:
448,0,4641,1,0,0:0:0:0:
64,0,4774,1,0,0:0:0:0:
448,0,4774,1,0,0:0:0:0:
64,0,4908,1,0,0:0:0:0:
448,0,4908,1,0,0:0:0:0:
448,0,5307,1,0,0:0:0:0:
320,0,5440,1,0,0:0:0:0:
448,0,5440,1,0,0:0:0:0:
64,0,5839,1,0,0:0:0:0:
448,0,5839,1,0,0:0:0:0:
448,0,6105,1,0,0:0:0:0:
64,0,6238,1,0,0:0:0:0:
448,0,6370,1,0,0:0:0:0:
320,0,6504,1,0,0:0:0:0:
448,0,6504,1,0,0:0:0:0:
448,0,6769,1,0,0:0:0:0:
448,0,6903,1,0,0:0:0:0:
64,0,7036,1,0,0:0:0:0:
448,0,7036,1,0,0:0:0:0:
448,0,7435,1,0,0:0:0:0:
320,0,7568,1,0,0:0:0:0:
448,0,7568,1,0,0:0:0:0:
64,0,7968,1,0,0:0:0:0:
448,0,7968,1,0,0:0:0:0:
448,0,8233,1,0,0:0:0:0:
64,0,8367,1,0,0:0:0:0:
448,0,8500,1,0,0:0:0:0:
320,0,8632,128,0,9031:0:0:0:0:
448,0,8632,1,0,0:0:0:0:
448,0,8899,1,0,0:0:0:0:
448,0,9031,1,0,0:0:0:0:
320,0,9165,1,0,0:0:0:0:
448,0,9165,1,0,0:0:0:0:
64,0,9430,1,0,0:0:0:0:
192,0,9564,1,0,0:0:0:0:
448,0,9564,1,0,0:0:0:0:
320,0,9697,1,0,0:0:0:0:
448,0,9697,1,0,0:0:0:0:
192,0,9830,1,0,0:0:0:0:
320,0,10096,1,0,0:0:0:0:
448,0,10096,1,0,0:0:0:0:
448,0,10362,1,0,0:0:0:0:
64,0,10495,1,0,0:0:0:0:
448,0,10628,1,0,0:0:0:0:
320,0,10761,1,0,0:0:0:0:
448,0,10761,1,0,0:0:0:0:
448,0,11027,1,0,0:0:0:0:
448,0,11160,1,0,0:0:0:0:
320,0,11293,1,0,0:0:0:0:
448,0,11293,1,0,0:0:0:0:
64,0,11559,1,0,0:0:0:0:
192,0,11692,1,0,0:0:0:0:
448,0,11692,1,0,0:0:0:0:
320,0,11825,1,0,0:0:0:0:
448,0,11825,1,0,0:0:0:0:
192,0,11959,1,0,0:0:0:0:
320,0,12224,1,0,0:0:0:0:
448,0,12224,1,0,0:0:0:0:
448,0,12490,1,0,0:0:0:0:
64,0,12623,1,0,0:0:0:0:
448,0,12757,1,0,0:0:0:0:
320,0,12889,1,0,0:0:0:0:
448,0,12889,1,0,0:0:0:0:
64,0,13022,1,0,0:0:0:0:
448,0,13156,1,0,0:0:0:0:
64,0,13289,1,0,0:0:0:0:
448,0,13289,1,0,0:0:0:0:
320,0,13422,1,0,0:0:0:0:
448,0,13422,1,0,0:0:0:0:
64,0,13688,1,0,0:0:0:0:
192,0,13821,1,0,0:0:0:0:
448,0,13821,1,0,0:0:0:0:
320,0,13954,1,0,0:0:0:0:
448,0,13954,1,0,0:0:0:0:
192,0,14087,1,0,0:0:0:0:
320,0,14353,1,0,0:0:0:0:
448,0,14353,1,0,0:0:0:0:
192,0,14486,1,0,0:0:0:0:
448,0,14619,1,0,0:0:0:0:
64,0,14752,1,0,0:0:0:0:
320,0,14885,1,0,0:0:0:0:
448,0,14885,1,0,0:0:0:0:
192,0,15019,1,0,0:0:0:0:
448,0,15019,1,0,0:0:0:0:
64,0,15151,1,0,0:0:0:0:
448,0,15284,1,0,0:0:0:0:
64,0,15418,1,0,0:0:0:0:
448,0,15418,1,0,0:0:0:0:
320,0,15550,1,0,0:0:0:0:
448,0,15550,1,0,0:0:0:0:
64,0,15817,1,0,0:0:0:0:
192,0,15949,1,0,0:0:0:0:
448,0,15949,1,0,0:0:0:0:
320,0,16082,1,0,0:0:0:0:
448,0,16082,1,0,0:0:0:0:
192,0,16349,1,0,0:0:0:0:
64,0,16481,1,0,0:0:0:0:
448,0,16481,1,0,0:0:0:0:
320,0,16615,1,0,0:0:0:0:
320,0,16880,1,0,0:0:0:0:
320,0,17147,1,0,0:0:0:0:
192,0,17213,1,0,0:0:0:0:
320,0,17280,1,0,0:0:0:0:
192,0,17347,1,0,0:0:0:0:
320,0,17413,128,0,17612:0:0:0:0:
64,0,17679,1,0,0:0:0:0:
320,0,17679,1,0,0:0:0:0:
448,0,17679,1,0,0:0:0:0:
192,0,17746,1,0,0:0:0:0:
64,0,17812,1,0,0:0:0:0:
320,0,17879,1,0,0:0:0:0:
192,0,17945,1,0,0:0:0:0:
448,0,17945,1,0,0:0:0:0:
320,0,18011,1,0,0:0:0:0:
64,0,18078,1,0,0:0:0:0:
192,0,18078,1,0,0:0:0:0:
448,0,18145,1,0,0:0:0:0:
64,0,18211,1,0,0:0:0:0:
192,0,18211,1,0,0:0:0:0:
320,0,18211,1,0,0:0:0:0:
448,0,18278,1,0,0:0:0:0:
64,0,18344,1,0,0:0:0:0:
192,0,18344,1,0,0:0:0:0:
320,0,18410,1,0,0:0:0:0:
192,0,18477,1,0,0:0:0:0:
448,0,18477,1,0,0:0:0:0:
64,0,18544,1,0,0:0:0:0:
192,0,18610,1,0,0:0:0:0:
448,0,18610,1,0,0:0:0:0:
320,0,18677,1,0,0:0:0:0:
64,0,18743,1,0,0:0:0:0:
192,0,18743,1,0,0:0:0:0:
448,0,18743,1,0,0:0:0:0:
320,0,18810,1,0,0:0:0:0:
64,0,18877,1,0,0:0:0:0:
192,0,18877,1,0,0:0:0:0:
448,0,18943,1,0,0:0:0:0:
64,0,19010,1,0,0:0:0:0:
320,0,19010,1,0,0:0:0:0:
192,0,19076,1,0,0:0:0:0:
320,0,19142,1,0,0:0:0:0:
192,0,19209,1,0,0:0:0:0:
64,0,19276,1,0,0:0:0:0:
320,0,19276,1,0,0:0:0:0:
448,0,19276,1,0,0:0:0:0:
192,0,19342,1,0,0:0:0:0:
320,0,19409,1,0,0:0:0:0:
64,0,19475,1,0,0:0:0:0:
192,0,19541,1,0,0:0:0:0:
448,0,19541,1,0,0:0:0:0:
320,0,19608,1,0,0:0:0:0:
64,0,19675,1,0,0:0:0:0:
192,0,19675,1,0,0:0:0:0:
448,0,19741,1,0,0:0:0:0:
64,0,19808,1,0,0:0:0:0:
192,0,19808,1,0,0:0:0:0:
320,0,19808,1,0,0:0:0:0:
448,0,19874,1,0,0:0:0:0:
192,0,19940,1,0,0:0:0:0:
320,0,20007,1,0,0:0:0:0:
64,0,20074,1,0,0:0:0:0:
448,0,20074,1,0,0:0:0:0:
320,0,20140,1,0,0:0:0:0:
192,0,20207,1,0,0:0:0:0:
448,0,20207,1,0,0:0:0:0:
64,0,20273,1,0,0:0:0:0:
192,0,20340,1,0,0:0:0:0:
320,0,20340,1,0,0:0:0:0:
448,0,20340,1,0,0:0:0:0:
64,0,20406,1,0,0:0:0:0:
320,0,20473,1,0,0:0:0:0:
448,0,20473,1,0,0:0:0:0:
64,0,20540,1,0,0:0:0:0:
320,0,20606,1,0,0:0:0:0:
448,0,20606,1,0,0:0:0:0:
64,0,20672,1,0,0:0:0:0:
192,0,20739,1,0,0:0:0:0:
320,0,20739,1,0,0:0:0:0:
448,0,20805,1,0,0:0:0:0:
64,0,20872,1,0,0:0:0:0:
192,0,20872,1,0,0:0:0:0:
320,0,20872,1,0,0:0:0:0:
448,0,20939,1,0,0:0:0:0:
192,0,21005,1,0,0:0:0:0:
320,0,21005,1,0,0:0:0:0:
64,0,21071,1,0,0:0:0:0:
320,0,21138,1,0,0:0:0:0:
448,0,21138,1,0,0:0:0:0:
192,0,21204,1,0,0:0:0:0:
64,0,21271,1,0,0:0:0:0:
448,0,21271,1,0,0:0:0:0:
192,0,21338,1,0,0:0:0:0:
320,0,21404,1,0,0:0:0:0:
448,0,21404,1,0,0:0:0:0:
64,0,21470,1,0,0:0:0:0:
192,0,21470,1,0,0:0:0:0:
320,0,21537,1,0,0:0:0:0:
64,0,21604,1,0,0:0:0:0:
192,0,21670,1,0,0:0:0:0:
448,0,21670,1,0,0:0:0:0:
64,0,21737,1,0,0:0:0:0:
320,0,21737,1,0,0:0:0:0:
192,0,21803,1,0,0:0:0:0:
448,0,21803,1,0,0:0:0:0:
320,0,21870,1,0,0:0:0:0:
64,0,21936,1,0,0:0:0:0:
192,0,21936,1,0,0:0:0:0:
448,0,21936,1,0,0:0:0:0:
320,0,22003,1,0,0:0:0:0:
192,0,22070,1,0,0:0:0:0:
448,0,22136,1,0,0:0:0:0:
64,0,22202,1,0,0:0:0:0:
192,0,22202,1,0,0:0:0:0:
320,0,22269,1,0,0:0:0:0:
192,0,22335,1,0,0:0:0:0:
448,0,22335,1,0,0:0:0:0:
64,0,22402,1,0,0:0:0:0:
192,0,22469,1,0,0:0:0:0:
320,0,22469,1,0,0:0:0:0:
448,0,22469,1,0,0:0:0:0:
64,0,22535,1,0,0:0:0:0:
320,0,22601,1,0,0:0:0:0:
448,0,22601,1,0,0:0:0:0:
192,0,22668,1,0,0:0:0:0:
64,0,22734,1,0,0:0:0:0:
448,0,22734,1,0,0:0:0:0:
192,0,22801,1,0,0:0:0:0:
320,0,22868,1,0,0:0:0:0:
448,0,22868,1,0,0:0:0:0:
192,0,22934,1,0,0:0:0:0:
64,0,23000,1,0,0:0:0:0:
320,0,23000,1,0,0:0:0:0:
448,0,23000,1,0,0:0:0:0:
192,0,23067,1,0,0:0:0:0:
64,0,23133,1,0,0:0:0:0:
320,0,23133,1,0,0:0:0:0:
448,0,23200,1,0,0:0:0:0:
192,0,23267,1,0,0:0:0:0:
320,0,23267,1,0,0:0:0:0:
64,0,23333,1,0,0:0:0:0:
320,0,23399,1,0,0:0:0:0:
192,0,23466,1,0,0:0:0:0:
64,0,23532,1,0,0:0:0:0:
320,0,23532,1,0,0:0:0:0:
448,0,23532,1,0,0:0:0:0:
192,0,23599,1,0,0:0:0:0:
448,0,23666,1,0,0:0:0:0:
320,0,23732,1,0,0:0:0:0:
64,0,23799,1,0,0:0:0:0:
192,0,23799,1,0,0:0:0:0:
320,0,23865,1,0,0:0:0:0:
448,0,23931,1,0,0:0:0:0:
192,0,23999,1,0,0:0:0:0:
64,0,24065,1,0,0:0:0:0:
320,0,24065,1,0,0:0:0:0:
448,0,24065,1,0,0:0:0:0:
192,0,24131,1,0,0:0:0:0:
320,0,24198,1,0,0:0:0:0:
448,0,24264,1,0,0:0:0:0:
64,0,24331,1,0,0:0:0:0:
192,0,24331,1,0,0:0:0:0:
320,0,24398,1,0,0:0:0:0:
192,0,24464,1,0,0:0:0:0:
448,0,24464,1,0,0:0:0:0:
64,0,24530,1,0,0:0:0:0:
192,0,24597,1,0,0:0:0:0:
320,0,24597,1,0,0:0:0:0:
448,0,24597,1,0,0:0:0:0:
64,0,24663,1,0,0:0:0:0:
192,0,24730,1,0,0:0:0:0:
320,0,24730,1,0,0:0:0:0:
448,0,24797,1,0,0:0:0:0:
64,0,24863,1,0,0:0:0:0:
192,0,24863,1,0,0:0:0:0:
448,0,24929,1,0,0:0:0:0:
64,0,24996,1,0,0:0:0:0:
320,0,24996,1,0,0:0:0:0:
192,0,25062,1,0,0:0:0:0:
64,0,25129,1,0,0:0:0:0:
320,0,25129,1,0,0:0:0:0:
448,0,25129,1,0,0:0:0:0:
192,0,25196,1,0,0:0:0:0:
320,0,25262,1,0,0:0:0:0:
448,0,25262,1,0,0:0:0:0:
64,0,25329,1,0,0:0:0:0:
192,0,25395,1,0,0:0:0:0:
448,0,25395,1,0,0:0:0:0:
320,0,25461,1,0,0:0:0:0:
64,0,25529,1,0,0:0:0:0:
192,0,25529,1,0,0:0:0:0:
448,0,25595,1,0,0:0:0:0:
64,0,25661,1,0,0:0:0:0:
192,0,25661,1,0,0:0:0:0:
320,0,25661,1,0,0:0:0:0:
448,0,25728,1,0,0:0:0:0:
192,0,25794,1,0,0:0:0:0:
320,0,25860,1,0,0:0:0:0:
448,0,25860,1,0,0:0:0:0:
64,0,25928,1,0,0:0:0:0:
192,0,25928,1,0,0:0:0:0:
320,0,25994,1,0,0:0:0:0:
448,0,25994,1,0,0:0:0:0:
64,0,26060,1,0,0:0:0:0:
192,0,26060,1,0,0:0:0:0:
320,0,26127,1,0,0:0:0:0:
448,0,26127,1,0,0:0:0:0:
64,0,26193,1,0,0:0:0:0:
192,0,26193,1,0,0:0:0:0:
448,0,26327,1,0,0:0:0:0:
64,0,26459,1,0,0:0:0:0:
448,0,26459,1,0,0:0:0:0:
448,0,26592,1,0,0:0:0:0:
320,0,26726,1,0,0:0:0:0:
448,0,26726,1,0,0:0:0:0:
64,0,26859,1,0,0:0:0:0:
192,0,26991,1,0,0:0:0:0:
448,0,26991,1,0,0:0:0:0:
64,0,27125,1,0,0:0:0:0:
320,0,27125,1,0,0:0:0:0:
320,0,27258,1,0,0:0:0:0:
448,0,27258,1,0,0:0:0:0:
64,0,27524,1,0,0:0:0:0:
192,0,27524,1,0,0:0:0:0:
192,0,27789,1,0,0:0:0:0:
448,0,27789,1,0,0:0:0:0:
448,0,28056,1,0,0:0:0:0:
64,0,28189,1,0,0:0:0:0:
448,0,28189,1,0,0:0:0:0:
64,0,28322,1,0,0:0:0:0:
192,0,28322,1,0,0:0:0:0:
448,0,28322,1,0,0:0:0:0:
320,0,28455,1,0,0:0:0:0:
64,0,28588,1,0,0:0:0:0:
448,0,28588,1,0,0:0:0:0:
64,0,28721,1,0,0:0:0:0:
320,0,28854,1,0,0:0:0:0:
448,0,28854,1,0,0:0:0:0:
192,0,29120,1,0,0:0:0:0:
448,0,29120,1,0,0:0:0:0:
64,0,29253,1,0,0:0:0:0:
320,0,29253,1,0,0:0:0:0:
320,0,29386,1,0,0:0:0:0:
448,0,29386,1,0,0:0:0:0:
192,0,29519,1,0,0:0:0:0:
64,0,29652,1,0,0:0:0:0:
448,0,29652,1,0,0:0:0:0:
64,0,29786,1,0,0:0:0:0:
192,0,29919,1,0,0:0:0:0:
448,0,29919,1,0,0:0:0:0:
320,0,30185,1,0,0:0:0:0:
64,0,30318,1,0,0:0:0:0:
192,0,30450,1,0,0:0:0:0:
320,0,30450,1,0,0:0:0:0:
448,0,30450,1,0,0:0:0:0:
64,0,30584,1,0,0:0:0:0:
320,0,30717,1,0,0:0:0:0:
192,0,30849,1,0,0:0:0:0:
64,0,30983,1,0,0:0:0:0:
448,0,30983,1,0,0:0:0:0:
192,0,31116,1,0,0:0:0:0:
320,0,31249,1,0,0:0:0:0:
448,0,31249,1,0,0:0:0:0:
64,0,31382,1,0,0:0:0:0:
192,0,31382,1,0,0:0:0:0:
320,0,31515,1,0,0:0:0:0:
448,0,31515,1,0,0:0:0:0:
64,0,31648,1,0,0:0:0:0:
192,0,31781,1,0,0:0:0:0:
448,0,31781,1,0,0:0:0:0:
64,0,31914,1,0,0:0:0:0:
192,0,32047,1,0,0:0:0:0:
320,0,32047,1,0,0:0:0:0:
448,0,32313,1,0,0:0:0:0:
64,0,32446,1,0,0:0:0:0:
192,0,32446,1,0,0:0:0:0:
64,0,32579,1,0,0:0:0:0:
320,0,32579,1,0,0:0:0:0:
448,0,32579,1,0,0:0:0:0:
192,0,32712,1,0,0:0:0:0:
320,0,32845,1,0,0:0:0:0:
448,0,32845,1,0,0:0:0:0:
64,0,32979,1,0,0:0:0:0:
64,0,33111,1,0,0:0:0:0:
448,0,33111,1,0,0:0:0:0:
64,0,33244,1,0,0:0:0:0:
320,0,33378,1,0,0:0:0:0:
448,0,33378,1,0,0:0:0:0:
192,0,33510,1,0,0:0:0:0:
448,0,33510,1,0,0:0:0:0:
64,0,33643,1,0,0:0:0:0:
64,0,33777,1,0,0:0:0:0:
320,0,33910,1,0,0:0:0:0:
448,0,33910,1,0,0:0:0:0:
64,0,33976,1,0,0:0:0:0:
192,0,33976,1,0,0:0:0:0:
320,0,34042,1,0,0:0:0:0:
448,0,34042,1,0,0:0:0:0:
64,0,34110,1,0,0:0:0:0:
192,0,34110,1,0,0:0:0:0:
320,0,34176,1,0,0:0:0:0:
192,0,34242,1,0,0:0:0:0:
320,0,34309,1,0,0:0:0:0:
192,0,34375,1,0,0:0:0:0:
320,0,34441,1,0,0:0:0:0:
64,0,34575,1,0,0:0:0:0:
64,0,34708,1,0,0:0:0:0:
320,0,34708,1,0,0:0:0:0:
448,0,34708,1,0,0:0:0:0:
192,0,34774,1,0,0:0:0:0:
64,0,34840,1,0,0:0:0:0:
320,0,34908,1,0,0:0:0:0:
192,0,34974,1,0,0:0:0:0:
448,0,34974,1,0,0:0:0:0:
320,0,35040,1,0,0:0:0:0:
64,0,35107,1,0,0:0:0:0:
192,0,35107,1,0,0:0:0:0:
448,0,35173,1,0,0:0:0:0:
64,0,35240,1,0,0:0:0:0:
192,0,35240,1,0,0:0:0:0:
320,0,35240,1,0,0:0:0:0:
448,0,35307,1,0,0:0:0:0:
64,0,35373,1,0,0:0:0:0:
192,0,35373,1,0,0:0:0:0:
320,0,35440,1,0,0:0:0:0:
192,0,35506,1,0,0:0:0:0:
448,0,35506,1,0,0:0:0:0:
64,0,35572,1,0,0:0:0:0:
192,0,35640,1,0,0:0:0:0:
448,0,35640,1,0,0:0:0:0:
320,0,35706,1,0,0:0:0:0:
64,0,35772,1,0,0:0:0:0:
192,0,35772,1,0,0:0:0:0:
448,0,35772,1,0,0:0:0:0:
320,0,35839,1,0,0:0:0:0:
64,0,35905,1,0,0:0:0:0:
192,0,35905,1,0,0:0:0:0:
448,0,35971,1,0,0:0:0:0:
64,0,36039,1,0,0:0:0:0:
320,0,36039,1,0,0:0:0:0:
192,0,36105,1,0,0:0:0:0:
320,0,36171,1,0,0:0:0:0:
192,0,36238,1,0,0:0:0:0:
64,0,36304,1,0,0:0:0:0:
320,0,36304,1,0,0:0:0:0:
448,0,36304,1,0,0:0:0:0:
192,0,36370,1,0,0:0:0:0:
320,0,36438,1,0,0:0:0:0:
64,0,36504,1,0,0:0:0:0:
192,0,36570,1,0,0:0:0:0:
448,0,36570,1,0,0:0:0:0:
320,0,36637,1,0,0:0:0:0:
64,0,36703,1,0,0:0:0:0:
192,0,36703,1,0,0:0:0:0:
448,0,36770,1,0,0:0:0:0:
64,0,36837,1,0,0:0:0:0:
192,0,36837,1,0,0:0:0:0:
320,0,36837,1,0,0:0:0:0:
448,0,36903,1,0,0:0:0:0:
192,0,36970,1,0,0:0:0:0:
320,0,37036,1,0,0:0:0:0:
64,0,37102,1,0,0:0:0:0:
448,0,37102,1,0,0:0:0:0:
320,0,37169,1,0,0:0:0:0:
192,0,37236,1,0,0:0:0:0:
448,0,37236,1,0,0:0:0:0:
64,0,37302,1,0,0:0:0:0:
192,0,37369,1,0,0:0:0:0:
320,0,37369,1,0,0:0:0:0:
448,0,37369,1,0,0:0:0:0:
64,0,37435,1,0,0:0:0:0:
320,0,37501,1,0,0:0:0:0:
448,0,37501,1,0,0:0:0:0:
64,0,37568,1,0,0:0:0:0:
320,0,37635,1,0,0:0:0:0:
448,0,37635,1,0,0:0:0:0:
64,0,37701,1,0,0:0:0:0:
192,0,37768,1,0,0:0:0:0:
320,0,37768,1,0,0:0:0:0:
448,0,37834,1,0,0:0:0:0:
64,0,37900,1,0,0:0:0:0:
192,0,37900,1,0,0:0:0:0:
320,0,37900,1,0,0:0:0:0:
448,0,37968,1,0,0:0:0:0:
192,0,38034,1,0,0:0:0:0:
320,0,38034,1,0,0:0:0:0:
64,0,38100,1,0,0:0:0:0:
320,0,38167,1,0,0:0:0:0:
448,0,38167,1,0,0:0:0:0:
192,0,38233,1,0,0:0:0:0:
64,0,38300,1,0,0:0:0:0:
448,0,38300,1,0,0:0:0:0:
192,0,38367,1,0,0:0:0:0:
320,0,38433,1,0,0:0:0:0:
448,0,38433,1,0,0:0:0:0:
64,0,38500,1,0,0:0:0:0:
192,0,38566,1,0,0:0:0:0:
448,0,38566,1,0,0:0:0:0:
64,0,38632,1,0,0:0:0:0:
320,0,38632,1,0,0:0:0:0:
192,0,38699,1,0,0:0:0:0:
448,0,38699,1,0,0:0:0:0:
320,0,38766,1,0,0:0:0:0:
192,0,38832,1,0,0:0:0:0:
64,0,38899,1,0,0:0:0:0:
192,0,38965,1,0,0:0:0:0:
448,0,38965,1,0,0:0:0:0:
64,0,39098,1,0,0:0:0:0:
192,0,39098,1,0,0:0:0:0:
320,0,39231,1,0,0:0:0:0:
448,0,39231,1,0,0:0:0:0:
64,0,39364,1,0,0:0:0:0:
192,0,39497,1,0,0:0:0:0:
448,0,39497,1,0,0:0:0:0:
64,0,39630,1,0,0:0:0:0:
192,0,39630,1,0,0:0:0:0:
320,0,39763,1,0,0:0:0:0:
448,0,39763,1,0,0:0:0:0:
64,0,39896,1,0,0:0:0:0:
320,0,39896,1,0,0:0:0:0:
320,0,40030,1,0,0:0:0:0:
448,0,40030,1,0,0:0:0:0:
64,0,40295,1,0,0:0:0:0:
192,0,40295,1,0,0:0:0:0:
192,0,40561,1,0,0:0:0:0:
448,0,40561,1,0,0:0:0:0:
448,0,40828,1,0,0:0:0:0:
64,0,40960,1,0,0:0:0:0:
448,0,40960,1,0,0:0:0:0:
64,0,41094,1,0,0:0:0:0:
320,0,41094,1,0,0:0:0:0:
448,0,41094,1,0,0:0:0:0:
192,0,41227,1,0,0:0:0:0:
64,0,41360,1,0,0:0:0:0:
320,0,41360,1,0,0:0:0:0:
448,0,41493,1,0,0:0:0:0:
192,0,41626,1,0,0:0:0:0:
448,0,41626,1,0,0:0:0:0:
192,0,41892,1,0,0:0:0:0:
448,0,41892,1,0,0:0:0:0:
64,0,42025,1,0,0:0:0:0:
320,0,42025,1,0,0:0:0:0:
320,0,42158,1,0,0:0:0:0:
448,0,42158,1,0,0:0:0:0:
192,0,42291,1,0,0:0:0:0:
64,0,42424,1,0,0:0:0:0:
448,0,42424,1,0,0:0:0:0:
64,0,42557,1,0,0:0:0:0:
192,0,42690,1,0,0:0:0:0:
448,0,42690,1,0,0:0:0:0:
320,0,42956,1,0,0:0:0:0:
64,0,43090,1,0,0:0:0:0:
192,0,43222,1,0,0:0:0:0:
320,0,43222,1,0,0:0:0:0:
448,0,43222,1,0,0:0:0:0:
64,0,43355,1,0,0:0:0:0:
320,0,43489,1,0,0:0:0:0:
448,0,43489,1,0,0:0:0:0:
192,0,43621,1,0,0:0:0:0:
64,0,43754,1,0,0:0:0:0:
448,0,43754,1,0,0:0:0:0:
192,0,43888,1,0,0:0:0:0:
320,0,44020,1,0,0:0:0:0:
448,0,44020,1,0,0:0:0:0:
64,0,44153,1,0,0:0:0:0:
192,0,44153,1,0,0:0:0:0:
320,0,44287,1,0,0:0:0:0:
448,0,44287,1,0,0:0:0:0:
64,0,44420,1,0,0:0:0:0:
192,0,44552,1,0,0:0:0:0:
448,0,44552,1,0,0:0:0:0:
64,0,44686,1,0,0:0:0:0:
192,0,44819,1,0,0:0:0:0:
320,0,44819,1,0,0:0:0:0:
64,0,45085,1,0,0:0:0:0:
320,0,45218,1,0,0:0:0:0:
448,0,45218,1,0,0:0:0:0:
64,0,45350,1,0,0:0:0:0:
320,0,45350,1,0,0:0:0:0:
448,0,45350,1,0,0:0:0:0:
64,0,45484,1,0,0:0:0:0:
192,0,45617,1,0,0:0:0:0:
448,0,45617,1,0,0:0:0:0:
320,0,45749,1,0,0:0:0:0:
192,0,45883,1,0,0:0:0:0:
448,0,45883,1,0,0:0:0:0:
64,0,46016,1,0,0:0:0:0:
320,0,46149,1,0,0:0:0:0:
448,0,46149,1,0,0:0:0:0:
192,0,46282,1,0,0:0:0:0:
448,0,46282,1,0,0:0:0:0:
64,0,46415,1,0,0:0:0:0:
320,0,46415,1,0,0:0:0:0:
320,0,46549,1,0,0:0:0:0:
64,0,46681,1,0,0:0:0:0:
192,0,46681,1,0,0:0:0:0:
448,0,46814,1,0,0:0:0:0:
320,0,46948,1,0,0:0:0:0:
448,0,46948,1,0,0:0:0:0:
64,0,47014,1,0,0:0:0:0:
192,0,47014,1,0,0:0:0:0:
320,0,47080,1,0,0:0:0:0:
448,0,47080,1,0,0:0:0:0:
64,0,47147,1,0,0:0:0:0:
192,0,47147,1,0,0:0:0:0:
320,0,47213,1,0,0:0:0:0:
192,0,47279,1,0,0:0:0:0:
320,0,47347,1,0,0:0:0:0:
192,0,47413,1,0,0:0:0:0:
64,0,47479,1,0,0:0:0:0:
448,0,47479,1,0,0:0:0:0:
192,0,47612,1,0,0:0:0:0:
320,0,47679,1,0,0:0:0:0:
64,0,47746,1,0,0:0:0:0:
448,0,47746,1,0,0:0:0:0:
192,0,47879,1,0,0:0:0:0:
320,0,48011,1,0,0:0:0:0:
448,0,48011,1,0,0:0:0:0:
192,0,48145,1,0,0:0:0:0:
64,0,48278,1,0,0:0:0:0:
320,0,48278,1,0,0:0:0:0:
192,0,48410,1,0,0:0:0:0:
320,0,48544,1,0,0:0:0:0:
448,0,48544,1,0,0:0:0:0:
320,0,48677,1,0,0:0:0:0:
192,0,48743,1,0,0:0:0:0:
64,0,48809,1,0,0:0:0:0:
448,0,48809,1,0,0:0:0:0:
192,0,48943,1,0,0:0:0:0:
320,0,49076,1,0,0:0:0:0:
448,0,49076,1,0,0:0:0:0:
64,0,49209,1,0,0:0:0:0:
192,0,49342,1,0,0:0:0:0:
448,0,49342,1,0,0:0:0:0:
320,0,49475,1,0,0:0:0:0:
64,0,49608,1,0,0:0:0:0:
320,0,49608,1,0,0:0:0:0:
448,0,49608,1,0,0:0:0:0:
192,0,49741,1,0,0:0:0:0:
320,0,49808,1,0,0:0:0:0:
64,0,49874,1,0,0:0:0:0:
448,0,49874,1,0,0:0:0:0:
192,0,50007,1,0,0:0:0:0:
320,0,50140,1,0,0:0:0:0:
448,0,50140,1,0,0:0:0:0:
192,0,50273,1,0,0:0:0:0:
64,0,50406,1,0,0:0:0:0:
320,0,50406,1,0,0:0:0:0:
448,0,50539,1,0,0:0:0:0:
192,0,50672,1,0,0:0:0:0:
320,0,50672,1,0,0:0:0:0:
320,0,50805,1,0,0:0:0:0:
192,0,50872,1,0,0:0:0:0:
64,0,50939,1,0,0:0:0:0:
448,0,50939,1,0,0:0:0:0:
320,0,51071,1,0,0:0:0:0:
64,0,51204,1,0,0:0:0:0:
192,0,51204,1,0,0:0:0:0:
320,0,51338,1,0,0:0:0:0:
64,0,51470,1,0,0:0:0:0:
448,0,51470,1,0,0:0:0:0:
192,0,51604,1,0,0:0:0:0:
320,0,51604,1,0,0:0:0:0:
64,0,51737,1,0,0:0:0:0:
192,0,51737,1,0,0:0:0:0:
448,0,51737,1,0,0:0:0:0:
448,0,51869,1,0,0:0:0:0:
320,0,51936,1,0,0:0:0:0:
64,0,52003,1,0,0:0:0:0:
192,0,52003,1,0,0:0:0:0:
320,0,52136,1,0,0:0:0:0:
64,0,52269,1,0,0:0:0:0:
448,0,52269,1,0,0:0:0:0:
192,0,52402,1,0,0:0:0:0:
64,0,52535,1,0,0:0:0:0:
320,0,52535,1,0,0:0:0:0:
192,0,52668,1,0,0:0:0:0:
320,0,52801,1,0,0:0:0:0:
448,0,52801,1,0,0:0:0:0:
64,0,52934,1,0,0:0:0:0:
192,0,53000,1,0,0:0:0:0:
320,0,53067,1,0,0:0:0:0:
448,0,53067,1,0,0:0:0:0:
64,0,53200,1,0,0:0:0:0:
320,0,53333,1,0,0:0:0:0:
448,0,53333,1,0,0:0:0:0:
64,0,53466,1,0,0:0:0:0:
192,0,53599,1,0,0:0:0:0:
448,0,53599,1,0,0:0:0:0:
320,0,53732,1,0,0:0:0:0:
64,0,53865,1,0,0:0:0:0:
192,0,53865,1,0,0:0:0:0:
448,0,53865,1,0,0:0:0:0:
320,0,53999,1,0,0:0:0:0:
64,0,54131,1,0,0:0:0:0:
448,0,54131,1,0,0:0:0:0:
64,0,54264,1,0,0:0:0:0:
192,0,54398,1,0,0:0:0:0:
448,0,54398,1,0,0:0:0:0:
320,0,54530,1,0,0:0:0:0:
64,0,54663,1,0,0:0:0:0:
320,0,54663,1,0,0:0:0:0:
192,0,54797,1,0,0:0:0:0:
64,0,54929,1,0,0:0:0:0:
320,0,54929,1,0,0:0:0:0:
448,0,54929,1,0,0:0:0:0:
64,0,55196,1,0,0:0:0:0:
320,0,55196,1,0,0:0:0:0:
448,0,55196,1,0,0:0:0:0:
320,0,55461,1,0,0:0:0:0:
448,0,55461,1,0,0:0:0:0:
64,0,55529,1,0,0:0:0:0:
192,0,55529,1,0,0:0:0:0:
320,0,55595,1,0,0:0:0:0:
448,0,55595,1,0,0:0:0:0:
192,0,55661,1,0,0:0:0:0:
64,0,55728,1,0,0:0:0:0:
320,0,55728,1,0,0:0:0:0:
192,0,55860,1,0,0:0:0:0:
320,0,55860,1,0,0:0:0:0:
192,0,55994,1,0,0:0:0:0:
320,0,55994,1,0,0:0:0:0:
448,0,55994,1,0,0:0:0:0:
64,0,56060,1,0,0:0:0:0:
448,0,56127,1,0,0:0:0:0:
320,0,56193,1,0,0:0:0:0:
64,0,56259,1,0,0:0:0:0:
192,0,56259,1,0,0:0:0:0:
448,0,56259,1,0,0:0:0:0:
320,0,56327,1,0,0:0:0:0:
192,0,56393,1,0,0:0:0:0:
448,0,56393,1,0,0:0:0:0:
64,0,56459,1,0,0:0:0:0:
320,0,56526,1,0,0:0:0:0:
448,0,56526,1,0,0:0:0:0:
192,0,56592,1,0,0:0:0:0:
320,0,56659,1,0,0:0:0:0:
448,0,56659,1,0,0:0:0:0:
64,0,56726,1,0,0:0:0:0:
192,0,56726,1,0,0:0:0:0:
320,0,56792,1,0,0:0:0:0:
448,0,56792,1,0,0:0:0:0:
192,0,56859,1,0,0:0:0:0:
64,0,56925,1,0,0:0:0:0:
320,0,56925,1,0,0:0:0:0:
448,0,56925,1,0,0:0:0:0:
192,0,56991,1,0,0:0:0:0:
64,0,57059,1,0,0:0:0:0:
320,0,57059,1,0,0:0:0:0:
448,0,57125,1,0,0:0:0:0:
192,0,57191,1,0,0:0:0:0:
320,0,57191,1,0,0:0:0:0:
64,0,57258,1,0,0:0:0:0:
192,0,57324,1,0,0:0:0:0:
320,0,57324,1,0,0:0:0:0:
448,0,57390,1,0,0:0:0:0:
64,0,57458,1,0,0:0:0:0:
192,0,57458,1,0,0:0:0:0:
320,0,57524,1,0,0:0:0:0:
192,0,57590,1,0,0:0:0:0:
448,0,57590,1,0,0:0:0:0:
64,0,57657,1,0,0:0:0:0:
320,0,57657,1,0,0:0:0:0:
192,0,57723,1,0,0:0:0:0:
448,0,57723,1,0,0:0:0:0:
320,0,57789,1,0,0:0:0:0:
64,0,57857,1,0,0:0:0:0:
192,0,57857,1,0,0:0:0:0:
320,0,57923,1,0,0:0:0:0:
448,0,57989,1,0,0:0:0:0:
192,0,58056,1,0,0:0:0:0:
64,0,58122,1,0,0:0:0:0:
320,0,58122,1,0,0:0:0:0:
448,0,58122,1,0,0:0:0:0:
192,0,58189,1,0,0:0:0:0:
320,0,58256,1,0,0:0:0:0:
448,0,58256,1,0,0:0:0:0:
64,0,58322,1,0,0:0:0:0:
192,0,58389,1,0,0:0:0:0:
320,0,58389,1,0,0:0:0:0:
64,0,58455,1,0,0:0:0:0:
320,0,58521,1,0,0:0:0:0:
448,0,58521,1,0,0:0:0:0:
192,0,58588,1,0,0:0:0:0:
64,0,58655,1,0,0:0:0:0:
320,0,58655,1,0,0:0:0:0:
448,0,58655,1,0,0:0:0:0:
192,0,58721,1,0,0:0:0:0:
320,0,58788,1,0,0:0:0:0:
448,0,58788,1,0,0:0:0:0:
192,0,58854,1,0,0:0:0:0:
64,0,58920,1,0,0:0:0:0:
320,0,58920,1,0,0:0:0:0:
192,0,58987,1,0,0:0:0:0:
320,0,59054,1,0,0:0:0:0:
448,0,59054,1,0,0:0:0:0:
64,0,59120,1,0,0:0:0:0:
192,0,59187,1,0,0:0:0:0:
320,0,59187,1,0,0:0:0:0:
448,0,59187,1,0,0:0:0:0:
64,0,59253,1,0,0:0:0:0:
192,0,59319,1,0,0:0:0:0:
320,0,59386,1,0,0:0:0:0:
64,0,59453,1,0,0:0:0:0:
192,0,59453,1,0,0:0:0:0:
448,0,59453,1,0,0:0:0:0:
320,0,59519,1,0,0:0:0:0:
64,0,59586,1,0,0:0:0:0:
192,0,59586,1,0,0:0:0:0:
320,0,59652,1,0,0:0:0:0:
64,0,59719,1,0,0:0:0:0:
192,0,59719,1,0,0:0:0:0:
448,0,59719,1,0,0:0:0:0:
320,0,59786,1,0,0:0:0:0:
192,0,59852,1,0,0:0:0:0:
448,0,59852,1,0,0:0:0:0:
64,0,59919,1,0,0:0:0:0:
192,0,59985,1,0,0:0:0:0:
320,0,59985,1,0,0:0:0:0:
448,0,59985,1,0,0:0:0:0:
64,0,60051,1,0,0:0:0:0:
320,0,60118,1,0,0:0:0:0:
448,0,60118,1,0,0:0:0:0:
192,0,60185,1,0,0:0:0:0:
64,0,60251,1,0,0:0:0:0:
320,0,60251,1,0,0:0:0:0:
448,0,60251,1,0,0:0:0:0:
192,0,60318,1,0,0:0:0:0:
64,0,60384,1,0,0:0:0:0:
448,0,60450,1,0,0:0:0:0:
64,0,60517,1,0,0:0:0:0:
192,0,60517,1,0,0:0:0:0:
320,0,60517,1,0,0:0:0:0:
448,0,60584,1,0,0:0:0:0:
64,0,60650,1,0,0:0:0:0:
320,0,60650,1,0,0:0:0:0:
192,0,60717,1,0,0:0:0:0:
64,0,60783,1,0,0:0:0:0:
320,0,60783,1,0,0:0:0:0:
448,0,60849,1,0,0:0:0:0:
64,0,60916,1,0,0:0:0:0:
192,0,60916,1,0,0:0:0:0:
320,0,60983,1,0,0:0:0:0:
64,0,61049,1,0,0:0:0:0:
448,0,61049,1,0,0:0:0:0:
192,0,61116,1,0,0:0:0:0:
64,0,61182,1,0,0:0:0:0:
320,0,61182,1,0,0:0:0:0:
448,0,61182,1,0,0:0:0:0:
192,0,61249,1,0,0:0:0:0:
320,0,61315,1,0,0:0:0:0:
448,0,61315,1,0,0:0:0:0:
64,0,61382,1,0,0:0:0:0:
192,0,61449,1,0,0:0:0:0:
320,0,61449,1,0,0:0:0:0:
64,0,61515,1,0,0:0:0:0:
192,0,61581,1,0,0:0:0:0:
448,0,61581,1,0,0:0:0:0:
320,0,61648,1,0,0:0:0:0:
448,0,61714,1,0,0:0:0:0:
192,0,61781,1,0,0:0:0:0:
64,0,61848,1,0,0:0:0:0:
320,0,61848,1,0,0:0:0:0:
448,0,61848,1,0,0:0:0:0:
192,0,61914,1,0,0:0:0:0:
320,0,61980,1,0,0:0:0:0:
64,0,62047,1,0,0:0:0:0:
320,0,62113,1,0,0:0:0:0:
448,0,62113,1,0,0:0:0:0:
192,0,62180,1,0,0:0:0:0:
64,0,62247,1,0,0:0:0:0:
448,0,62247,1,0,0:0:0:0:
320,0,62313,1,0,0:0:0:0:
64,0,62379,1,0,0:0:0:0:
192,0,62379,1,0,0:0:0:0:
448,0,62379,1,0,0:0:0:0:
320,0,62446,1,0,0:0:0:0:
64,0,62513,1,0,0:0:0:0:
192,0,62579,1,0,0:0:0:0:
320,0,62646,1,0,0:0:0:0:
448,0,62646,1,0,0:0:0:0:
192,0,62712,1,0,0:0:0:0:
64,0,62779,1,0,0:0:0:0:
320,0,62779,1,0,0:0:0:0:
448,0,62845,1,0,0:0:0:0:
64,0,62912,1,0,0:0:0:0:
192,0,62912,1,0,0:0:0:0:
320,0,62912,1,0,0:0:0:0:
448,0,62979,1,0,0:0:0:0:
192,0,63045,1,0,0:0:0:0:
320,0,63045,1,0,0:0:0:0:
64,0,63111,1,0,0:0:0:0:
192,0,63178,1,0,0:0:0:0:
320,0,63178,1,0,0:0:0:0:
448,0,63178,1,0,0:0:0:0:
64,0,63244,1,0,0:0:0:0:
320,0,63311,1,0,0:0:0:0:
448,0,63311,1,0,0:0:0:0:
64,0,63378,1,0,0:0:0:0:
192,0,63444,1,0,0:0:0:0:
320,0,63444,1,0,0:0:0:0:
448,0,63444,1,0,0:0:0:0:
64,0,63510,1,0,0:0:0:0:
192,0,63577,1,0,0:0:0:0:
448,0,63577,1,0,0:0:0:0:
320,0,63643,1,0,0:0:0:0:
64,0,63710,1,0,0:0:0:0:
192,0,63710,1,0,0:0:0:0:
448,0,63710,1,0,0:0:0:0:
320,0,63777,1,0,0:0:0:0:
64,0,63843,1,0,0:0:0:0:
192,0,63843,1,0,0:0:0:0:
320,0,63909,1,0,0:0:0:0:
64,0,63976,1,0,0:0:0:0:
192,0,63976,1,0,0:0:0:0:
448,0,63976,1,0,0:0:0:0:
320,0,64042,1,0,0:0:0:0:
192,0,64109,1,0,0:0:0:0:
448,0,64176,1,0,0:0:0:0:
64,0,64242,1,0,0:0:0:0:
192,0,64242,1,0,0:0:0:0:
320,0,64309,1,0,0:0:0:0:
448,0,64309,1,0,0:0:0:0:
64,0,64375,1,0,0:0:0:0:
192,0,64375,1,0,0:0:0:0:
320,0,64441,1,0,0:0:0:0:
448,0,64441,1,0,0:0:0:0:
64,0,64509,1,0,0:0:0:0:
320,0,64509,1,0,0:0:0:0:
448,0,64509,1,0,0:0:0:0:
192,0,64575,1,0,0:0:0:0:
320,0,64641,1,0,0:0:0:0:
64,0,64708,1,0,0:0:0:0:
192,0,64774,1,0,0:0:0:0:
320,0,64774,1,0,0:0:0:0:
448,0,64774,1,0,0:0:0:0:
64,0,64840,1,0,0:0:0:0:
192,0,64908,1,0,0:0:0:0:
320,0,64908,1,0,0:0:0:0:
448,0,64974,1,0,0:0:0:0:
64,0,65040,1,0,0:0:0:0:
192,0,65040,1,0,0:0:0:0:
448,0,65107,1,0,0:0:0:0:
64,0,65173,1,0,0:0:0:0:
192,0,65173,1,0,0:0:0:0:
320,0,65240,1,0,0:0:0:0:
192,0,65307,1,0,0:0:0:0:
448,0,65307,1,0,0:0:0:0:
64,0,65373,1,0,0:0:0:0:
320,0,65439,1,0,0:0:0:0:
448,0,65439,1,0,0:0:0:0:
192,0,65506,1,0,0:0:0:0:
320,0,65572,1,0,0:0:0:0:
448,0,65572,1,0,0:0:0:0:
64,0,65640,1,0,0:0:0:0:
192,0,65706,1,0,0:0:0:0:
320,0,65706,1,0,0:0:0:0:
448,0,65772,1,0,0:0:0:0:
64,0,65839,1,0,0:0:0:0:
192,0,65839,1,0,0:0:0:0:
320,0,65839,1,0,0:0:0:0:
448,0,65905,1,0,0:0:0:0:
192,0,65971,1,0,0:0:0:0:
320,0,66039,1,0,0:0:0:0:
64,0,66105,1,0,0:0:0:0:
192,0,66105,1,0,0:0:0:0:
448,0,66105,1,0,0:0:0:0:
320,0,66171,1,0,0:0:0:0:
64,0,66238,1,0,0:0:0:0:
192,0,66304,1,0,0:0:0:0:
320,0,66370,1,0,0:0:0:0:
448,0,66370,1,0,0:0:0:0:
192,0,66438,1,0,0:0:0:0:
64,0,66504,1,0,0:0:0:0:
320,0,66570,1,0,0:0:0:0:
64,0,66637,1,0,0:0:0:0:
192,0,66637,1,0,0:0:0:0:
448,0,66637,1,0,0:0:0:0:
320,0,66703,1,0,0:0:0:0:
192,0,66770,1,0,0:0:0:0:
448,0,66770,1,0,0:0:0:0:
64,0,66837,1,0,0:0:0:0:
192,0,66903,1,0,0:0:0:0:
320,0,66903,1,0,0:0:0:0:
448,0,66903,1,0,0:0:0:0:
64,0,66970,1,0,0:0:0:0:
192,0,67036,1,0,0:0:0:0:
320,0,67036,1,0,0:0:0:0:
448,0,67102,1,0,0:0:0:0:
64,0,67169,1,0,0:0:0:0:
192,0,67169,1,0,0:0:0:0:
320,0,67169,1,0,0:0:0:0:
448,0,67236,1,0,0:0:0:0:
64,0,67302,1,0,0:0:0:0:
320,0,67302,1,0,0:0:0:0:
192,0,67369,1,0,0:0:0:0:
64,0,67435,1,0,0:0:0:0:
320,0,67435,1,0,0:0:0:0:
448,0,67435,1,0,0:0:0:0:
192,0,67501,1,0,0:0:0:0:
64,0,67568,1,0,0:0:0:0:
320,0,67568,1,0,0:0:0:0:
448,0,67635,1,0,0:0:0:0:
64,0,67701,1,0,0:0:0:0:
192,0,67701,1,0,0:0:0:0:
320,0,67701,1,0,0:0:0:0:
448,0,67768,1,0,0:0:0:0:
192,0,67834,1,0,0:0:0:0:
64,0,67900,1,0,0:0:0:0:
192,0,67968,1,0,0:0:0:0:
320,0,67968,1,0,0:0:0:0:
448,0,67968,1,0,0:0:0:0:
64,0,68034,1,0,0:0:0:0:
192,0,68100,1,0,0:0:0:0:
320,0,68100,1,0,0:0:0:0:
448,0,68167,1,0,0:0:0:0:
64,0,68233,1,0,0:0:0:0:
192,0,68233,1,0,0:0:0:0:
320,0,68233,1,0,0:0:0:0:
448,0,68300,1,0,0:0:0:0:
64,0,68367,1,0,0:0:0:0:
192,0,68367,1,0,0:0:0:0:
320,0,68433,1,0,0:0:0:0:
64,0,68500,1,0,0:0:0:0:
192,0,68500,1,0,0:0:0:0:
448,0,68500,1,0,0:0:0:0:
320,0,68566,1,0,0:0:0:0:
192,0,68632,1,0,0:0:0:0:
448,0,68632,1,0,0:0:0:0:
64,0,68699,1,0,0:0:0:0:
192,0,68766,1,0,0:0:0:0:
320,0,68766,1,0,0:0:0:0:
448,0,68766,1,0,0:0:0:0:
64,0,68832,1,0,0:0:0:0:
320,0,68899,1,0,0:0:0:0:
192,0,68965,1,0,0:0:0:0:
64,0,69031,1,0,0:0:0:0:
320,0,69031,1,0,0:0:0:0:
448,0,69031,1,0,0:0:0:0:
192,0,69098,1,0,0:0:0:0:
64,0,69165,1,0,0:0:0:0:
448,0,69165,1,0,0:0:0:0:
320,0,69231,1,0,0:0:0:0:
64,0,69298,1,0,0:0:0:0:
192,0,69298,1,0,0:0:0:0:
448,0,69364,1,0,0:0:0:0:
64,0,69430,1,0,0:0:0:0:
192,0,69430,1,0,0:0:0:0:
320,0,69497,1,0,0:0:0:0:
64,0,69564,1,0,0:0:0:0:
192,0,69564,1,0,0:0:0:0:
448,0,69564,1,0,0:0:0:0:
320,0,69630,1,0,0:0:0:0:
192,0,69697,1,0,0:0:0:0:
448,0,69697,1,0,0:0:0:0:
64,0,69763,1,0,0:0:0:0:
320,0,69830,1,0,0:0:0:0:
448,0,69830,1,0,0:0:0:0:
192,0,69896,1,0,0:0:0:0:
64,0,69963,1,0,0:0:0:0:
320,0,69963,1,0,0:0:0:0:
192,0,70030,1,0,0:0:0:0:
64,0,70096,1,0,0:0:0:0:
320,0,70096,1,0,0:0:0:0:
448,0,70096,1,0,0:0:0:0:
192,0,70162,1,0,0:0:0:0:
448,0,70229,1,0,0:0:0:0:
320,0,70295,1,0,0:0:0:0:
64,0,70362,1,0,0:0:0:0:
192,0,70362,1,0,0:0:0:0:
448,0,70362,1,0,0:0:0:0:
320,0,70429,1,0,0:0:0:0:
64,0,70495,1,0,0:0:0:0:
192,0,70561,1,0,0:0:0:0:
320,0,70628,1,0,0:0:0:0:
448,0,70628,1,0,0:0:0:0:
192,0,70695,1,0,0:0:0:0:
64,0,70761,1,0,0:0:0:0:
320,0,70761,1,0,0:0:0:0:
448,0,70828,1,0,0:0:0:0:
64,0,70894,1,0,0:0:0:0:
192,0,70894,1,0,0:0:0:0:
320,0,70894,1,0,0:0:0:0:
448,0,70960,1,0,0:0:0:0:
192,0,71027,1,0,0:0:0:0:
64,0,71094,1,0,0:0:0:0:
192,0,71160,1,0,0:0:0:0:
320,0,71160,1,0,0:0:0:0:
448,0,71160,1,0,0:0:0:0:
64,0,71227,1,0,0:0:0:0:
192,0,71293,1,0,0:0:0:0:
320,0,71293,1,0,0:0:0:0:
64,0,71360,1,0,0:0:0:0:
320,0,71426,1,0,0:0:0:0:
448,0,71426,1,0,0:0:0:0:
64,0,71493,1,0,0:0:0:0:
192,0,71560,1,0,0:0:0:0:
448,0,71560,1,0,0:0:0:0:
320,0,71626,1,0,0:0:0:0:
64,0,71692,1,0,0:0:0:0:
192,0,71692,1,0,0:0:0:0:
448,0,71692,1,0,0:0:0:0:
320,0,71759,1,0,0:0:0:0:
64,0,71825,1,0,0:0:0:0:
448,0,71825,1,0,0:0:0:0:
192,0,71892,1,0,0:0:0:0:
64,0,71959,1,0,0:0:0:0:
320,0,71959,1,0,0:0:0:0:
448,0,71959,1,0,0:0:0:0:
192,0,72025,1,0,0:0:0:0:
320,0,72091,1,0,0:0:0:0:
448,0,72091,1,0,0:0:0:0:
64,0,72158,1,0,0:0:0:0:
192,0,72224,1,0,0:0:0:0:
320,0,72224,1,0,0:0:0:0:
448,0,72224,1,0,0:0:0:0:
64,0,72291,1,0,0:0:0:0:
192,0,72358,1,0,0:0:0:0:
448,0,72358,1,0,0:0:0:0:
320,0,72424,1,0,0:0:0:0:
64,0,72490,1,0,0:0:0:0:
192,0,72490,1,0,0:0:0:0:
320,0,72557,1,0,0:0:0:0:
448,0,72557,1,0,0:0:0:0:
64,0,72623,1,0,0:0:0:0:
192,0,72623,1,0,0:0:0:0:
320,0,72690,1,0,0:0:0:0:
448,0,72690,1,0,0:0:0:0:
64,0,72757,128,0,72823:0:0:0:0:
192,0,72757,128,0,72823:0:0:0:0:
64,0,73022,1,0,0:0:0:0:
320,0,73022,1,0,0:0:0:0:
448,0,73022,1,0,0:0:0:0:
192,0,73090,1,0,0:0:0:0:
64,0,73156,1,0,0:0:0:0:
320,0,73222,1,0,0:0:0:0:
192,0,73289,1,0,0:0:0:0:
448,0,73289,1,0,0:0:0:0:
320,0,73355,1,0,0:0:0:0:
64,0,73422,1,0,0:0:0:0:
192,0,73422,1,0,0:0:0:0:
448,0,73489,1,0,0:0:0:0:
64,0,73555,1,0,0:0:0:0:
192,0,73555,1,0,0:0:0:0:
320,0,73555,1,0,0:0:0:0:
448,0,73621,1,0,0:0:0:0:
64,0,73688,1,0,0:0:0:0:
192,0,73688,1,0,0:0:0:0:
320,0,73754,1,0,0:0:0:0:
192,0,73821,1,0,0:0:0:0:
448,0,73821,1,0,0:0:0:0:
64,0,73888,1,0,0:0:0:0:
192,0,73954,1,0,0:0:0:0:
448,0,73954,1,0,0:0:0:0:
320,0,74020,1,0,0:0:0:0:
64,0,74087,1,0,0:0:0:0:
192,0,74087,1,0,0:0:0:0:
448,0,74087,1,0,0:0:0:0:
320,0,74153,1,0,0:0:0:0:
64,0,74220,1,0,0:0:0:0:
192,0,74220,1,0,0:0:0:0:
448,0,74287,1,0,0:0:0:0:
64,0,74353,1,0,0:0:0:0:
320,0,74353,1,0,0:0:0:0:
192,0,74420,1,0,0:0:0:0:
320,0,74486,1,0,0:0:0:0:
192,0,74552,1,0,0:0:0:0:
64,0,74620,1,0,0:0:0:0:
320,0,74620,1,0,0:0:0:0:
448,0,74620,1,0,0:0:0:0:
192,0,74686,1,0,0:0:0:0:
320,0,74752,1,0,0:0:0:0:
64,0,74819,1,0,0:0:0:0:
192,0,74885,1,0,0:0:0:0:
448,0,74885,1,0,0:0:0:0:
320,0,74951,1,0,0:0:0:0:
64,0,75019,1,0,0:0:0:0:
192,0,75019,1,0,0:0:0:0:
448,0,75085,1,0,0:0:0:0:
64,0,75151,1,0,0:0:0:0:
192,0,75151,1,0,0:0:0:0:
320,0,75151,1,0,0:0:0:0:
448,0,75218,1,0,0:0:0:0:
192,0,75284,1,0,0:0:0:0:
320,0,75350,1,0,0:0:0:0:
64,0,75418,1,0,0:0:0:0:
448,0,75418,1,0,0:0:0:0:
320,0,75484,1,0,0:0:0:0:
192,0,75550,1,0,0:0:0:0:
448,0,75550,1,0,0:0:0:0:
64,0,75617,1,0,0:0:0:0:
192,0,75683,1,0,0:0:0:0:
320,0,75683,1,0,0:0:0:0:
448,0,75683,1,0,0:0:0:0:
64,0,75750,1,0,0:0:0:0:
320,0,75817,1,0,0:0:0:0:
448,0,75817,1,0,0:0:0:0:
64,0,75883,1,0,0:0:0:0:
320,0,75950,1,0,0:0:0:0:
448,0,75950,1,0,0:0:0:0:
64,0,76016,1,0,0:0:0:0:
192,0,76082,1,0,0:0:0:0:
320,0,76082,1,0,0:0:0:0:
448,0,76150,1,0,0:0:0:0:
64,0,76216,1,0,0:0:0:0:
192,0,76216,1,0,0:0:0:0:
320,0,76216,1,0,0:0:0:0:
448,0,76282,1,0,0:0:0:0:
192,0,76349,1,0,0:0:0:0:
320,0,76349,1,0,0:0:0:0:
64,0,76415,1,0,0:0:0:0:
320,0,76481,1,0,0:0:0:0:
448,0,76481,1,0,0:0:0:0:
192,0,76549,1,0,0:0:0:0:
64,0,76615,1,0,0:0:0:0:
448,0,76615,1,0,0:0:0:0:
192,0,76681,1,0,0:0:0:0:
320,0,76748,1,0,0:0:0:0:
448,0,76748,1,0,0:0:0:0:
64,0,76814,1,0,0:0:0:0:
192,0,76814,1,0,0:0:0:0:
320,0,76880,1,0,0:0:0:0:
64,0,76948,1,0,0:0:0:0:
192,0,77014,1,0,0:0:0:0:
448,0,77014,1,0,0:0:0:0:
64,0,77080,1,0,0:0:0:0:
320,0,77080,1,0,0:0:0:0:
192,0,77147,1,0,0:0:0:0:
448,0,77147,1,0,0:0:0:0:
320,0,77213,1,0,0:0:0:0:
64,0,77280,1,0,0:0:0:0:
192,0,77280,1,0,0:0:0:0:
448,0,77280,1,0,0:0:0:0:
320,0,77347,1,0,0:0:0:0:
192,0,77413,1,0,0:0:0:0:
448,0,77480,1,0,0:0:0:0:
64,0,77546,1,0,0:0:0:0:
192,0,77546,1,0,0:0:0:0:
320,0,77612,1,0,0:0:0:0:
192,0,77679,1,0,0:0:0:0:
448,0,77679,1,0,0:0:0:0:
64,0,77746,1,0,0:0:0:0:
192,0,77812,1,0,0:0:0:0:
320,0,77812,1,0,0:0:0:0:
448,0,77812,1,0,0:0:0:0:
64,0,77879,1,0,0:0:0:0:
320,0,77945,1,0,0:0:0:0:
448,0,77945,1,0,0:0:0:0:
192,0,78011,1,0,0:0:0:0:
64,0,78078,1,0,0:0:0:0:
448,0,78078,1,0,0:0:0:0:
192,0,78145,1,0,0:0:0:0:
320,0,78211,1,0,0:0:0:0:
448,0,78211,1,0,0:0:0:0:
192,0,78278,1,0,0:0:0:0:
64,0,78344,1,0,0:0:0:0:
320,0,78344,1,0,0:0:0:0:
448,0,78344,1,0,0:0:0:0:
192,0,78410,1,0,0:0:0:0:
64,0,78477,1,0,0:0:0:0:
320,0,78477,1,0,0:0:0:0:
448,0,78544,1,0,0:0:0:0:
192,0,78610,1,0,0:0:0:0:
320,0,78610,1,0,0:0:0:0:
64,0,78677,1,0,0:0:0:0:
320,0,78743,1,0,0:0:0:0:
192,0,78810,1,0,0:0:0:0:
64,0,78877,1,0,0:0:0:0:
320,0,78877,1,0,0:0:0:0:
448,0,78877,1,0,0:0:0:0:
192,0,78943,1,0,0:0:0:0:
448,0,79010,1,0,0:0:0:0:
320,0,79076,1,0,0:0:0:0:
64,0,79142,1,0,0:0:0:0:
192,0,79142,1,0,0:0:0:0:
320,0,79209,1,0,0:0:0:0:
448,0,79276,1,0,0:0:0:0:
192,0,79342,1,0,0:0:0:0:
64,0,79409,1,0,0:0:0:0:
320,0,79409,1,0,0:0:0:0:
448,0,79409,1,0,0:0:0:0:
192,0,79475,1,0,0:0:0:0:
320,0,79541,1,0,0:0:0:0:
448,0,79608,1,0,0:0:0:0:
64,0,79675,1,0,0:0:0:0:
192,0,79675,1,0,0:0:0:0:
320,0,79741,1,0,0:0:0:0:
192,0,79808,1,0,0:0:0:0:
448,0,79808,1,0,0:0:0:0:
64,0,79874,1,0,0:0:0:0:
192,0,79940,1,0,0:0:0:0:
320,0,79940,1,0,0:0:0:0:
448,0,79940,1,0,0:0:0:0:
64,0,80007,1,0,0:0:0:0:
192,0,80074,1,0,0:0:0:0:
320,0,80074,1,0,0:0:0:0:
448,0,80140,1,0,0:0:0:0:
64,0,80207,1,0,0:0:0:0:
192,0,80207,1,0,0:0:0:0:
448,0,80273,1,0,0:0:0:0:
64,0,80340,1,0,0:0:0:0:
320,0,80340,1,0,0:0:0:0:
192,0,80406,1,0,0:0:0:0:
64,0,80473,1,0,0:0:0:0:
320,0,80473,1,0,0:0:0:0:
448,0,80473,1,0,0:0:0:0:
192,0,80540,1,0,0:0:0:0:
320,0,80606,1,0,0:0:0:0:
448,0,80606,1,0,0:0:0:0:
64,0,80672,1,0,0:0:0:0:
192,0,80739,1,0,0:0:0:0:
448,0,80739,1,0,0:0:0:0:
320,0,80805,1,0,0:0:0:0:
64,0,80872,1,0,0:0:0:0:
192,0,80872,1,0,0:0:0:0:
448,0,80939,1,0,0:0:0:0:
64,0,81005,1,0,0:0:0:0:
192,0,81005,1,0,0:0:0:0:
320,0,81005,1,0,0:0:0:0:
448,0,81071,1,0,0:0:0:0:
192,0,81138,1,0,0:0:0:0:
320,0,81204,1,0,0:0:0:0:
448,0,81204,1,0,0:0:0:0:
64,0,81271,1,0,0:0:0:0:
192,0,81271,1,0,0:0:0:0:
320,0,81338,1,0,0:0:0:0:
448,0,81338,1,0,0:0:0:0:
64,0,81404,1,0,0:0:0:0:
192,0,81404,1,0,0:0:0:0:
320,0,81470,1,0,0:0:0:0:
448,0,81470,1,0,0:0:0:0:
64,0,81537,1,0,0:0:0:0:
192,0,81537,1,0,0:0:0:0:
192,0,81670,1,0,0:0:0:0:
448,0,81670,1,0,0:0:0:0:
64,0,81803,1,0,0:0:0:0:
320,0,81803,1,0,0:0:0:0:
192,0,81936,1,0,0:0:0:0:
192,0,82070,1,0,0:0:0:0:
448,0,82070,1,0,0:0:0:0:
64,0,82202,1,0,0:0:0:0:
192,0,82202,1,0,0:0:0:0:
192,0,82335,1,0,0:0:0:0:
448,0,82335,1,0,0:0:0:0:
64,0,82469,1,0,0:0:0:0:
320,0,82469,1,0,0:0:0:0:
320,0,82601,1,0,0:0:0:0:
448,0,82601,1,0,0:0:0:0:
64,0,82734,1,0,0:0:0:0:
64,0,82868,1,0,0:0:0:0:
320,0,82868,1,0,0:0:0:0:
192,0,83000,1,0,0:0:0:0:
64,0,83133,1,0,0:0:0:0:
320,0,83133,1,0,0:0:0:0:
448,0,83400,1,0,0:0:0:0:
192,0,83532,1,0,0:0:0:0:
320,0,83532,1,0,0:0:0:0:
64,0,83666,1,0,0:0:0:0:
320,0,83666,1,0,0:0:0:0:
448,0,83666,1,0,0:0:0:0:
192,0,83799,1,0,0:0:0:0:
64,0,83931,1,0,0:0:0:0:
320,0,83931,1,0,0:0:0:0:
320,0,84065,1,0,0:0:0:0:
192,0,84198,1,0,0:0:0:0:
448,0,84198,1,0,0:0:0:0:
192,0,84464,1,0,0:0:0:0:
448,0,84464,1,0,0:0:0:0:
64,0,84597,1,0,0:0:0:0:
320,0,84597,1,0,0:0:0:0:
320,0,84730,1,0,0:0:0:0:
448,0,84730,1,0,0:0:0:0:
192,0,84863,1,0,0:0:0:0:
64,0,84996,1,0,0:0:0:0:
448,0,84996,1,0,0:0:0:0:
64,0,85130,1,0,0:0:0:0:
192,0,85262,1,0,0:0:0:0:
448,0,85262,1,0,0:0:0:0:
320,0,85529,1,0,0:0:0:0:
64,0,85661,1,0,0:0:0:0:
192,0,85794,1,0,0:0:0:0:
320,0,85794,1,0,0:0:0:0:
448,0,85794,1,0,0:0:0:0:
64,0,85928,1,0,0:0:0:0:
448,0,86060,1,0,0:0:0:0:
192,0,86193,1,0,0:0:0:0:
64,0,86327,1,0,0:0:0:0:
448,0,86327,1,0,0:0:0:0:
192,0,86460,1,0,0:0:0:0:
320,0,86592,1,0,0:0:0:0:
448,0,86592,1,0,0:0:0:0:
64,0,86726,1,0,0:0:0:0:
192,0,86726,1,0,0:0:0:0:
320,0,86859,1,0,0:0:0:0:
448,0,86859,1,0,0:0:0:0:
64,0,86991,1,0,0:0:0:0:
192,0,87125,1,0,0:0:0:0:
448,0,87125,1,0,0:0:0:0:
64,0,87258,1,0,0:0:0:0:
192,0,87390,1,0,0:0:0:0:
320,0,87390,1,0,0:0:0:0:
64,0,87657,1,0,0:0:0:0:
320,0,87790,1,0,0:0:0:0:
448,0,87790,1,0,0:0:0:0:
64,0,87923,1,0,0:0:0:0:
192,0,87923,1,0,0:0:0:0:
448,0,87923,1,0,0:0:0:0:
64,0,88056,1,0,0:0:0:0:
320,0,88189,1,0,0:0:0:0:
448,0,88189,1,0,0:0:0:0:
64,0,88322,1,0,0:0:0:0:
192,0,88455,1,0,0:0:0:0:
448,0,88455,1,0,0:0:0:0:
192,0,88588,1,0,0:0:0:0:
64,0,88721,1,0,0:0:0:0:
320,0,88721,1,0,0:0:0:0:
192,0,88854,1,0,0:0:0:0:
448,0,88854,1,0,0:0:0:0:
64,0,88987,1,0,0:0:0:0:
320,0,88987,1,0,0:0:0:0:
320,0,89120,1,0,0:0:0:0:
64,0,89253,1,0,0:0:0:0:
192,0,89253,1,0,0:0:0:0:
448,0,89386,1,0,0:0:0:0:
320,0,89520,1,0,0:0:0:0:
448,0,89520,1,0,0:0:0:0:
64,0,89586,1,0,0:0:0:0:
192,0,89586,1,0,0:0:0:0:
320,0,89652,1,0,0:0:0:0:
448,0,89652,1,0,0:0:0:0:
64,0,89719,1,0,0:0:0:0:
192,0,89719,1,0,0:0:0:0:
320,0,89786,1,0,0:0:0:0:
192,0,89852,1,0,0:0:0:0:
320,0,89919,1,0,0:0:0:0:
192,0,89985,1,0,0:0:0:0:
64,0,90051,128,0,90251:0:0:0:0:
320,0,90051,1,0,0:0:0:0:
448,0,90051,1,0,0:0:0:0:
192,0,90185,1,0,0:0:0:0:
320,0,90318,1,0,0:0:0:0:
448,0,90318,1,0,0:0:0:0:
64,0,90450,1,0,0:0:0:0:
192,0,90450,1,0,0:0:0:0:
64,0,90584,128,0,90783:0:0:0:0:
192,0,90584,1,0,0:0:0:0:
320,0,90584,1,0,0:0:0:0:
448,0,90717,1,0,0:0:0:0:
64,0,90849,1,0,0:0:0:0:
192,0,90849,1,0,0:0:0:0:
192,0,90983,1,0,0:0:0:0:
320,0,90983,1,0,0:0:0:0:
64,0,91116,1,0,0:0:0:0:
320,0,91116,1,0,0:0:0:0:
448,0,91116,1,0,0:0:0:0:
320,0,91382,1,0,0:0:0:0:
448,0,91382,1,0,0:0:0:0:
64,0,91515,1,0,0:0:0:0:
192,0,91515,1,0,0:0:0:0:
64,0,91648,128,0,91848:0:0:0:0:
320,0,91648,1,0,0:0:0:0:
64,0,91914,1,0,0:0:0:0:
192,0,91914,1,0,0:0:0:0:
64,0,92047,1,0,0:0:0:0:
192,0,92047,1,0,0:0:0:0:
64,0,92180,128,0,92379:0:0:0:0:
320,0,92180,1,0,0:0:0:0:
448,0,92180,1,0,0:0:0:0:
320,0,92446,1,0,0:0:0:0:
448,0,92446,1,0,0:0:0:0:
64,0,92579,1,0,0:0:0:0:
192,0,92579,1,0,0:0:0:0:
64,0,92712,128,0,92912:0:0:0:0:
320,0,92712,1,0,0:0:0:0:
192,0,92979,1,0,0:0:0:0:
320,0,92979,1,0,0:0:0:0:
192,0,93111,1,0,0:0:0:0:
448,0,93111,1,0,0:0:0:0:
64,0,93244,1,0,0:0:0:0:
320,0,93244,1,0,0:0:0:0:
448,0,93244,1,0,0:0:0:0:
320,0,93510,1,0,0:0:0:0:
448,0,93510,1,0,0:0:0:0:
64,0,93643,1,0,0:0:0:0:
192,0,93643,1,0,0:0:0:0:
64,0,93777,128,0,93976:0:0:0:0:
320,0,93777,1,0,0:0:0:0:
64,0,94042,1,0,0:0:0:0:
192,0,94042,1,0,0:0:0:0:
64,0,94176,1,0,0:0:0:0:
192,0,94176,1,0,0:0:0:0:
64,0,94309,128,0,94509:0:0:0:0:
320,0,94309,1,0,0:0:0:0:
448,0,94309,1,0,0:0:0:0:
448,0,94441,1,0,0:0:0:0:
64,0,94575,1,0,0:0:0:0:
192,0,94575,1,0,0:0:0:0:
192,0,94708,1,0,0:0:0:0:
320,0,94708,1,0,0:0:0:0:
64,0,94840,128,0,95040:0:0:0:0:
320,0,94840,1,0,0:0:0:0:
448,0,94840,1,0,0:0:0:0:
448,0,94974,1,0,0:0:0:0:
192,0,95107,1,0,0:0:0:0:
320,0,95107,1,0,0:0:0:0:
64,0,95240,1,0,0:0:0:0:
192,0,95240,1,0,0:0:0:0:
64,0,95373,1,0,0:0:0:0:
320,0,95373,1,0,0:0:0:0:
448,0,95373,1,0,0:0:0:0:
192,0,95639,1,0,0:0:0:0:
320,0,95639,1,0,0:0:0:0:
64,0,95905,128,0,96105:0:0:0:0:
320,0,95905,1,0,0:0:0:0:
64,0,96171,1,0,0:0:0:0:
192,0,96171,1,0,0:0:0:0:
64,0,96304,1,0,0:0:0:0:
192,0,96304,1,0,0:0:0:0:
64,0,96438,128,0,96637:0:0:0:0:
192,0,96438,1,0,0:0:0:0:
320,0,96438,1,0,0:0:0:0:
448,0,96570,1,0,0:0:0:0:
192,0,96703,1,0,0:0:0:0:
320,0,96703,1,0,0:0:0:0:
192,0,96837,1,0,0:0:0:0:
448,0,96837,1,0,0:0:0:0:
64,0,96969,128,0,97169:0:0:0:0:
320,0,96969,1,0,0:0:0:0:
448,0,96969,1,0,0:0:0:0:
192,0,97102,1,0,0:0:0:0:
192,0,97236,1,0,0:0:0:0:
448,0,97236,1,0,0:0:0:0:
64,0,97369,1,0,0:0:0:0:
320,0,97369,1,0,0:0:0:0:
192,0,97501,1,0,0:0:0:0:
320,0,97501,1,0,0:0:0:0:
448,0,97501,1,0,0:0:0:0:
64,0,97768,1,0,0:0:0:0:
192,0,97768,1,0,0:0:0:0:
320,0,97768,1,0,0:0:0:0:
320,0,98034,1,0,0:0:0:0:
448,0,98034,1,0,0:0:0:0:
64,0,98100,1,0,0:0:0:0:
192,0,98100,1,0,0:0:0:0:
320,0,98167,1,0,0:0:0:0:
448,0,98167,1,0,0:0:0:0:
64,0,98233,1,0,0:0:0:0:
192,0,98233,1,0,0:0:0:0:
320,0,98299,1,0,0:0:0:0:
448,0,98299,1,0,0:0:0:0:
64,0,98433,1,0,0:0:0:0:
192,0,98433,1,0,0:0:0:0:
64,0,98566,1,0,0:0:0:0:
448,0,98566,1,0,0:0:0:0:
192,0,98699,1,0,0:0:0:0:
320,0,98766,1,0,0:0:0:0:
64,0,98832,1,0,0:0:0:0:
448,0,98832,1,0,0:0:0:0:
192,0,98965,1,0,0:0:0:0:
320,0,99098,1,0,0:0:0:0:
448,0,99098,1,0,0:0:0:0:
192,0,99231,1,0,0:0:0:0:
64,0,99364,1,0,0:0:0:0:
320,0,99364,1,0,0:0:0:0:
192,0,99497,1,0,0:0:0:0:
320,0,99630,1,0,0:0:0:0:
448,0,99630,1,0,0:0:0:0:
320,0,99763,1,0,0:0:0:0:
192,0,99829,1,0,0:0:0:0:
64,0,99896,1,0,0:0:0:0:
448,0,99896,1,0,0:0:0:0:
192,0,100029,1,0,0:0:0:0:
320,0,100162,1,0,0:0:0:0:
448,0,100162,1,0,0:0:0:0:
64,0,100295,1,0,0:0:0:0:
192,0,100429,1,0,0:0:0:0:
448,0,100429,1,0,0:0:0:0:
320,0,100561,1,0,0:0:0:0:
64,0,100695,1,0,0:0:0:0:
320,0,100695,1,0,0:0:0:0:
448,0,100695,1,0,0:0:0:0:
192,0,100828,1,0,0:0:0:0:
320,0,100894,1,0,0:0:0:0:
64,0,100960,1,0,0:0:0:0:
448,0,100960,1,0,0:0:0:0:
192,0,101094,1,0,0:0:0:0:
320,0,101227,1,0,0:0:0:0:
448,0,101227,1,0,0:0:0:0:
192,0,101359,1,0,0:0:0:0:
64,0,101493,1,0,0:0:0:0:
320,0,101493,1,0,0:0:0:0:
448,0,101626,1,0,0:0:0:0:
192,0,101759,1,0,0:0:0:0:
320,0,101759,1,0,0:0:0:0:
320,0,101892,1,0,0:0:0:0:
192,0,101959,1,0,0:0:0:0:
64,0,102025,1,0,0:0:0:0:
448,0,102025,1,0,0:0:0:0:
320,0,102158,1,0,0:0:0:0:
64,0,102291,1,0,0:0:0:0:
192,0,102291,1,0,0:0:0:0:
320,0,102424,1,0,0:0:0:0:
64,0,102557,1,0,0:0:0:0:
448,0,102557,1,0,0:0:0:0:
192,0,102690,1,0,0:0:0:0:
320,0,102690,1,0,0:0:0:0:
64,0,102823,1,0,0:0:0:0:
192,0,102823,1,0,0:0:0:0:
448,0,102823,1,0,0:0:0:0:
448,0,102956,1,0,0:0:0:0:
320,0,103022,1,0,0:0:0:0:
64,0,103089,1,0,0:0:0:0:
192,0,103089,1,0,0:0:0:0:
320,0,103222,1,0,0:0:0:0:
64,0,103355,1,0,0:0:0:0:
448,0,103355,1,0,0:0:0:0:
192,0,103489,1,0,0:0:0:0:
64,0,103621,1,0,0:0:0:0:
320,0,103621,1,0,0:0:0:0:
192,0,103754,1,0,0:0:0:0:
320,0,103888,1,0,0:0:0:0:
448,0,103888,1,0,0:0:0:0:
64,0,104020,1,0,0:0:0:0:
192,0,104087,1,0,0:0:0:0:
320,0,104153,1,0,0:0:0:0:
448,0,104153,1,0,0:0:0:0:
64,0,104287,1,0,0:0:0:0:
320,0,104419,1,0,0:0:0:0:
448,0,104419,1,0,0:0:0:0:
64,0,104552,1,0,0:0:0:0:
192,0,104686,1,0,0:0:0:0:
448,0,104686,1,0,0:0:0:0:
320,0,104819,1,0,0:0:0:0:
64,0,104951,1,0,0:0:0:0:
192,0,104951,1,0,0:0:0:0:
448,0,104951,1,0,0:0:0:0:
192,0,105085,1,0,0:0:0:0:
64,0,105218,1,0,0:0:0:0:
448,0,105218,1,0,0:0:0:0:
320,0,105350,1,0,0:0:0:0:
192,0,105484,1,0,0:0:0:0:
448,0,105484,1,0,0:0:0:0:
192,0,105617,1,0,0:0:0:0:
64,0,105749,1,0,0:0:0:0:
320,0,105749,1,0,0:0:0:0:
192,0,105883,1,0,0:0:0:0:
64,0,106016,1,0,0:0:0:0:
320,0,106016,1,0,0:0:0:0:
448,0,106016,1,0,0:0:0:0:
64,0,106282,1,0,0:0:0:0:
320,0,106282,1,0,0:0:0:0:
448,0,106282,1,0,0:0:0:0:
320,0,106549,1,0,0:0:0:0:
448,0,106549,1,0,0:0:0:0:
64,0,106615,1,0,0:0:0:0:
192,0,106615,1,0,0:0:0:0:
320,0,106681,1,0,0:0:0:0:
448,0,106681,1,0,0:0:0:0:
192,0,106748,1,0,0:0:0:0:
64,0,106814,1,0,0:0:0:0:
320,0,106814,1,0,0:0:0:0:
192,0,106948,1,0,0:0:0:0:
320,0,106948,1,0,0:0:0:0:
192,0,107080,1,0,0:0:0:0:
320,0,107080,1,0,0:0:0:0:
448,0,107080,1,0,0:0:0:0:
64,0,107147,1,0,0:0:0:0:
448,0,107213,1,0,0:0:0:0:
320,0,107279,1,0,0:0:0:0:
64,0,107347,1,0,0:0:0:0:
192,0,107347,1,0,0:0:0:0:
448,0,107347,1,0,0:0:0:0:
320,0,107413,1,0,0:0:0:0:
192,0,107479,1,0,0:0:0:0:
448,0,107479,1,0,0:0:0:0:
64,0,107546,1,0,0:0:0:0:
320,0,107612,1,0,0:0:0:0:
448,0,107612,1,0,0:0:0:0:
192,0,107679,1,0,0:0:0:0:
64,0,107746,1,0,0:0:0:0:
448,0,107746,1,0,0:0:0:0:
192,0,107812,1,0,0:0:0:0:
320,0,107879,1,0,0:0:0:0:
448,0,107879,1,0,0:0:0:0:
192,0,107945,1,0,0:0:0:0:
64,0,108011,1,0,0:0:0:0:
320,0,108011,1,0,0:0:0:0:
192,0,108078,1,0,0:0:0:0:
448,0,108078,1,0,0:0:0:0:
64,0,108145,1,0,0:0:0:0:
320,0,108145,1,0,0:0:0:0:
448,0,108211,1,0,0:0:0:0:
192,0,108278,1,0,0:0:0:0:
320,0,108278,1,0,0:0:0:0:
64,0,108344,1,0,0:0:0:0:
192,0,108410,1,0,0:0:0:0:
320,0,108410,1,0,0:0:0:0:
448,0,108477,1,0,0:0:0:0:
64,0,108544,1,0,0:0:0:0:
320,0,108544,1,0,0:0:0:0:
192,0,108610,1,0,0:0:0:0:
64,0,108677,1,0,0:0:0:0:
320,0,108677,1,0,0:0:0:0:
448,0,108677,1,0,0:0:0:0:
192,0,108743,1,0,0:0:0:0:
64,0,108809,1,0,0:0:0:0:
320,0,108809,1,0,0:0:0:0:
448,0,108877,1,0,0:0:0:0:
64,0,108943,1,0,0:0:0:0:
192,0,108943,1,0,0:0:0:0:
320,0,109009,1,0,0:0:0:0:
448,0,109076,1,0,0:0:0:0:
192,0,109142,1,0,0:0:0:0:
64,0,109209,1,0,0:0:0:0:
320,0,109209,1,0,0:0:0:0:
448,0,109209,1,0,0:0:0:0:
192,0,109276,1,0,0:0:0:0:
320,0,109342,1,0,0:0:0:0:
448,0,109342,1,0,0:0:0:0:
64,0,109409,1,0,0:0:0:0:
192,0,109475,1,0,0:0:0:0:
320,0,109475,1,0,0:0:0:0:
64,0,109541,1,0,0:0:0:0:
320,0,109608,1,0,0:0:0:0:
448,0,109608,1,0,0:0:0:0:
192,0,109675,1,0,0:0:0:0:
64,0,109741,1,0,0:0:0:0:
320,0,109741,1,0,0:0:0:0:
448,0,109741,1,0,0:0:0:0:
192,0,109808,1,0,0:0:0:0:
320,0,109874,1,0,0:0:0:0:
448,0,109874,1,0,0:0:0:0:
192,0,109940,1,0,0:0:0:0:
64,0,110007,1,0,0:0:0:0:
320,0,110007,1,0,0:0:0:0:
192,0,110074,1,0,0:0:0:0:
320,0,110140,1,0,0:0:0:0:
448,0,110140,1,0,0:0:0:0:
64,0,110207,1,0,0:0:0:0:
192,0,110273,1,0,0:0:0:0:
320,0,110273,1,0,0:0:0:0:
448,0,110273,1,0,0:0:0:0:
64,0,110339,1,0,0:0:0:0:
192,0,110406,1,0,0:0:0:0:
320,0,110473,1,0,0:0:0:0:
64,0,110539,1,0,0:0:0:0:
192,0,110539,1,0,0:0:0:0:
448,0,110539,1,0,0:0:0:0:
320,0,110606,1,0,0:0:0:0:
64,0,110672,1,0,0:0:0:0:
192,0,110672,1,0,0:0:0:0:
320,0,110739,1,0,0:0:0:0:
64,0,110805,1,0,0:0:0:0:
192,0,110805,1,0,0:0:0:0:
448,0,110805,1,0,0:0:0:0:
320,0,110872,1,0,0:0:0:0:
192,0,110939,1,0,0:0:0:0:
448,0,110939,1,0,0:0:0:0:
64,0,111005,1,0,0:0:0:0:
192,0,111071,1,0,0:0:0:0:
320,0,111071,1,0,0:0:0:0:
448,0,111071,1,0,0:0:0:0:
64,0,111138,1,0,0:0:0:0:
320,0,111204,1,0,0:0:0:0:
448,0,111204,1,0,0:0:0:0:
192,0,111271,1,0,0:0:0:0:
64,0,111338,1,0,0:0:0:0:
320,0,111338,1,0,0:0:0:0:
448,0,111338,1,0,0:0:0:0:
192,0,111404,1,0,0:0:0:0:
64,0,111470,1,0,0:0:0:0:
320,0,111537,1,0,0:0:0:0:
448,0,111537,1,0,0:0:0:0:
64,0,111604,1,0,0:0:0:0:
192,0,111604,1,0,0:0:0:0:
320,0,111670,1,0,0:0:0:0:
192,0,111737,1,0,0:0:0:0:
448,0,111737,1,0,0:0:0:0:
64,0,111803,1,0,0:0:0:0:
192,0,111869,1,0,0:0:0:0:
320,0,111869,1,0,0:0:0:0:
448,0,111869,1,0,0:0:0:0:
64,0,111936,1,0,0:0:0:0:
192,0,112003,1,0,0:0:0:0:
448,0,112003,1,0,0:0:0:0:
320,0,112069,1,0,0:0:0:0:
64,0,112136,1,0,0:0:0:0:
192,0,112136,1,0,0:0:0:0:
320,0,112202,1,0,0:0:0:0:
64,0,112269,1,0,0:0:0:0:
192,0,112269,1,0,0:0:0:0:
448,0,112269,1,0,0:0:0:0:
320,0,112335,1,0,0:0:0:0:
64,0,112402,1,0,0:0:0:0:
192,0,112402,1,0,0:0:0:0:
448,0,112469,1,0,0:0:0:0:
64,0,112535,1,0,0:0:0:0:
320,0,112535,1,0,0:0:0:0:
192,0,112601,1,0,0:0:0:0:
64,0,112668,1,0,0:0:0:0:
448,0,112668,1,0,0:0:0:0:
192,0,112734,1,0,0:0:0:0:
320,0,112734,1,0,0:0:0:0:
64,0,112801,1,0,0:0:0:0:
448,0,112801,1,0,0:0:0:0:
192,0,112868,1,0,0:0:0:0:
64,0,112934,1,0,0:0:0:0:
320,0,112934,1,0,0:0:0:0:
448,0,112934,1,0,0:0:0:0:
192,0,113000,1,0,0:0:0:0:
320,0,113067,1,0,0:0:0:0:
64,0,113133,1,0,0:0:0:0:
320,0,113200,1,0,0:0:0:0:
448,0,113200,1,0,0:0:0:0:
192,0,113267,1,0,0:0:0:0:
64,0,113333,1,0,0:0:0:0:
448,0,113333,1,0,0:0:0:0:
320,0,113399,1,0,0:0:0:0:
64,0,113466,1,0,0:0:0:0:
192,0,113466,1,0,0:0:0:0:
448,0,113466,1,0,0:0:0:0:
320,0,113532,1,0,0:0:0:0:
64,0,113599,1,0,0:0:0:0:
192,0,113666,1,0,0:0:0:0:
320,0,113732,1,0,0:0:0:0:
448,0,113732,1,0,0:0:0:0:
192,0,113799,1,0,0:0:0:0:
64,0,113865,1,0,0:0:0:0:
320,0,113865,1,0,0:0:0:0:
448,0,113931,1,0,0:0:0:0:
64,0,113999,1,0,0:0:0:0:
192,0,113999,1,0,0:0:0:0:
320,0,113999,1,0,0:0:0:0:
448,0,114065,1,0,0:0:0:0:
192,0,114131,1,0,0:0:0:0:
320,0,114131,1,0,0:0:0:0:
64,0,114198,1,0,0:0:0:0:
192,0,114264,1,0,0:0:0:0:
320,0,114264,1,0,0:0:0:0:
448,0,114264,1,0,0:0:0:0:
64,0,114331,1,0,0:0:0:0:
320,0,114398,1,0,0:0:0:0:
448,0,114398,1,0,0:0:0:0:
64,0,114464,1,0,0:0:0:0:
192,0,114530,1,0,0:0:0:0:
320,0,114530,1,0,0:0:0:0:
448,0,114530,1,0,0:0:0:0:
64,0,114597,1,0,0:0:0:0:
192,0,114663,1,0,0:0:0:0:
448,0,114663,1,0,0:0:0:0:
320,0,114730,1,0,0:0:0:0:
64,0,114797,1,0,0:0:0:0:
192,0,114797,1,0,0:0:0:0:
448,0,114797,1,0,0:0:0:0:
320,0,114863,1,0,0:0:0:0:
64,0,114929,1,0,0:0:0:0:
192,0,114929,1,0,0:0:0:0:
320,0,114996,1,0,0:0:0:0:
64,0,115062,1,0,0:0:0:0:
192,0,115062,1,0,0:0:0:0:
448,0,115062,1,0,0:0:0:0:
320,0,115129,1,0,0:0:0:0:
192,0,115196,1,0,0:0:0:0:
448,0,115262,1,0,0:0:0:0:
64,0,115329,1,0,0:0:0:0:
192,0,115329,1,0,0:0:0:0:
320,0,115395,1,0,0:0:0:0:
448,0,115395,1,0,0:0:0:0:
64,0,115461,1,0,0:0:0:0:
192,0,115461,1,0,0:0:0:0:
320,0,115529,1,0,0:0:0:0:
448,0,115529,1,0,0:0:0:0:
64,0,115595,1,0,0:0:0:0:
320,0,115595,1,0,0:0:0:0:
448,0,115595,1,0,0:0:0:0:
192,0,115661,1,0,0:0:0:0:
320,0,115728,1,0,0:0:0:0:
64,0,115794,1,0,0:0:0:0:
192,0,115860,1,0,0:0:0:0:
320,0,115860,1,0,0:0:0:0:
448,0,115860,1,0,0:0:0:0:
64,0,115928,1,0,0:0:0:0:
192,0,115994,1,0,0:0:0:0:
448,0,116060,1,0,0:0:0:0:
64,0,116127,1,0,0:0:0:0:
192,0,116127,1,0,0:0:0:0:
320,0,116127,1,0,0:0:0:0:
448,0,116193,1,0,0:0:0:0:
192,0,116259,1,0,0:0:0:0:
320,0,116327,1,0,0:0:0:0:
64,0,116393,1,0,0:0:0:0:
192,0,116393,1,0,0:0:0:0:
448,0,116393,1,0,0:0:0:0:
320,0,116459,1,0,0:0:0:0:
64,0,116526,1,0,0:0:0:0:
192,0,116526,1,0,0:0:0:0:
320,0,116592,1,0,0:0:0:0:
64,0,116659,1,0,0:0:0:0:
192,0,116659,1,0,0:0:0:0:
448,0,116659,1,0,0:0:0:0:
320,0,116726,1,0,0:0:0:0:
192,0,116792,1,0,0:0:0:0:
448,0,116792,1,0,0:0:0:0:
64,0,116859,1,0,0:0:0:0:
192,0,116925,1,0,0:0:0:0:
320,0,116925,1,0,0:0:0:0:
448,0,116925,1,0,0:0:0:0:
64,0,116991,1,0,0:0:0:0:
192,0,117059,1,0,0:0:0:0:
320,0,117059,1,0,0:0:0:0:
448,0,117125,1,0,0:0:0:0:
64,0,117191,1,0,0:0:0:0:
192,0,117191,1,0,0:0:0:0:
320,0,117191,1,0,0:0:0:0:
448,0,117258,1,0,0:0:0:0:
64,0,117324,1,0,0:0:0:0:
192,0,117390,1,0,0:0:0:0:
320,0,117458,1,0,0:0:0:0:
448,0,117458,1,0,0:0:0:0:
192,0,117524,1,0,0:0:0:0:
64,0,117590,1,0,0:0:0:0:
448,0,117590,1,0,0:0:0:0:
320,0,117657,1,0,0:0:0:0:
64,0,117723,1,0,0:0:0:0:
192,0,117723,1,0,0:0:0:0:
448,0,117723,1,0,0:0:0:0:
320,0,117789,1,0,0:0:0:0:
192,0,117857,1,0,0:0:0:0:
448,0,117857,1,0,0:0:0:0:
64,0,117923,1,0,0:0:0:0:
192,0,117989,1,0,0:0:0:0:
320,0,117989,1,0,0:0:0:0:
448,0,117989,1,0,0:0:0:0:
64,0,118056,1,0,0:0:0:0:
192,0,118122,1,0,0:0:0:0:
320,0,118122,1,0,0:0:0:0:
448,0,118189,1,0,0:0:0:0:
64,0,118256,1,0,0:0:0:0:
192,0,118256,1,0,0:0:0:0:
320,0,118256,1,0,0:0:0:0:
448,0,118322,1,0,0:0:0:0:
64,0,118389,1,0,0:0:0:0:
320,0,118389,1,0,0:0:0:0:
192,0,118455,1,0,0:0:0:0:
64,0,118521,1,0,0:0:0:0:
320,0,118521,1,0,0:0:0:0:
448,0,118521,1,0,0:0:0:0:
192,0,118588,1,0,0:0:0:0:
64,0,118655,1,0,0:0:0:0:
320,0,118655,1,0,0:0:0:0:
448,0,118721,1,0,0:0:0:0:
64,0,118788,1,0,0:0:0:0:
192,0,118788,1,0,0:0:0:0:
320,0,118788,1,0,0:0:0:0:
448,0,118854,1,0,0:0:0:0:
192,0,118920,1,0,0:0:0:0:
64,0,118987,1,0,0:0:0:0:
192,0,119054,1,0,0:0:0:0:
320,0,119054,1,0,0:0:0:0:
448,0,119054,1,0,0:0:0:0:
64,0,119120,1,0,0:0:0:0:
192,0,119187,1,0,0:0:0:0:
320,0,119187,1,0,0:0:0:0:
448,0,119253,1,0,0:0:0:0:
64,0,119319,1,0,0:0:0:0:
192,0,119319,1,0,0:0:0:0:
320,0,119319,1,0,0:0:0:0:
448,0,119386,1,0,0:0:0:0:
192,0,119453,1,0,0:0:0:0:
320,0,119519,1,0,0:0:0:0:
64,0,119586,1,0,0:0:0:0:
192,0,119586,1,0,0:0:0:0:
448,0,119586,1,0,0:0:0:0:
320,0,119652,1,0,0:0:0:0:
192,0,119719,1,0,0:0:0:0:
448,0,119719,1,0,0:0:0:0:
64,0,119786,1,0,0:0:0:0:
192,0,119852,1,0,0:0:0:0:
320,0,119852,1,0,0:0:0:0:
448,0,119852,1,0,0:0:0:0:
64,0,119919,1,0,0:0:0:0:
320,0,119985,1,0,0:0:0:0:
448,0,119985,1,0,0:0:0:0:
64,0,120051,1,0,0:0:0:0:
192,0,120051,1,0,0:0:0:0:
320,0,120118,1,0,0:0:0:0:
448,0,120118,1,0,0:0:0:0:
192,0,120185,1,0,0:0:0:0:
64,0,120251,1,0,0:0:0:0:
448,0,120251,1,0,0:0:0:0:
320,0,120318,1,0,0:0:0:0:
64,0,120384,1,0,0:0:0:0:
192,0,120384,1,0,0:0:0:0:
448,0,120384,1,0,0:0:0:0:
320,0,120450,1,0,0:0:0:0:
64,0,120517,1,0,0:0:0:0:
192,0,120584,1,0,0:0:0:0:
64,0,120650,1,0,0:0:0:0:
320,0,120650,1,0,0:0:0:0:
448,0,120650,1,0,0:0:0:0:
192,0,120717,1,0,0:0:0:0:
64,0,120783,1,0,0:0:0:0:
320,0,120783,1,0,0:0:0:0:
448,0,120783,1,0,0:0:0:0:
192,0,120849,1,0,0:0:0:0:
320,0,120916,1,0,0:0:0:0:
448,0,120916,1,0,0:0:0:0:
64,0,120983,1,0,0:0:0:0:
320,0,121049,1,0,0:0:0:0:
448,0,121049,1,0,0:0:0:0:
64,0,121116,1,0,0:0:0:0:
192,0,121116,1,0,0:0:0:0:
320,0,121182,1,0,0:0:0:0:
448,0,121182,1,0,0:0:0:0:
192,0,121249,1,0,0:0:0:0:
64,0,121315,1,0,0:0:0:0:
320,0,121382,1,0,0:0:0:0:
64,0,121449,1,0,0:0:0:0:
192,0,121449,1,0,0:0:0:0:
448,0,121449,1,0,0:0:0:0:
320,0,121515,1,0,0:0:0:0:
64,0,121581,1,0,0:0:0:0:
192,0,121648,1,0,0:0:0:0:
320,0,121714,1,0,0:0:0:0:
448,0,121714,1,0,0:0:0:0:
192,0,121781,1,0,0:0:0:0:
64,0,121848,1,0,0:0:0:0:
320,0,121848,1,0,0:0:0:0:
448,0,121914,1,0,0:0:0:0:
64,0,121980,1,0,0:0:0:0:
192,0,121980,1,0,0:0:0:0:
320,0,121980,1,0,0:0:0:0:
448,0,122047,1,0,0:0:0:0:
192,0,122113,1,0,0:0:0:0:
64,0,122180,1,0,0:0:0:0:
320,0,122247,1,0,0:0:0:0:
448,0,122247,1,0,0:0:0:0:
192,0,122313,1,0,0:0:0:0:
64,0,122379,1,0,0:0:0:0:
320,0,122379,1,0,0:0:0:0:
192,0,122446,1,0,0:0:0:0:
64,0,122513,1,0,0:0:0:0:
320,0,122513,1,0,0:0:0:0:
448,0,122513,1,0,0:0:0:0:
192,0,122579,1,0,0:0:0:0:
64,0,122646,1,0,0:0:0:0:
320,0,122646,1,0,0:0:0:0:
448,0,122712,1,0,0:0:0:0:
64,0,122779,1,0,0:0:0:0:
192,0,122779,1,0,0:0:0:0:
320,0,122779,1,0,0:0:0:0:
448,0,122845,1,0,0:0:0:0:
64,0,122912,1,0,0:0:0:0:
320,0,122912,1,0,0:0:0:0:
192,0,122979,1,0,0:0:0:0:
64,0,123045,1,0,0:0:0:0:
320,0,123045,1,0,0:0:0:0:
448,0,123045,1,0,0:0:0:0:
192,0,123111,1,0,0:0:0:0:
320,0,123178,1,0,0:0:0:0:
448,0,123178,1,0,0:0:0:0:
64,0,123244,1,0,0:0:0:0:
192,0,123311,1,0,0:0:0:0:
320,0,123311,1,0,0:0:0:0:
448,0,123311,1,0,0:0:0:0:
64,0,123378,1,0,0:0:0:0:
192,0,123444,1,0,0:0:0:0:
448,0,123444,1,0,0:0:0:0:
320,0,123510,1,0,0:0:0:0:
64,0,123577,1,0,0:0:0:0:
192,0,123577,1,0,0:0:0:0:
320,0,123643,1,0,0:0:0:0:
448,0,123643,1,0,0:0:0:0:
64,0,123710,1,0,0:0:0:0:
192,0,123710,1,0,0:0:0:0:
320,0,123777,1,0,0:0:0:0:
448,0,123777,1,0,0:0:0:0:
64,0,123843,128,0,123909:0:0:0:0:
192,0,123843,128,0,123909:0:0:0:0:
320,0,124109,1,0,0:0:0:0:
448,0,124109,128,0,125040:0:0:0:0:
64,0,124242,1,0,0:0:0:0:
320,0,124375,1,0,0:0:0:0:
192,0,124509,1,0,0:0:0:0:
64,0,124575,1,0,0:0:0:0:
320,0,124641,1,0,0:0:0:0:
64,0,124774,1,0,0:0:0:0:
320,0,124908,1,0,0:0:0:0:
192,0,125040,1,0,0:0:0:0:
64,0,125173,1,0,0:0:0:0:
192,0,125307,1,0,0:0:0:0:
320,0,125439,1,0,0:0:0:0:
448,0,125439,1,0,0:0:0:0:
192,0,125572,1,0,0:0:0:0:
320,0,125572,1,0,0:0:0:0:
448,0,125639,1,0,0:0:0:0:
64,0,125706,1,0,0:0:0:0:
192,0,125706,1,0,0:0:0:0:
64,0,125839,1,0,0:0:0:0:
320,0,125839,1,0,0:0:0:0:
192,0,125971,1,0,0:0:0:0:
448,0,125971,1,0,0:0:0:0:
320,0,126105,1,0,0:0:0:0:
448,0,126105,1,0,0:0:0:0:
64,0,126238,1,0,0:0:0:0:
192,0,126238,1,0,0:0:0:0:
320,0,126238,1,0,0:0:0:0:
192,0,126370,1,0,0:0:0:0:
320,0,126370,1,0,0:0:0:0:
320,0,126504,1,0,0:0:0:0:
448,0,126504,1,0,0:0:0:0:
192,0,126637,1,0,0:0:0:0:
448,0,126637,1,0,0:0:0:0:
320,0,126703,1,0,0:0:0:0:
64,0,126769,1,0,0:0:0:0:
192,0,126769,1,0,0:0:0:0:
192,0,126903,1,0,0:0:0:0:
320,0,126903,1,0,0:0:0:0:
64,0,127036,1,0,0:0:0:0:
192,0,127036,1,0,0:0:0:0:
192,0,127169,1,0,0:0:0:0:
448,0,127169,1,0,0:0:0:0:
320,0,127302,1,0,0:0:0:0:
448,0,127302,1,0,0:0:0:0:
192,0,127435,1,0,0:0:0:0:
448,0,127435,1,0,0:0:0:0:
64,0,127501,1,0,0:0:0:0:
192,0,127568,1,0,0:0:0:0:
320,0,127568,1,0,0:0:0:0:
320,0,127701,1,0,0:0:0:0:
448,0,127701,1,0,0:0:0:0:
192,0,127768,1,0,0:0:0:0:
64,0,127834,1,0,0:0:0:0:
448,0,127834,1,0,0:0:0:0:
320,0,127968,1,0,0:0:0:0:
448,0,127968,1,0,0:0:0:0:
192,0,128034,1,0,0:0:0:0:
64,0,128100,1,0,0:0:0:0:
320,0,128167,1,0,0:0:0:0:
192,0,128233,1,0,0:0:0:0:
64,0,128299,1,0,0:0:0:0:
192,0,128367,1,0,0:0:0:0:
320,0,128367,1,0,0:0:0:0:
448,0,128367,1,0,0:0:0:0:
64,0,128433,1,0,0:0:0:0:
320,0,128499,1,0,0:0:0:0:
192,0,128566,1,0,0:0:0:0:
64,0,128632,1,0,0:0:0:0:
320,0,128632,1,0,0:0:0:0:
192,0,128699,1,0,0:0:0:0:
320,0,128766,1,0,0:0:0:0:
448,0,128766,1,0,0:0:0:0:
64,0,128832,1,0,0:0:0:0:
192,0,128832,1,0,0:0:0:0:
320,0,128899,1,0,0:0:0:0:
448,0,128899,1,0,0:0:0:0:
64,0,128965,1,0,0:0:0:0:
320,0,129031,1,0,0:0:0:0:
192,0,129098,1,0,0:0:0:0:
320,0,129165,1,0,0:0:0:0:
448,0,129165,1,0,0:0:0:0:
64,0,129231,1,0,0:0:0:0:
192,0,129298,1,0,0:0:0:0:
448,0,129298,1,0,0:0:0:0:
320,0,129364,1,0,0:0:0:0:
64,0,129430,1,0,0:0:0:0:
448,0,129430,1,0,0:0:0:0:
192,0,129497,1,0,0:0:0:0:
320,0,129564,1,0,0:0:0:0:
64,0,129630,1,0,0:0:0:0:
192,0,129697,1,0,0:0:0:0:
448,0,129697,1,0,0:0:0:0:
320,0,129763,1,0,0:0:0:0:
192,0,129829,1,0,0:0:0:0:
448,0,129829,1,0,0:0:0:0:
64,0,129896,1,0,0:0:0:0:
320,0,129896,1,0,0:0:0:0:
192,0,129963,1,0,0:0:0:0:
448,0,129963,1,0,0:0:0:0:
320,0,130029,1,0,0:0:0:0:
192,0,130096,1,0,0:0:0:0:
64,0,130162,1,0,0:0:0:0:
320,0,130229,1,0,0:0:0:0:
448,0,130229,1,0,0:0:0:0:
64,0,130362,1,0,0:0:0:0:
192,0,130362,1,0,0:0:0:0:
192,0,130495,1,0,0:0:0:0:
320,0,130495,1,0,0:0:0:0:
448,0,130495,1,0,0:0:0:0:
64,0,130628,1,0,0:0:0:0:
192,0,130628,1,0,0:0:0:0:
192,0,130761,1,0,0:0:0:0:
448,0,130761,1,0,0:0:0:0:
64,0,130894,1,0,0:0:0:0:
320,0,130894,1,0,0:0:0:0:
448,0,130960,1,0,0:0:0:0:
192,0,131027,1,0,0:0:0:0:
320,0,131027,1,0,0:0:0:0:
64,0,131160,1,0,0:0:0:0:
192,0,131160,1,0,0:0:0:0:
64,0,131293,1,0,0:0:0:0:
320,0,131293,1,0,0:0:0:0:
192,0,131426,1,0,0:0:0:0:
448,0,131426,1,0,0:0:0:0:
320,0,131560,1,0,0:0:0:0:
448,0,131560,1,0,0:0:0:0:
64,0,131692,1,0,0:0:0:0:
192,0,131692,1,0,0:0:0:0:
64,0,131825,1,0,0:0:0:0:
320,0,131825,1,0,0:0:0:0:
192,0,131959,1,0,0:0:0:0:
448,0,131959,1,0,0:0:0:0:
64,0,132091,1,0,0:0:0:0:
320,0,132091,1,0,0:0:0:0:
448,0,132158,1,0,0:0:0:0:
64,0,132224,1,0,0:0:0:0:
192,0,132224,1,0,0:0:0:0:
448,0,132291,1,0,0:0:0:0:
64,0,132358,1,0,0:0:0:0:
320,0,132358,1,0,0:0:0:0:
448,0,132424,1,0,0:0:0:0:
192,0,132490,1,0,0:0:0:0:
448,0,132557,1,0,0:0:0:0:
64,0,132623,1,0,0:0:0:0:
192,0,132623,1,0,0:0:0:0:
320,0,132623,1,0,0:0:0:0:
320,0,132757,1,0,0:0:0:0:
448,0,132757,1,0,0:0:0:0:
64,0,132890,1,0,0:0:0:0:
320,0,132890,1,0,0:0:0:0:
448,0,132890,1,0,0:0:0:0:
192,0,133022,1,0,0:0:0:0:
320,0,133022,1,0,0:0:0:0:
64,0,133156,1,0,0:0:0:0:
320,0,133156,1,0,0:0:0:0:
448,0,133156,1,0,0:0:0:0:
64,0,133289,1,0,0:0:0:0:
192,0,133289,1,0,0:0:0:0:
64,0,133422,1,0,0:0:0:0:
192,0,133422,1,0,0:0:0:0:
448,0,133422,1,0,0:0:0:0:
192,0,133555,1,0,0:0:0:0:
320,0,133555,1,0,0:0:0:0:
64,0,133688,1,0,0:0:0:0:
320,0,133688,1,0,0:0:0:0:
448,0,133688,1,0,0:0:0:0:
192,0,133954,1,0,0:0:0:0:
320,0,133954,1,0,0:0:0:0:
448,0,133954,1,0,0:0:0:0:
64,0,134087,1,0,0:0:0:0:
192,0,134087,1,0,0:0:0:0:
320,0,134220,1,0,0:0:0:0:
448,0,134220,1,0,0:0:0:0:
320,0,134486,1,0,0:0:0:0:
448,0,134486,1,0,0:0:0:0:
64,0,134752,1,0,0:0:0:0:
320,0,134752,1,0,0:0:0:0:
448,0,134752,1,0,0:0:0:0:
64,0,135019,1,0,0:0:0:0:
320,0,135019,1,0,0:0:0:0:
448,0,135019,1,0,0:0:0:0:
192,0,135151,1,0,0:0:0:0:
320,0,135151,1,0,0:0:0:0:
64,0,135284,1,0,0:0:0:0:
192,0,135284,1,0,0:0:0:0:
64,0,135550,1,0,0:0:0:0:
192,0,135550,1,0,0:0:0:0:
448,0,135550,1,0,0:0:0:0:
192,0,135683,1,0,0:0:0:0:
320,0,135683,1,0,0:0:0:0:
64,0,135817,1,0,0:0:0:0:
320,0,135817,1,0,0:0:0:0:
448,0,135817,1,0,0:0:0:0:
64,0,136082,1,0,0:0:0:0:
320,0,136082,1,0,0:0:0:0:
448,0,136082,1,0,0:0:0:0:
192,0,136216,1,0,0:0:0:0:
320,0,136216,1,0,0:0:0:0:
64,0,136349,1,0,0:0:0:0:
192,0,136349,1,0,0:0:0:0:
64,0,136615,1,0,0:0:0:0:
192,0,136615,1,0,0:0:0:0:
320,0,136681,1,0,0:0:0:0:
192,0,136748,1,0,0:0:0:0:
64,0,136814,1,0,0:0:0:0:
192,0,136880,1,0,0:0:0:0:
320,0,136880,1,0,0:0:0:0:
448,0,136880,1,0,0:0:0:0:
64,0,137014,1,0,0:0:0:0:
192,0,137014,1,0,0:0:0:0:
64,0,137147,1,0,0:0:0:0:
320,0,137147,1,0,0:0:0:0:
448,0,137147,1,0,0:0:0:0:
192,0,137280,1,0,0:0:0:0:
320,0,137280,1,0,0:0:0:0:
64,0,137413,1,0,0:0:0:0:
192,0,137413,1,0,0:0:0:0:
448,0,137413,1,0,0:0:0:0:
320,0,137546,1,0,0:0:0:0:
448,0,137546,1,0,0:0:0:0:
64,0,137679,1,0,0:0:0:0:
192,0,137679,1,0,0:0:0:0:
448,0,137679,1,0,0:0:0:0:
192,0,137812,1,0,0:0:0:0:
320,0,137812,1,0,0:0:0:0:
64,0,137945,1,0,0:0:0:0:
320,0,137945,1,0,0:0:0:0:
448,0,137945,1,0,0:0:0:0:
64,0,138211,1,0,0:0:0:0:
192,0,138211,1,0,0:0:0:0:
320,0,138211,1,0,0:0:0:0:
320,0,138477,1,0,0:0:0:0:
448,0,138477,1,0,0:0:0:0:
320,0,138743,1,0,0:0:0:0:
448,0,138743,1,0,0:0:0:0:
64,0,139010,1,0,0:0:0:0:
192,0,139010,1,0,0:0:0:0:
448,0,139010,1,0,0:0:0:0:
192,0,139142,1,0,0:0:0:0:
448,0,139142,1,0,0:0:0:0:
64,0,139276,1,0,0:0:0:0:
192,0,139276,1,0,0:0:0:0:
320,0,139276,1,0,0:0:0:0:
64,0,139409,1,0,0:0:0:0:
192,0,139409,1,0,0:0:0:0:
64,0,139541,1,0,0:0:0:0:
320,0,139541,1,0,0:0:0:0:
448,0,139541,1,0,0:0:0:0:
192,0,139675,1,0,0:0:0:0:
448,0,139675,1,0,0:0:0:0:
64,0,139808,1,0,0:0:0:0:
192,0,139808,1,0,0:0:0:0:
320,0,139808,1,0,0:0:0:0:
64,0,139940,1,0,0:0:0:0:
192,0,139940,1,0,0:0:0:0:
64,0,140074,1,0,0:0:0:0:
320,0,140074,1,0,0:0:0:0:
448,0,140074,1,0,0:0:0:0:
64,0,140340,1,0,0:0:0:0:
192,0,140340,1,0,0:0:0:0:
320,0,140340,1,0,0:0:0:0:
64,0,140606,1,0,0:0:0:0:
320,0,140606,1,0,0:0:0:0:
448,0,140606,1,0,0:0:0:0:
192,0,140739,1,0,0:0:0:0:
448,0,140805,1,0,0:0:0:0:
64,0,140872,1,0,0:0:0:0:
192,0,140872,1,0,0:0:0:0:
320,0,140872,1,0,0:0:0:0:
448,0,140939,1,0,0:0:0:0:
192,0,141005,1,0,0:0:0:0:
320,0,141071,1,0,0:0:0:0:
64,0,141138,128,0,141338:0:0:0:0:
192,0,141404,1,0,0:0:0:0:
448,0,141404,1,0,0:0:0:0:
192,0,141537,1,0,0:0:0:0:
448,0,141537,1,0,0:0:0:0:
64,0,141670,128,0,141870:0:0:0:0:
192,0,141936,1,0,0:0:0:0:
448,0,141936,1,0,0:0:0:0:
192,0,142070,1,0,0:0:0:0:
448,0,142070,1,0,0:0:0:0:
64,0,142202,128,0,142402:0:0:0:0:
192,0,142469,1,0,0:0:0:0:
448,0,142469,1,0,0:0:0:0:
320,0,142601,1,0,0:0:0:0:
64,0,142734,128,0,142934:0:0:0:0:
192,0,142734,1,0,0:0:0:0:
320,0,142734,1,0,0:0:0:0:
448,0,142868,1,0,0:0:0:0:
64,0,143000,1,0,0:0:0:0:
320,0,143000,1,0,0:0:0:0:
64,0,143133,1,0,0:0:0:0:
320,0,143133,1,0,0:0:0:0:
64,0,143267,128,0,143466:0:0:0:0:
192,0,143532,1,0,0:0:0:0:
448,0,143532,1,0,0:0:0:0:
192,0,143666,1,0,0:0:0:0:
448,0,143666,1,0,0:0:0:0:
64,0,143799,128,0,143999:0:0:0:0:
192,0,144065,1,0,0:0:0:0:
448,0,144065,1,0,0:0:0:0:
192,0,144198,1,0,0:0:0:0:
448,0,144198,1,0,0:0:0:0:
64,0,144331,1,0,0:0:0:0:
192,0,144331,1,0,0:0:0:0:
192,0,144597,1,0,0:0:0:0:
448,0,144597,1,0,0:0:0:0:
448,0,144730,1,0,0:0:0:0:
64,0,144863,128,0,145062:0:0:0:0:
192,0,144863,1,0,0:0:0:0:
320,0,144863,1,0,0:0:0:0:
448,0,144996,1,0,0:0:0:0:
64,0,145130,1,0,0:0:0:0:
320,0,145130,1,0,0:0:0:0:
64,0,145262,1,0,0:0:0:0:
320,0,145262,1,0,0:0:0:0:
64,0,145395,128,0,145595:0:0:0:0:
192,0,145661,1,0,0:0:0:0:
448,0,145661,1,0,0:0:0:0:
192,0,145794,1,0,0:0:0:0:
448,0,145794,1,0,0:0:0:0:
64,0,145928,128,0,146127:0:0:0:0:
192,0,146193,1,0,0:0:0:0:
448,0,146193,1,0,0:0:0:0:
192,0,146327,1,0,0:0:0:0:
448,0,146327,1,0,0:0:0:0:
64,0,146460,1,0,0:0:0:0:
192,0,146460,1,0,0:0:0:0:
64,0,146726,1,0,0:0:0:0:
320,0,146726,1,0,0:0:0:0:
320,0,146859,1,0,0:0:0:0:
64,0,146991,128,0,147191:0:0:0:0:
192,0,146991,1,0,0:0:0:0:
448,0,146991,1,0,0:0:0:0:
320,0,147125,1,0,0:0:0:0:
192,0,147258,1,0,0:0:0:0:
448,0,147258,1,0,0:0:0:0:
192,0,147390,1,0,0:0:0:0:
448,0,147390,1,0,0:0:0:0:
64,0,147524,128,0,147723:0:0:0:0:
320,0,147524,1,0,0:0:0:0:
320,0,147657,1,0,0:0:0:0:
192,0,147790,1,0,0:0:0:0:
448,0,147790,1,0,0:0:0:0:
192,0,147923,1,0,0:0:0:0:
448,0,147923,1,0,0:0:0:0:
64,0,148056,128,0,148256:0:0:0:0:
192,0,148056,1,0,0:0:0:0:
320,0,148189,1,0,0:0:0:0:
192,0,148322,1,0,0:0:0:0:
448,0,148322,1,0,0:0:0:0:
192,0,148455,1,0,0:0:0:0:
448,0,148455,1,0,0:0:0:0:
64,0,148588,1,0,0:0:0:0:
192,0,148588,1,0,0:0:0:0:
320,0,148588,1,0,0:0:0:0:
192,0,148721,1,0,0:0:0:0:
448,0,148721,1,0,0:0:0:0:
64,0,148854,1,0,0:0:0:0:
320,0,148854,1,0,0:0:0:0:
448,0,148854,1,0,0:0:0:0:
192,0,148987,1,0,0:0:0:0:
320,0,148987,1,0,0:0:0:0:
64,0,149120,1,0,0:0:0:0:
320,0,149120,1,0,0:0:0:0:
448,0,149120,1,0,0:0:0:0:
192,0,149187,1,0,0:0:0:0:
320,0,149253,1,0,0:0:0:0:
192,0,149320,1,0,0:0:0:0:
320,0,149386,1,0,0:0:0:0:
192,0,150983,1,0,0:0:0:0:
64,0,151116,1,0,0:0:0:0:
320,0,151249,1,0,0:0:0:0:
64,0,151382,1,0,0:0:0:0:
448,0,151515,1,0,0:0:0:0:
64,0,151648,1,0,0:0:0:0:
320,0,151781,1,0,0:0:0:0:
448,0,151781,1,0,0:0:0:0:
64,0,151914,1,0,0:0:0:0:
192,0,152047,1,0,0:0:0:0:
448,0,152047,1,0,0:0:0:0:
192,0,152180,1,0,0:0:0:0:
320,0,152180,1,0,0:0:0:0:
448,0,152313,1,0,0:0:0:0:
64,0,152446,1,0,0:0:0:0:
192,0,152446,1,0,0:0:0:0:
192,0,152580,1,0,0:0:0:0:
448,0,152580,1,0,0:0:0:0:
192,0,152712,1,0,0:0:0:0:
448,0,152712,1,0,0:0:0:0:
64,0,152845,1,0,0:0:0:0:
320,0,152845,1,0,0:0:0:0:
64,0,152979,1,0,0:0:0:0:
192,0,152979,1,0,0:0:0:0:
64,0,153111,1,0,0:0:0:0:
320,0,153111,1,0,0:0:0:0:
64,0,153244,1,0,0:0:0:0:
320,0,153244,1,0,0:0:0:0:
192,0,153378,1,0,0:0:0:0:
448,0,153378,1,0,0:0:0:0:
64,0,153510,1,0,0:0:0:0:
320,0,153643,1,0,0:0:0:0:
448,0,153643,1,0,0:0:0:0:
192,0,153777,1,0,0:0:0:0:
64,0,153910,1,0,0:0:0:0:
320,0,153910,1,0,0:0:0:0:
320,0,154042,1,0,0:0:0:0:
448,0,154042,1,0,0:0:0:0:
64,0,154176,1,0,0:0:0:0:
192,0,154176,1,0,0:0:0:0:
320,0,154309,1,0,0:0:0:0:
448,0,154309,1,0,0:0:0:0:
64,0,154441,1,0,0:0:0:0:
320,0,154441,1,0,0:0:0:0:
320,0,154575,1,0,0:0:0:0:
448,0,154575,1,0,0:0:0:0:
64,0,154708,1,0,0:0:0:0:
320,0,154708,1,0,0:0:0:0:
192,0,154840,1,0,0:0:0:0:
448,0,154840,1,0,0:0:0:0:
192,0,154974,1,0,0:0:0:0:
448,0,154974,1,0,0:0:0:0:
64,0,155107,1,0,0:0:0:0:
320,0,155240,1,0,0:0:0:0:
448,0,155240,1,0,0:0:0:0:
64,0,155373,1,0,0:0:0:0:
320,0,155373,1,0,0:0:0:0:
64,0,155506,1,0,0:0:0:0:
192,0,155506,1,0,0:0:0:0:
320,0,155640,1,0,0:0:0:0:
64,0,155772,1,0,0:0:0:0:
448,0,155772,1,0,0:0:0:0:
192,0,155905,1,0,0:0:0:0:
64,0,156039,1,0,0:0:0:0:
320,0,156039,1,0,0:0:0:0:
448,0,156039,1,0,0:0:0:0:
320,0,156171,1,0,0:0:0:0:
192,0,156304,1,0,0:0:0:0:
448,0,156304,1,0,0:0:0:0:
192,0,156438,1,0,0:0:0:0:
448,0,156438,1,0,0:0:0:0:
64,0,156570,1,0,0:0:0:0:
320,0,156703,1,0,0:0:0:0:
448,0,156703,1,0,0:0:0:0:
64,0,156837,1,0,0:0:0:0:
192,0,156837,1,0,0:0:0:0:
320,0,156970,1,0,0:0:0:0:
448,0,156970,1,0,0:0:0:0:
64,0,157102,1,0,0:0:0:0:
320,0,157102,1,0,0:0:0:0:
64,0,157236,1,0,0:0:0:0:
192,0,157236,1,0,0:0:0:0:
320,0,157369,1,0,0:0:0:0:
448,0,157369,1,0,0:0:0:0:
64,0,157501,1,0,0:0:0:0:
320,0,157501,1,0,0:0:0:0:
192,0,157635,1,0,0:0:0:0:
448,0,157635,1,0,0:0:0:0:
64,0,157768,1,0,0:0:0:0:
320,0,157900,1,0,0:0:0:0:
448,0,157900,1,0,0:0:0:0:
192,0,158034,1,0,0:0:0:0:
64,0,158167,1,0,0:0:0:0:
448,0,158167,1,0,0:0:0:0:
64,0,158300,1,0,0:0:0:0:
192,0,158433,1,0,0:0:0:0:
448,0,158433,1,0,0:0:0:0:
192,0,158566,1,0,0:0:0:0:
320,0,158566,1,0,0:0:0:0:
64,0,158699,1,0,0:0:0:0:
320,0,158699,1,0,0:0:0:0:
320,0,158832,1,0,0:0:0:0:
448,0,158832,1,0,0:0:0:0:
64,0,158965,1,0,0:0:0:0:
192,0,158965,1,0,0:0:0:0:
320,0,159098,1,0,0:0:0:0:
448,0,159098,1,0,0:0:0:0:
192,0,159231,1,0,0:0:0:0:
448,0,159231,1,0,0:0:0:0:
64,0,159364,1,0,0:0:0:0:
320,0,159364,1,0,0:0:0:0:
320,0,159497,1,0,0:0:0:0:
448,0,159497,1,0,0:0:0:0:
64,0,159630,1,0,0:0:0:0:
192,0,159630,1,0,0:0:0:0:
192,0,159763,1,0,0:0:0:0:
448,0,159763,1,0,0:0:0:0:
64,0,159830,1,0,0:0:0:0:
320,0,159830,1,0,0:0:0:0:
192,0,159896,1,0,0:0:0:0:
448,0,159896,1,0,0:0:0:0:
64,0,159963,1,0,0:0:0:0:
320,0,159963,1,0,0:0:0:0:
192,0,160030,1,0,0:0:0:0:
448,0,160030,1,0,0:0:0:0:
192,0,160295,1,0,0:0:0:0:
320,0,160295,1,0,0:0:0:0:
448,0,160295,1,0,0:0:0:0:
64,0,160362,1,0,0:0:0:0:
448,0,160429,1,0,0:0:0:0:
320,0,160495,1,0,0:0:0:0:
64,0,160561,1,0,0:0:0:0:
192,0,160561,1,0,0:0:0:0:
448,0,160561,1,0,0:0:0:0:
320,0,160628,1,0,0:0:0:0:
192,0,160695,1,0,0:0:0:0:
448,0,160695,1,0,0:0:0:0:
64,0,160761,1,0,0:0:0:0:
320,0,160828,1,0,0:0:0:0:
448,0,160828,1,0,0:0:0:0:
192,0,160894,1,0,0:0:0:0:
320,0,160960,1,0,0:0:0:0:
448,0,160960,1,0,0:0:0:0:
64,0,161027,1,0,0:0:0:0:
192,0,161027,1,0,0:0:0:0:
320,0,161094,1,0,0:0:0:0:
448,0,161094,1,0,0:0:0:0:
192,0,161160,1,0,0:0:0:0:
64,0,161227,1,0,0:0:0:0:
320,0,161227,1,0,0:0:0:0:
448,0,161227,1,0,0:0:0:0:
192,0,161293,1,0,0:0:0:0:
64,0,161360,1,0,0:0:0:0:
320,0,161360,1,0,0:0:0:0:
448,0,161426,1,0,0:0:0:0:
192,0,161493,1,0,0:0:0:0:
320,0,161493,1,0,0:0:0:0:
64,0,161560,1,0,0:0:0:0:
192,0,161626,1,0,0:0:0:0:
320,0,161626,1,0,0:0:0:0:
448,0,161626,1,0,0:0:0:0:
64,0,161692,1,0,0:0:0:0:
448,0,161759,1,0,0:0:0:0:
192,0,161825,1,0,0:0:0:0:
64,0,161892,1,0,0:0:0:0:
320,0,161892,1,0,0:0:0:0:
448,0,161892,1,0,0:0:0:0:
192,0,161959,1,0,0:0:0:0:
448,0,162025,1,0,0:0:0:0:
320,0,162091,1,0,0:0:0:0:
64,0,162158,1,0,0:0:0:0:
192,0,162158,1,0,0:0:0:0:
320,0,162224,1,0,0:0:0:0:
64,0,162291,1,0,0:0:0:0:
448,0,162291,1,0,0:0:0:0:
192,0,162358,1,0,0:0:0:0:
64,0,162424,1,0,0:0:0:0:
320,0,162424,1,0,0:0:0:0:
448,0,162424,1,0,0:0:0:0:
192,0,162490,1,0,0:0:0:0:
320,0,162557,1,0,0:0:0:0:
448,0,162557,1,0,0:0:0:0:
192,0,162623,1,0,0:0:0:0:
64,0,162690,1,0,0:0:0:0:
320,0,162690,1,0,0:0:0:0:
448,0,162690,1,0,0:0:0:0:
192,0,162757,1,0,0:0:0:0:
64,0,162823,1,0,0:0:0:0:
320,0,162823,1,0,0:0:0:0:
448,0,162890,1,0,0:0:0:0:
64,0,162956,1,0,0:0:0:0:
192,0,162956,1,0,0:0:0:0:
320,0,162956,1,0,0:0:0:0:
448,0,163022,1,0,0:0:0:0:
64,0,163090,1,0,0:0:0:0:
320,0,163090,1,0,0:0:0:0:
192,0,163156,1,0,0:0:0:0:
64,0,163222,1,0,0:0:0:0:
320,0,163222,1,0,0:0:0:0:
448,0,163222,1,0,0:0:0:0:
192,0,163289,1,0,0:0:0:0:
320,0,163355,1,0,0:0:0:0:
448,0,163355,1,0,0:0:0:0:
64,0,163422,1,0,0:0:0:0:
192,0,163489,1,0,0:0:0:0:
320,0,163489,1,0,0:0:0:0:
448,0,163489,1,0,0:0:0:0:
64,0,163555,1,0,0:0:0:0:
192,0,163621,1,0,0:0:0:0:
320,0,163688,1,0,0:0:0:0:
64,0,163754,1,0,0:0:0:0:
192,0,163754,1,0,0:0:0:0:
448,0,163754,1,0,0:0:0:0:
320,0,163821,1,0,0:0:0:0:
64,0,163888,1,0,0:0:0:0:
192,0,163888,1,0,0:0:0:0:
320,0,163954,1,0,0:0:0:0:
64,0,164020,1,0,0:0:0:0:
192,0,164020,1,0,0:0:0:0:
448,0,164020,1,0,0:0:0:0:
320,0,164087,1,0,0:0:0:0:
64,0,164153,1,0,0:0:0:0:
448,0,164153,1,0,0:0:0:0:
192,0,164220,1,0,0:0:0:0:
64,0,164287,1,0,0:0:0:0:
320,0,164287,1,0,0:0:0:0:
448,0,164287,1,0,0:0:0:0:
192,0,164353,1,0,0:0:0:0:
320,0,164420,1,0,0:0:0:0:
448,0,164420,1,0,0:0:0:0:
192,0,164486,1,0,0:0:0:0:
64,0,164552,1,0,0:0:0:0:
320,0,164552,1,0,0:0:0:0:
448,0,164552,1,0,0:0:0:0:
192,0,164620,1,0,0:0:0:0:
64,0,164686,1,0,0:0:0:0:
448,0,164752,1,0,0:0:0:0:
64,0,164819,1,0,0:0:0:0:
192,0,164819,1,0,0:0:0:0:
320,0,164819,1,0,0:0:0:0:
448,0,164885,1,0,0:0:0:0:
64,0,164951,1,0,0:0:0:0:
320,0,164951,1,0,0:0:0:0:
192,0,165019,1,0,0:0:0:0:
64,0,165085,1,0,0:0:0:0:
320,0,165085,1,0,0:0:0:0:
448,0,165151,1,0,0:0:0:0:
64,0,165218,1,0,0:0:0:0:
192,0,165218,1,0,0:0:0:0:
320,0,165284,1,0,0:0:0:0:
64,0,165350,1,0,0:0:0:0:
192,0,165350,1,0,0:0:0:0:
448,0,165350,1,0,0:0:0:0:
320,0,165418,1,0,0:0:0:0:
64,0,165484,1,0,0:0:0:0:
192,0,165484,1,0,0:0:0:0:
448,0,165484,1,0,0:0:0:0:
320,0,165550,1,0,0:0:0:0:
64,0,165617,1,0,0:0:0:0:
448,0,165617,1,0,0:0:0:0:
192,0,165683,1,0,0:0:0:0:
320,0,165750,1,0,0:0:0:0:
448,0,165750,1,0,0:0:0:0:
192,0,165817,1,0,0:0:0:0:
64,0,165883,1,0,0:0:0:0:
320,0,165883,1,0,0:0:0:0:
448,0,165883,1,0,0:0:0:0:
192,0,165950,1,0,0:0:0:0:
448,0,166016,1,0,0:0:0:0:
320,0,166082,1,0,0:0:0:0:
64,0,166150,1,0,0:0:0:0:
192,0,166150,1,0,0:0:0:0:
448,0,166150,1,0,0:0:0:0:
320,0,166216,1,0,0:0:0:0:
448,0,166282,1,0,0:0:0:0:
64,0,166349,1,0,0:0:0:0:
320,0,166415,1,0,0:0:0:0:
448,0,166415,1,0,0:0:0:0:
192,0,166481,1,0,0:0:0:0:
64,0,166549,1,0,0:0:0:0:
448,0,166549,1,0,0:0:0:0:
320,0,166615,1,0,0:0:0:0:
64,0,166681,1,0,0:0:0:0:
192,0,166681,1,0,0:0:0:0:
448,0,166681,1,0,0:0:0:0:
320,0,166748,1,0,0:0:0:0:
64,0,166814,1,0,0:0:0:0:
192,0,166880,1,0,0:0:0:0:
64,0,166948,1,0,0:0:0:0:
320,0,166948,1,0,0:0:0:0:
448,0,166948,1,0,0:0:0:0:
192,0,167014,1,0,0:0:0:0:
64,0,167080,1,0,0:0:0:0:
320,0,167080,1,0,0:0:0:0:
448,0,167147,1,0,0:0:0:0:
64,0,167213,1,0,0:0:0:0:
192,0,167213,1,0,0:0:0:0:
320,0,167213,1,0,0:0:0:0:
448,0,167280,1,0,0:0:0:0:
192,0,167347,1,0,0:0:0:0:
320,0,167347,1,0,0:0:0:0:
64,0,167413,1,0,0:0:0:0:
192,0,167480,1,0,0:0:0:0:
320,0,167480,1,0,0:0:0:0:
448,0,167480,1,0,0:0:0:0:
64,0,167546,1,0,0:0:0:0:
320,0,167612,1,0,0:0:0:0:
448,0,167612,1,0,0:0:0:0:
64,0,167679,1,0,0:0:0:0:
192,0,167746,1,0,0:0:0:0:
320,0,167746,1,0,0:0:0:0:
448,0,167746,1,0,0:0:0:0:
64,0,167812,1,0,0:0:0:0:
192,0,167879,1,0,0:0:0:0:
448,0,167879,1,0,0:0:0:0:
320,0,167945,1,0,0:0:0:0:
64,0,168011,1,0,0:0:0:0:
192,0,168011,1,0,0:0:0:0:
448,0,168011,1,0,0:0:0:0:
320,0,168078,1,0,0:0:0:0:
64,0,168145,1,0,0:0:0:0:
192,0,168145,1,0,0:0:0:0:
320,0,168211,1,0,0:0:0:0:
64,0,168278,1,0,0:0:0:0:
192,0,168278,1,0,0:0:0:0:
448,0,168278,1,0,0:0:0:0:
320,0,168344,1,0,0:0:0:0:
64,0,168410,1,0,0:0:0:0:
192,0,168410,1,0,0:0:0:0:
320,0,168477,1,0,0:0:0:0:
448,0,168477,1,0,0:0:0:0:
64,0,168544,1,0,0:0:0:0:
192,0,168544,1,0,0:0:0:0:
320,0,168610,1,0,0:0:0:0:
448,0,168610,1,0,0:0:0:0:
64,0,168677,1,0,0:0:0:0:
192,0,168677,1,0,0:0:0:0:
320,0,168743,1,0,0:0:0:0:
448,0,168743,1,0,0:0:0:0:
64,0,168810,1,0,0:0:0:0:
320,0,168810,1,0,0:0:0:0:
448,0,168810,1,0,0:0:0:0:
192,0,168877,1,0,0:0:0:0:
320,0,168943,1,0,0:0:0:0:
64,0,169010,1,0,0:0:0:0:
192,0,169076,1,0,0:0:0:0:
448,0,169076,1,0,0:0:0:0:
64,0,169142,1,0,0:0:0:0:
192,0,169209,1,0,0:0:0:0:
320,0,169209,1,0,0:0:0:0:
448,0,169276,1,0,0:0:0:0:
64,0,169342,1,0,0:0:0:0:
192,0,169342,1,0,0:0:0:0:
320,0,169342,1,0,0:0:0:0:
448,0,169409,1,0,0:0:0:0:
192,0,169475,1,0,0:0:0:0:
320,0,169541,1,0,0:0:0:0:
64,0,169608,1,0,0:0:0:0:
192,0,169608,1,0,0:0:0:0:
448,0,169608,1,0,0:0:0:0:
320,0,169675,1,0,0:0:0:0:
64,0,169741,1,0,0:0:0:0:
448,0,169741,1,0,0:0:0:0:
192,0,169808,1,0,0:0:0:0:
320,0,169874,1,0,0:0:0:0:
448,0,169874,1,0,0:0:0:0:
64,0,169940,1,0,0:0:0:0:
192,0,170007,1,0,0:0:0:0:
320,0,170007,1,0,0:0:0:0:
448,0,170074,1,0,0:0:0:0:
64,0,170140,1,0,0:0:0:0:
192,0,170140,1,0,0:0:0:0:
320,0,170140,1,0,0:0:0:0:
448,0,170207,1,0,0:0:0:0:
192,0,170273,1,0,0:0:0:0:
320,0,170340,1,0,0:0:0:0:
64,0,170406,1,0,0:0:0:0:
192,0,170406,1,0,0:0:0:0:
448,0,170406,1,0,0:0:0:0:
320,0,170473,1,0,0:0:0:0:
64,0,170540,1,0,0:0:0:0:
192,0,170540,1,0,0:0:0:0:
320,0,170606,1,0,0:0:0:0:
64,0,170672,1,0,0:0:0:0:
192,0,170672,1,0,0:0:0:0:
448,0,170672,1,0,0:0:0:0:
320,0,170739,1,0,0:0:0:0:
192,0,170805,1,0,0:0:0:0:
448,0,170805,1,0,0:0:0:0:
64,0,170872,1,0,0:0:0:0:
192,0,170939,1,0,0:0:0:0:
320,0,170939,1,0,0:0:0:0:
448,0,170939,1,0,0:0:0:0:
64,0,171005,1,0,0:0:0:0:
320,0,171071,1,0,0:0:0:0:
192,0,171138,1,0,0:0:0:0:
320,0,171204,1,0,0:0:0:0:
448,0,171204,1,0,0:0:0:0:
64,0,171271,1,0,0:0:0:0:
192,0,171338,1,0,0:0:0:0:
320,0,171338,1,0,0:0:0:0:
448,0,171404,1,0,0:0:0:0:
64,0,171470,1,0,0:0:0:0:
192,0,171470,1,0,0:0:0:0:
320,0,171470,1,0,0:0:0:0:
448,0,171537,1,0,0:0:0:0:
320,0,171604,1,0,0:0:0:0:
192,0,171670,1,0,0:0:0:0:
64,0,171737,1,0,0:0:0:0:
448,0,171737,1,0,0:0:0:0:
192,0,171803,1,0,0:0:0:0:
64,0,171870,1,0,0:0:0:0:
320,0,171870,1,0,0:0:0:0:
448,0,171936,1,0,0:0:0:0:
64,0,172003,1,0,0:0:0:0:
192,0,172003,1,0,0:0:0:0:
320,0,172003,1,0,0:0:0:0:
448,0,172070,1,0,0:0:0:0:
192,0,172136,1,0,0:0:0:0:
64,0,172202,1,0,0:0:0:0:
192,0,172269,1,0,0:0:0:0:
320,0,172269,1,0,0:0:0:0:
448,0,172269,1,0,0:0:0:0:
64,0,172335,1,0,0:0:0:0:
320,0,172402,1,0,0:0:0:0:
448,0,172469,1,0,0:0:0:0:
64,0,172535,1,0,0:0:0:0:
192,0,172535,1,0,0:0:0:0:
320,0,172535,1,0,0:0:0:0:
448,0,172601,1,0,0:0:0:0:
64,0,172668,1,0,0:0:0:0:
192,0,172668,1,0,0:0:0:0:
320,0,172734,1,0,0:0:0:0:
64,0,172801,1,0,0:0:0:0:
192,0,172801,1,0,0:0:0:0:
448,0,172801,1,0,0:0:0:0:
320,0,172868,1,0,0:0:0:0:
192,0,172934,1,0,0:0:0:0:
448,0,172934,1,0,0:0:0:0:
64,0,173000,1,0,0:0:0:0:
192,0,173067,1,0,0:0:0:0:
320,0,173067,1,0,0:0:0:0:
448,0,173067,1,0,0:0:0:0:
64,0,173133,1,0,0:0:0:0:
320,0,173200,1,0,0:0:0:0:
192,0,173267,1,0,0:0:0:0:
64,0,173333,1,0,0:0:0:0:
448,0,173333,1,0,0:0:0:0:
320,0,173400,1,0,0:0:0:0:
64,0,173466,1,0,0:0:0:0:
192,0,173466,1,0,0:0:0:0:
448,0,173532,1,0,0:0:0:0:
64,0,173600,1,0,0:0:0:0:
192,0,173600,1,0,0:0:0:0:
320,0,173600,1,0,0:0:0:0:
448,0,173666,1,0,0:0:0:0:
192,0,173732,1,0,0:0:0:0:
320,0,173799,1,0,0:0:0:0:
64,0,173865,1,0,0:0:0:0:
192,0,173865,1,0,0:0:0:0:
448,0,173865,1,0,0:0:0:0:
320,0,173931,1,0,0:0:0:0:
64,0,173999,1,0,0:0:0:0:
448,0,173999,1,0,0:0:0:0:
192,0,174065,1,0,0:0:0:0:
320,0,174131,1,0,0:0:0:0:
448,0,174131,1,0,0:0:0:0:
64,0,174198,1,0,0:0:0:0:
192,0,174264,1,0,0:0:0:0:
320,0,174264,1,0,0:0:0:0:
448,0,174331,1,0,0:0:0:0:
64,0,174398,1,0,0:0:0:0:
192,0,174398,1,0,0:0:0:0:
320,0,174398,1,0,0:0:0:0:
448,0,174464,1,0,0:0:0:0:
192,0,174530,1,0,0:0:0:0:
320,0,174597,1,0,0:0:0:0:
64,0,174663,1,0,0:0:0:0:
192,0,174663,1,0,0:0:0:0:
448,0,174663,1,0,0:0:0:0:
320,0,174730,1,0,0:0:0:0:
64,0,174797,1,0,0:0:0:0:
192,0,174797,1,0,0:0:0:0:
320,0,174863,1,0,0:0:0:0:
64,0,174930,1,0,0:0:0:0:
192,0,174930,1,0,0:0:0:0:
448,0,174930,1,0,0:0:0:0:
320,0,174996,1,0,0:0:0:0:
192,0,175062,1,0,0:0:0:0:
448,0,175062,1,0,0:0:0:0:
64,0,175130,1,0,0:0:0:0:
192,0,175196,1,0,0:0:0:0:
320,0,175196,1,0,0:0:0:0:
448,0,175196,1,0,0:0:0:0:
64,0,175262,1,0,0:0:0:0:
320,0,175329,1,0,0:0:0:0:
192,0,175395,1,0,0:0:0:0:
320,0,175461,1,0,0:0:0:0:
448,0,175461,1,0,0:0:0:0:
64,0,175529,1,0,0:0:0:0:
192,0,175595,1,0,0:0:0:0:
320,0,175595,1,0,0:0:0:0:
448,0,175661,1,0,0:0:0:0:
64,0,175728,1,0,0:0:0:0:
192,0,175728,1,0,0:0:0:0:
320,0,175728,1,0,0:0:0:0:
448,0,175794,1,0,0:0:0:0:
320,0,175860,1,0,0:0:0:0:
192,0,175928,1,0,0:0:0:0:
64,0,175994,1,0,0:0:0:0:
448,0,175994,1,0,0:0:0:0:
192,0,176060,1,0,0:0:0:0:
64,0,176127,1,0,0:0:0:0:
320,0,176127,1,0,0:0:0:0:
448,0,176193,1,0,0:0:0:0:
64,0,176260,1,0,0:0:0:0:
192,0,176260,1,0,0:0:0:0:
320,0,176260,1,0,0:0:0:0:
448,0,176327,1,0,0:0:0:0:
192,0,176393,1,0,0:0:0:0:
64,0,176460,1,0,0:0:0:0:
192,0,176526,1,0,0:0:0:0:
320,0,176526,1,0,0:0:0:0:
448,0,176526,1,0,0:0:0:0:
64,0,176592,1,0,0:0:0:0:
320,0,176659,1,0,0:0:0:0:
448,0,176726,1,0,0:0:0:0:
64,0,176792,1,0,0:0:0:0:
192,0,176792,1,0,0:0:0:0:
320,0,176792,1,0,0:0:0:0:
448,0,176859,1,0,0:0:0:0:
64,0,176925,1,0,0:0:0:0:
192,0,176925,1,0,0:0:0:0:
320,0,176991,1,0,0:0:0:0:
64,0,177059,1,0,0:0:0:0:
192,0,177059,1,0,0:0:0:0:
448,0,177059,1,0,0:0:0:0:
320,0,177125,1,0,0:0:0:0:
192,0,177191,1,0,0:0:0:0:
448,0,177191,1,0,0:0:0:0:
320,0,177258,1,0,0:0:0:0:
64,0,177324,1,0,0:0:0:0:
192,0,177324,1,0,0:0:0:0:
448,0,177324,1,0,0:0:0:0:
320,0,177390,1,0,0:0:0:0:
192,0,177458,1,0,0:0:0:0:
448,0,177524,1,0,0:0:0:0:
64,0,177590,1,0,0:0:0:0:
192,0,177590,1,0,0:0:0:0:
320,0,177590,1,0,0:0:0:0:
448,0,177657,1,0,0:0:0:0:
320,0,177723,1,0,0:0:0:0:
192,0,177790,1,0,0:0:0:0:
64,0,177857,1,0,0:0:0:0:
320,0,177857,1,0,0:0:0:0:
448,0,177857,1,0,0:0:0:0:
192,0,177923,1,0,0:0:0:0:
320,0,177990,1,0,0:0:0:0:
448,0,178056,1,0,0:0:0:0:
64,0,178122,1,0,0:0:0:0:
192,0,178122,1,0,0:0:0:0:
320,0,178122,1,0,0:0:0:0:
448,0,178189,1,0,0:0:0:0:
64,0,178256,1,0,0:0:0:0:
320,0,178256,1,0,0:0:0:0:
192,0,178322,1,0,0:0:0:0:
64,0,178389,1,0,0:0:0:0:
320,0,178389,1,0,0:0:0:0:
448,0,178389,1,0,0:0:0:0:
192,0,178453,1,0,0:0:0:0:
320,0,178519,1,0,0:0:0:0:
448,0,178519,1,0,0:0:0:0:
64,0,178583,1,0,0:0:0:0:
192,0,178649,1,0,0:0:0:0:
448,0,178649,1,0,0:0:0:0:
64,0,178713,1,0,0:0:0:0:
192,0,178778,1,0,0:0:0:0:
320,0,178778,1,0,0:0:0:0:
448,0,178843,1,0,0:0:0:0:
64,0,178908,1,0,0:0:0:0:
192,0,178908,1,0,0:0:0:0:
320,0,178973,1,0,0:0:0:0:
448,0,179038,1,0,0:0:0:0:
192,0,179103,1,0,0:0:0:0:
64,0,179168,1,0,0:0:0:0:
320,0,179168,1,0,0:0:0:0:
448,0,179168,1,0,0:0:0:0:
192,0,179232,1,0,0:0:0:0:
64,0,179298,1,0,0:0:0:0:
320,0,179298,1,0,0:0:0:0:
192,0,179362,1,0,0:0:0:0:
64,0,179428,1,0,0:0:0:0:
320,0,179428,1,0,0:0:0:0:
448,0,179428,1,0,0:0:0:0:
192,0,179491,1,0,0:0:0:0:
320,0,179554,1,0,0:0:0:0:
448,0,179618,1,0,0:0:0:0:
64,0,179681,1,0,0:0:0:0:
192,0,179681,1,0,0:0:0:0:
320,0,179681,1,0,0:0:0:0:
448,0,179745,1,0,0:0:0:0:
320,0,179808,1,0,0:0:0:0:
192,0,179871,1,0,0:0:0:0:
64,0,179935,1,0,0:0:0:0:
320,0,179935,1,0,0:0:0:0:
448,0,179935,1,0,0:0:0:0:
192,0,179999,1,0,0:0:0:0:
320,0,180061,1,0,0:0:0:0:
448,0,180125,1,0,0:0:0:0:
64,0,180189,1,0,0:0:0:0:
192,0,180189,1,0,0:0:0:0:
320,0,180189,1,0,0:0:0:0:
448,0,180252,1,0,0:0:0:0:
192,0,180316,1,0,0:0:0:0:
320,0,180379,1,0,0:0:0:0:
64,0,180442,1,0,0:0:0:0:
192,0,180442,1,0,0:0:0:0:
448,0,180442,1,0,0:0:0:0:
320,0,180504,1,0,0:0:0:0:
64,0,180566,1,0,0:0:0:0:
192,0,180566,1,0,0:0:0:0:
448,0,180629,1,0,0:0:0:0:
192,0,180690,1,0,0:0:0:0:
320,0,180690,1,0,0:0:0:0:
448,0,180752,1,0,0:0:0:0:
64,0,180814,1,0,0:0:0:0:
192,0,180814,1,0,0:0:0:0:
320,0,180876,1,0,0:0:0:0:
64,0,180939,1,0,0:0:0:0:
192,0,180939,1,0,0:0:0:0:
448,0,180939,1,0,0:0:0:0:
320,0,181000,1,0,0:0:0:0:
192,0,181062,1,0,0:0:0:0:
64,0,181124,1,0,0:0:0:0:
320,0,181186,1,0,0:0:0:0:
448,0,181186,1,0,0:0:0:0:
192,0,181248,1,0,0:0:0:0:
64,0,181310,1,0,0:0:0:0:
320,0,181372,1,0,0:0:0:0:
64,0,181434,1,0,0:0:0:0:
192,0,181434,1,0,0:0:0:0:
448,0,181434,1,0,0:0:0:0:
320,0,181490,1,0,0:0:0:0:
192,0,181548,1,0,0:0:0:0:
448,0,181604,1,0,0:0:0:0:
64,0,181661,1,0,0:0:0:0:
320,0,181661,1,0,0:0:0:0:
448,0,181718,1,0,0:0:0:0:
320,0,181775,1,0,0:0:0:0:
192,0,181831,1,0,0:0:0:0:
64,0,181889,1,0,0:0:0:0:
448,0,181889,1,0,0:0:0:0:
192,0,181945,1,0,0:0:0:0:
320,0,182002,1,0,0:0:0:0:
448,0,182059,1,0,0:0:0:0:
64,0,182116,1,0,0:0:0:0:
192,0,182116,1,0,0:0:0:0:
448,0,182172,1,0,0:0:0:0:
320,0,182229,1,0,0:0:0:0:
192,0,182286,1,0,0:0:0:0:
64,0,182343,1,0,0:0:0:0:
448,0,182343,1,0,0:0:0:0:
192,0,182399,1,0,0:0:0:0:
320,0,182454,1,0,0:0:0:0:
64,0,182510,1,0,0:0:0:0:
320,0,182566,1,0,0:0:0:0:
448,0,182566,1,0,0:0:0:0:
192,0,182621,1,0,0:0:0:0:
320,0,182677,1,0,0:0:0:0:
448,0,182733,1,0,0:0:0:0:
64,0,182789,1,0,0:0:0:0:
192,0,182789,1,0,0:0:0:0:
320,0,182844,1,0,0:0:0:0:
448,0,182899,1,0,0:0:0:0:
192,0,182955,1,0,0:0:0:0:
64,0,183011,1,0,0:0:0:0:
448,0,183011,1,0,0:0:0:0:
192,0,183067,1,0,0:0:0:0:
320,0,183122,1,0,0:0:0:0:
192,0,183178,1,0,0:0:0:0:
64,0,183234,1,0,0:0:0:0:
448,0,183234,1,0,0:0:0:0:
192,0,183289,1,0,0:0:0:0:
320,0,183343,1,0,0:0:0:0:
448,0,183398,1,0,0:0:0:0:
64,0,183452,1,0,0:0:0:0:
192,0,183452,1,0,0:0:0:0:
448,0,183507,1,0,0:0:0:0:
320,0,183561,1,0,0:0:0:0:
192,0,183616,1,0,0:0:0:0:
64,0,183670,1,0,0:0:0:0:
448,0,183670,1,0,0:0:0:0:
192,0,183725,1,0,0:0:0:0:
320,0,183779,1,0,0:0:0:0:
448,0,183834,1,0,0:0:0:0:
64,0,183889,1,0,0:0:0:0:
192,0,183889,1,0,0:0:0:0:
448,0,183943,1,0,0:0:0:0:
192,0,183998,1,0,0:0:0:0:
320,0,184052,1,0,0:0:0:0:
64,0,184107,1,0,0:0:0:0:
448,0,184107,1,0,0:0:0:0:
192,0,184159,1,0,0:0:0:0:
64,0,184213,1,0,0:0:0:0:
448,0,184267,1,0,0:0:0:0:
192,0,184320,1,0,0:0:0:0:
320,0,184320,1,0,0:0:0:0:
448,0,184374,1,0,0:0:0:0:
192,0,184428,1,0,0:0:0:0:
320,0,184480,1,0,0:0:0:0:
64,0,184534,1,0,0:0:0:0:
448,0,184534,1,0,0:0:0:0:
320,0,184588,1,0,0:0:0:0:
192,0,184641,1,0,0:0:0:0:
64,0,184695,1,0,0:0:0:0:
320,0,184748,1,0,0:0:0:0:
448,0,184748,1,0,0:0:0:0:
192,0,184801,1,0,0:0:0:0:
64,0,184855,1,0,0:0:0:0:
320,0,184909,1,0,0:0:0:0:
64,0,184962,1,0,0:0:0:0:
192,0,184962,1,0,0:0:0:0:
448,0,184962,1,0,0:0:0:0:
320,0,185014,1,0,0:0:0:0:
192,0,185067,1,0,0:0:0:0:
448,0,185119,1,0,0:0:0:0:
64,0,185172,1,0,0:0:0:0:
320,0,185172,1,0,0:0:0:0:
448,0,185224,1,0,0:0:0:0:
320,0,185277,1,0,0:0:0:0:
192,0,185329,1,0,0:0:0:0:
64,0,185381,1,0,0:0:0:0:
448,0,185381,1,0,0:0:0:0:
192,0,185434,1,0,0:0:0:0:
320,0,185487,1,0,0:0:0:0:
448,0,185539,1,0,0:0:0:0:
64,0,185591,1,0,0:0:0:0:
192,0,185591,1,0,0:0:0:0:
448,0,185644,1,0,0:0:0:0:
320,0,185696,1,0,0:0:0:0:
192,0,185749,1,0,0:0:0:0:
64,0,185801,1,0,0:0:0:0:
448,0,185801,1,0,0:0:0:0:
192,0,185852,1,0,0:0:0:0:
320,0,185904,1,0,0:0:0:0:
64,0,185956,1,0,0:0:0:0:
320,0,186007,1,0,0:0:0:0:
448,0,186007,1,0,0:0:0:0:
192,0,186059,1,0,0:0:0:0:
320,0,186109,1,0,0:0:0:0:
448,0,186161,1,0,0:0:0:0:
64,0,186213,1,0,0:0:0:0:
192,0,186213,1,0,0:0:0:0:
320,0,186264,1,0,0:0:0:0:
448,0,186316,1,0,0:0:0:0:
192,0,186367,1,0,0:0:0:0:
64,0,186419,1,0,0:0:0:0:
448,0,186419,1,0,0:0:0:0:
192,0,186470,1,0,0:0:0:0:
320,0,186521,1,0,0:0:0:0:
192,0,186573,1,0,0:0:0:0:
64,0,186624,1,0,0:0:0:0:
448,0,186624,1,0,0:0:0:0:
192,0,186675,1,0,0:0:0:0:
320,0,186726,1,0,0:0:0:0:
448,0,186776,1,0,0:0:0:0:
64,0,186827,1,0,0:0:0:0:
192,0,186827,1,0,0:0:0:0:
448,0,186877,1,0,0:0:0:0:
320,0,186928,1,0,0:0:0:0:
192,0,186978,1,0,0:0:0:0:
64,0,187029,1,0,0:0:0:0:
448,0,187029,1,0,0:0:0:0:
192,0,187079,1,0,0:0:0:0:
320,0,187129,1,0,0:0:0:0:
448,0,187180,1,0,0:0:0:0:
64,0,187230,1,0,0:0:0:0:
192,0,187230,1,0,0:0:0:0:
448,0,187281,1,0,0:0:0:0:
192,0,187331,1,0,0:0:0:0:
320,0,187382,1,0,0:0:0:0:
64,0,187432,1,0,0:0:0:0:
448,0,187432,1,0,0:0:0:0:
192,0,187483,1,0,0:0:0:0:
64,0,187533,1,0,0:0:0:0:
448,0,187584,1,0,0:0:0:0:
192,0,187635,1,0,0:0:0:0:
320,0,187635,1,0,0:0:0:0:
448,0,187685,1,0,0:0:0:0:
192,0,187736,1,0,0:0:0:0:
320,0,187786,1,0,0:0:0:0:
64,0,187837,1,0,0:0:0:0:
448,0,187837,1,0,0:0:0:0:
320,0,187887,1,0,0:0:0:0:
192,0,187938,1,0,0:0:0:0:
64,0,187988,1,0,0:0:0:0:
320,0,188039,1,0,0:0:0:0:
448,0,188039,1,0,0:0:0:0:
192,0,188089,1,0,0:0:0:0:
64,0,188139,1,0,0:0:0:0:
320,0,188190,1,0,0:0:0:0:
64,0,188240,1,0,0:0:0:0:
192,0,188240,1,0,0:0:0:0:
448,0,188240,1,0,0:0:0:0:
320,0,188291,1,0,0:0:0:0:
192,0,188341,1,0,0:0:0:0:
448,0,188392,1,0,0:0:0:0:
64,0,188442,1,0,0:0:0:0:
320,0,188442,1,0,0:0:0:0:
448,0,188493,1,0,0:0:0:0:
320,0,188544,1,0,0:0:0:0:
192,0,188594,1,0,0:0:0:0:
64,0,188645,1,0,0:0:0:0:
448,0,188645,1,0,0:0:0:0:
192,0,188695,1,0,0:0:0:0:
320,0,188746,1,0,0:0:0:0:
448,0,188796,1,0,0:0:0:0:
64,0,188847,1,0,0:0:0:0:
192,0,188847,1,0,0:0:0:0:
448,0,188897,1,0,0:0:0:0:
320,0,188948,1,0,0:0:0:0:
192,0,188999,1,0,0:0:0:0:
64,0,189049,1,0,0:0:0:0:
448,0,189049,1,0,0:0:0:0:
192,0,189099,1,0,0:0:0:0:
320,0,189149,1,0,0:0:0:0:
64,0,189200,1,0,0:0:0:0:
320,0,189250,1,0,0:0:0:0:
448,0,189250,1,0,0:0:0:0:
192,0,189301,1,0,0:0:0:0:
320,0,189351,1,0,0:0:0:0:
448,0,189402,1,0,0:0:0:0:
64,0,189453,1,0,0:0:0:0:
192,0,189453,1,0,0:0:0:0:
320,0,189503,1,0,0:0:0:0:
448,0,189554,1,0,0:0:0:0:
192,0,189604,1,0,0:0:0:0:
64,0,189655,1,0,0:0:0:0:
448,0,189655,1,0,0:0:0:0:
192,0,189705,1,0,0:0:0:0:
320,0,189756,1,0,0:0:0:0:
192,0,189806,1,0,0:0:0:0:
64,0,189857,1,0,0:0:0:0:
448,0,189857,1,0,0:0:0:0:
192,0,189905,1,0,0:0:0:0:
320,0,189952,1,0,0:0:0:0:
448,0,190000,1,0,0:0:0:0:
64,0,190049,1,0,0:0:0:0:
192,0,190049,1,0,0:0:0:0:
448,0,190096,1,0,0:0:0:0:
320,0,190144,1,0,0:0:0:0:
192,0,190191,1,0,0:0:0:0:
64,0,190239,1,0,0:0:0:0:
448,0,190239,1,0,0:0:0:0:
192,0,190288,1,0,0:0:0:0:
320,0,190335,1,0,0:0:0:0:
448,0,190383,1,0,0:0:0:0:
64,0,190431,1,0,0:0:0:0:
192,0,190431,1,0,0:0:0:0:
448,0,190479,1,0,0:0:0:0:
192,0,190527,1,0,0:0:0:0:
320,0,190575,1,0,0:0:0:0:
64,0,190622,1,0,0:0:0:0:
448,0,190622,1,0,0:0:0:0:
64,0,190718,1,0,0:0:0:0:
192,0,190718,1,0,0:0:0:0:
320,0,190814,1,0,0:0:0:0:
448,0,190814,1,0,0:0:0:0:
192,0,190909,1,0,0:0:0:0:
448,0,190909,1,0,0:0:0:0:
192,0,191005,1,0,0:0:0:0:
320,0,191005,1,0,0:0:0:0:
192,0,191100,1,0,0:0:0:0:
64,0,191197,128,0,191579:0:0:0:0:
448,0,191197,128,0,191579:0:0:0:0:
