osu file format v14

[General]
AudioFilename: Romo et Juliette Les Rois du Monde.wmv.mp3
AudioLeadIn: 0
PreviewTime: -1
Countdown: 1
SampleSet: Normal
StackLeniency: 0.7
Mode: 0
LetterboxInBreaks: 0
WidescreenStoryboard: 0

[Editor]
DistanceSpacing: 1.3
BeatDivisor: 4
GridSize: 8
TimelineZoom: 1.2

[Metadata]
Title:Les Rois du Monde
TitleUnicode:Les Rois du Monde
Artist:Romeo et Juliette
ArtistUnicode:Roméo et Juliette
Creator:Nagirops
Version:Insane
Source:
Tags:
BeatmapID:843410
BeatmapSetID:386245

[Difficulty]
HPDrainRate:5
CircleSize:4
OverallDifficulty:6
ApproachRate:8
SliderMultiplier:1.39999990463257
SliderTickRate:1

[Events]
//Background and Video events
//Break Periods
//Storyboard Layer 0 (Background)
//Storyboard Layer 1 (Fail)
//Storyboard Layer 2 (Pass)
//Storyboard Layer 3 (Foreground)
//Storyboard Sound Samples

[TimingPoints]
24008,520.833333333333,4,1,0,100,1,0

[HitObjects]
64,80,24008,5,0,0:0:0:0:
152,80,24268,1,0,0:0:0:0:
240,80,24529,1,0,0:0:0:0:
328,80,24789,2,0,P|416:88|480:184,1,209.999985694885
320,272,26091,6,0,L|256:208,1,69.9999952316283
248,136,26612,2,0,L|248:64,1,69.9999952316285
32,48,28174,5,0,0:0:0:0:
96,112,28435,1,0,0:0:0:0:
24,168,28695,1,0,0:0:0:0:
80,240,28955,2,0,P|128:304|184:320,1,139.999990463257
272,320,29737,1,0,0:0:0:0:
456,320,30258,1,0,0:0:0:0:
504,240,30518,1,0,0:0:0:0:
448,168,30778,1,0,0:0:0:0:
504,96,31039,1,0,0:0:0:0:
56,32,32341,6,0,L|136:32,1,69.9999952316285
216,40,32862,1,0,0:0:0:0:
304,40,33122,2,0,B|400:40|400:40|400:96,1,139.999990463257
400,176,33903,1,0,0:0:0:0:
472,232,34164,1,0,0:0:0:0:
472,232,34424,1,0,0:0:0:0:
408,296,34685,2,0,L|336:296,2,69.9999952316285
72,240,36508,5,0,0:0:0:0:
136,176,36768,1,0,0:0:0:0:
224,176,37028,1,0,0:0:0:0:
288,240,37289,2,0,P|352:280|392:240,1,139.999990463257
424,160,38070,2,0,L|488:200,4,69.9999952316285
384,80,39372,2,0,B|288:24|288:24|200:88,1,209.999985694886
152,256,40674,5,0,0:0:0:0:
152,344,40935,1,0,0:0:0:0:
240,344,41195,1,0,0:0:0:0:
328,344,41455,2,0,P|448:296|448:224,1,209.999985694886
456,144,42497,6,0,L|496:160,2,34.9999976158143
448,56,43018,2,0,L|480:40,2,34.9999976158143
96,256,44841,6,0,L|40:320,2,69.9999952316285
96,168,45622,2,0,B|96:88|96:88|136:32,1,139.999990463257
224,40,46403,1,0,0:0:0:0:
296,96,46664,1,0,0:0:0:0:
296,184,46924,1,0,0:0:0:0:
296,272,47185,1,0,0:0:0:0:
296,272,47445,1,0,0:0:0:0:
368,328,47705,2,0,B|464:328|464:328|528:232,1,209.999985694886
480,56,49008,5,0,0:0:0:0:
408,0,49268,1,0,0:0:0:0:
336,56,49528,1,0,0:0:0:0:
264,0,49789,2,0,P|192:0|120:56,1,139.999990463257
80,104,50570,2,0,B|32:160|32:160|80:216,1,139.999990463257
120,288,51351,1,0,0:0:0:0:
208,288,51612,1,0,0:0:0:0:
288,328,51872,2,0,B|384:376|384:376|448:296,1,209.999985694886
376,128,53174,5,0,0:0:0:0:
288,128,53435,1,0,0:0:0:0:
200,128,53695,1,0,0:0:0:0:
112,128,53955,2,0,P|48:176|56:240,1,139.999990463257
128,280,54737,2,0,L|96:360,4,69.9999952316285
208,320,56039,2,0,B|312:360|352:312|392:264,1,209.999985694886
464,96,57341,5,0,0:0:0:0:
400,32,57601,2,0,L|336:-8,1,69.9999952316285
256,0,58122,2,0,L|160:0,1,69.9999952316285
128,72,58643,1,0,0:0:0:0:
200,128,58903,1,0,0:0:0:0:
128,184,59164,1,0,0:0:0:0:
128,272,59424,1,0,0:0:0:0:
56,328,59685,6,0,L|24:392,3,69.9999952316285
112,368,60726,2,0,L|192:368,1,69.9999952316285
256,312,61247,1,0,0:0:0:0:
256,312,61508,1,0,0:0:0:0:
336,264,61768,6,0,L|384:288,1,34.9999976158143
360,232,62028,2,0,L|408:256,1,34.9999976158143
384,200,62289,2,0,L|432:216,1,34.9999976158143
400,168,62549,1,0,0:0:0:0:
432,80,62810,1,0,0:0:0:0:
432,8,63070,1,0,0:0:0:0:
344,8,63330,1,0,0:0:0:0:
288,80,63591,1,0,0:0:0:0:
352,144,63851,6,0,L|416:192,1,69.9999952316285
464,248,64372,2,0,L|400:320,1,69.9999952316285
344,336,64893,1,0,0:0:0:0:
344,336,65153,1,0,0:0:0:0:
256,336,65414,1,0,0:0:0:0:
256,336,65674,1,0,0:0:0:0:
168,312,65935,6,0,L|112:392,1,69.9999952316285
40,368,66455,2,0,L|0:296,1,69.9999952316285
0,216,66976,1,0,0:0:0:0:
0,128,67237,1,0,0:0:0:0:
48,48,67497,1,0,0:0:0:0:
136,16,67758,1,0,0:0:0:0:
192,88,68018,6,0,L|248:160,1,69.9999952316285
312,192,68539,2,0,L|384:192,5,69.9999952316285
432,120,70101,6,0,L|464:88,1,34.9999976158143
496,56,70362,1,0,0:0:0:0:
408,24,70622,2,0,L|320:24,1,69.9999952316285
248,48,71143,2,0,L|184:112,1,69.9999952316285
152,168,71664,1,0,0:0:0:0:
152,168,71924,1,0,0:0:0:0:
152,256,72185,6,0,L|80:312,2,69.9999952316285
200,264,72966,2,0,L|264:304,3,69.9999952316285
336,352,74008,5,0,0:0:0:0:
416,384,74268,1,0,0:0:0:0:
504,384,74528,1,0,0:0:0:0:
504,296,74789,2,0,P|560:200|472:144,1,209.999985694886
