osu file format v14

[General]
AudioFilename: audio.mp3
AudioLeadIn: 0
PreviewTime: -1
Countdown: 1
SampleSet: Soft
StackLeniency: 0.2
Mode: 0
LetterboxInBreaks: 0
WidescreenStoryboard: 0

[Editor]
DistanceSpacing: 1.3
BeatDivisor: 8
GridSize: 32
TimelineZoom: 1.7

[Metadata]
Title:Technical Master
TitleUnicode:Technical Master
Artist:Rolling Contact
ArtistUnicode:Rolling Contact
Creator:Naidaaka
Version:owo
Source:
Tags:
BeatmapID:1331610
BeatmapSetID:630818

[Difficulty]
HPDrainRate:3.5
CircleSize:4.2
OverallDifficulty:8.3
ApproachRate:9.7
SliderMultiplier:2.8
SliderTickRate:1

[Events]
//Background and Video events
0,0,"49473949_p0.jpg",0,0
//Break Periods
//Storyboard Layer 0 (Background)
//Storyboard Layer 1 (Fail)
//Storyboard Layer 2 (Pass)
//Storyboard Layer 3 (Foreground)
//Storyboard Sound Samples

[TimingPoints]
1484,375,4,2,0,70,1,0
1484,-80,4,2,0,70,0,0
1859,-125,4,2,0,70,0,0
2984,-80,4,2,0,70,0,0
3734,-117.647058823529,4,2,0,70,0,0
4109,-80,4,2,0,70,0,0
4484,-40,4,2,0,70,0,0
4859,-125,4,2,0,70,0,0
6734,-400,4,2,0,70,0,0
7109,-60.2409638554217,4,2,0,70,0,0
7484,-80,4,2,0,70,0,0
8609,-60.2409638554217,4,2,0,70,0,0
8984,-80,4,2,0,70,0,0
9359,-125,4,2,0,70,0,0
10109,-80,4,2,0,70,0,0
10484,-125,4,2,0,70,0,0
10859,-83.3333333333333,4,2,0,70,0,0
11234,-62.5,4,2,0,70,0,0
11609,-50,4,2,0,70,0,0
11984,1500,4,2,0,70,1,0
11984,-666.666666666667,4,2,0,70,0,0
13484,375,4,2,0,70,1,0
13484,-62.5,4,2,0,70,0,0
14234,-76.9230769230769,4,2,0,70,0,0
15359,-76.9230769230769,4,2,0,70,0,0
17984,-66.6666666666667,4,2,0,70,0,0
18640,-55.5555555555556,4,2,0,70,0,0
19484,-62.5,4,2,0,70,0,0
19859,-76.9230769230769,4,2,0,70,0,0
21359,-62.5,4,2,0,70,0,0
21734,-76.9230769230769,4,2,0,70,0,0
24359,-55.5555555555556,4,2,0,70,0,0
24546,-76.9230769230769,4,2,0,70,0,0
25484,-71.4285714285714,4,2,0,70,0,0
25859,-58.8235294117647,4,2,0,70,0,0
26234,-76.9230769230769,4,2,0,70,0,0
26609,-71.4285714285714,4,2,0,70,0,0
27359,-55.5555555555556,4,2,0,70,0,0
27734,-71.4285714285714,4,2,0,70,0,0
28109,-55.5555555555556,4,2,0,70,0,0
28484,-71.4285714285714,4,2,0,70,0,0
28671,-100,4,2,0,70,0,0
28859,-71.4285714285714,4,2,0,70,0,0
29421,-55.5555555555556,4,2,0,70,0,0
29984,-71.4285714285714,4,2,0,70,0,0
30265,-55.5555555555556,4,2,0,70,0,0
30546,-45.4545454545455,4,2,0,70,0,0
30734,-35.7142857142857,4,2,0,70,0,0
30834,-35.7142857142857,4,2,0,70,0,0
31109,-71.4285714285714,4,2,0,70,0,0
31484,-71.4285714285714,4,2,0,70,0,0
31859,-55.5555555555556,4,2,0,70,0,0
32234,-71.4285714285714,4,2,0,70,0,0
33359,-55.5555555555556,4,2,0,70,0,0
33640,-71.4285714285714,4,2,0,70,0,0
34109,-55.5555555555556,4,2,0,70,0,0
34484,-66.6666666666667,4,2,0,70,0,0
37109,-100,4,2,0,70,0,0
37484,-90.9090909090909,4,2,0,70,0,1
41609,-76.9230769230769,4,2,0,70,0,0
42171,-62.5,4,2,0,70,0,0
43109,-90.9090909090909,4,2,0,70,0,0
43484,-90.9090909090909,4,2,0,70,0,1
46484,-76.9230769230769,4,2,0,70,0,1
46859,-90.9090909090909,4,2,0,70,0,1
47234,-71.4285714285714,4,2,0,70,0,1
49478,-90.9090909090909,4,2,0,70,0,0
50984,-90.9090909090909,4,2,0,70,0,0
52484,-90.9090909090909,4,2,0,70,0,0
53984,-90.9090909090909,4,2,0,70,0,0
55484,-90.9090909090909,4,2,0,70,0,0
56984,-90.9090909090909,4,2,0,70,0,0
58484,-90.9090909090909,4,2,0,70,0,0
59984,1500,4,2,0,100,1,0
59984,-666.666666666667,4,2,0,70,0,0
61296,-666.666666666667,4,2,0,5,0,0
61484,375,4,2,0,70,1,0
61484,-125,4,2,0,70,0,0
67484,-62.5,4,2,0,70,0,0
68984,-90.9090909090909,4,2,0,70,0,0
70484,-76.9230769230769,4,2,0,70,0,0
72546,-125,4,2,0,70,0,0
73484,-90.9090909090909,4,2,0,70,0,0
75921,-125,4,2,0,70,0,0
76484,-90.9090909090909,4,2,0,70,0,0
79109,-90.9090909090909,4,2,0,70,0,0
80796,-62.5,4,2,0,70,0,0
80984,-90.9090909090909,4,2,0,70,0,0
82109,-125,4,2,0,70,0,0
82484,-90.9090909090909,4,2,0,70,0,0
83984,-40,4,2,0,70,0,0
84077,-40,4,2,0,5,0,0
84359,-90.9090909090909,4,2,0,70,0,0
85484,-90.9090909090909,4,2,0,70,0,1
90077,-71.4285714285714,4,2,0,70,0,0
91015,-90.9090909090909,4,2,0,70,0,0
91484,-90.9090909090909,4,2,0,70,0,1
94484,-71.4285714285714,4,2,0,70,0,0
95984,-71.4285714285714,4,2,0,70,0,0
96734,-90.9090909090909,4,2,0,70,0,0
97484,-90.9090909090909,4,2,0,70,0,1
102077,-71.4285714285714,4,2,0,70,0,0
103484,-90.9090909090909,4,2,0,70,0,1
107984,-90.9090909090909,4,2,0,70,0,0

[Colours]
Combo1 : 74,134,255
Combo2 : 158,138,229
Combo3 : 253,255,255
Combo4 : 106,234,124

[HitObjects]
189,113,1484,6,0,B|181:73|194:40|194:40|160:62,1,87.5
338,219,1671,2,0,B|346:259|333:292|333:292|367:270,1,87.5
129,188,1859,6,0,P|157:207|184:209,1,56
398,144,2046,2,0,P|370:125|343:123,1,56
338,219,2234,5,0,0:0:0:0:
376,225,2327,1,0,0:0:0:0:
271,285,2421,1,0,0:0:0:0:
231,287,2515,1,0,0:0:0:0:
191,289,2609,5,0,0:0:0:0:
101,258,2702,1,0,0:0:0:0:
71,167,2796,1,0,0:0:0:0:
119,84,2890,1,0,0:0:0:0:
214,75,2984,6,0,B|260:105|326:88|326:88|304:114|309:155,1,175
398,144,3265,2,0,B|435:85|393:25|393:25|420:41|443:68,1,175
326,89,3546,1,0,0:0:0:0:
342,318,3734,6,0,L|332:254,1,59.5000011348725
187,269,3921,2,0,L|244:284,1,59.5000011348725
333,303,4109,6,0,B|315:177|315:177|332:205|362:223,1,175
119,84,4484,6,0,B|62:73|35:95|35:95|67:110|119:84,1,175
231,167,4671,2,0,B|288:156|315:177|315:177|283:193|231:167,1,175
57,173,4859,5,0,0:0:0:0:
61,210,4952,1,0,0:0:0:0:
69,248,5046,1,0,0:0:0:0:
187,269,5140,1,0,0:0:0:0:
182,306,5233,1,0,0:0:0:0:
174,344,5327,5,0,0:0:0:0:
268,332,5421,1,0,0:0:0:0:
362,320,5515,1,0,0:0:0:0:
456,306,5609,5,0,0:0:0:0:
362,294,5703,1,0,0:0:0:0:
268,282,5796,6,0,L|294:203,1,56
311,145,5984,1,0,0:0:0:0:
311,145,6077,1,0,0:0:0:0:
217,133,6171,1,0,0:0:0:0:
123,121,6265,5,0,0:0:0:0:
123,121,6359,1,0,0:0:0:0:
123,121,6452,1,0,0:0:0:0:
180,45,6546,2,0,L|260:55,1,56
362,154,6734,6,0,L|306:144,1,52.5
362,154,7109,6,0,B|349:134|345:108|386:72|427:66|469:97|495:133|488:176|448:235|351:275,1,350
93,104,7484,6,0,B|128:98|165:103|165:103|147:91,1,87.5
299,217,7671,2,0,B|264:223|227:218|227:218|245:230,1,87.5
93,104,7859,6,0,B|82:130|82:130|91:208,1,87.5
112,348,8046,1,0,0:0:0:0:
368,274,8234,6,0,B|351:296|351:296|282:320,1,87.5
112,348,8421,1,0,0:0:0:0:
299,217,8609,6,0,B|357:170|404:175|453:210|457:251|462:280|442:317|442:317|492:271|470:217,1,350
215,189,8984,6,0,P|211:235|229:273,1,87.5
288,88,9171,2,0,P|292:42|274:4,1,87.5
38,42,9359,5,0,0:0:0:0:
120,52,9452,1,0,0:0:0:0:
204,61,9546,1,0,0:0:0:0:
154,129,9640,1,0,0:0:0:0:
101,194,9734,6,0,L|71:222,1,28
114,218,9827,2,0,L|79:231,1,28
117,247,9921,2,0,L|82:246,1,28
116,277,10015,2,0,L|83:270,1,28
293,309,10109,6,0,P|344:317|381:308,1,87.5
222,244,10296,2,0,P|197:289|199:327,1,87.5
314,216,10484,6,0,L|319:140,1,56
327,20,10671,1,0,0:0:0:0:
342,235,10859,6,0,L|331:150,1,83.9999974365235
317,22,11046,1,0,0:0:0:0:
372,250,11234,6,0,P|369:187|339:132,1,112
308,24,11421,1,0,0:0:0:0:
400,267,11609,6,0,B|397:189|397:189|353:118,1,140
299,26,11796,1,0,0:0:0:0:
117,111,11984,6,0,L|133:145,1,36.749998878479
117,111,13484,6,0,B|179:256|179:256|144:221|85:219,1,224
325,375,13859,2,0,B|263:230|263:230|298:265|357:267,1,224
249,74,14234,5,0,0:0:0:0:
333,170,14327,2,0,P|370:170|317:145,1,181.999991668702
410,252,14609,6,0,P|438:238|471:187,1,90.9999958343508
317,22,14796,2,0,P|276:36|246:81,1,90.9999958343508
219,159,14984,1,0,0:0:0:0:
190,245,15077,1,0,0:0:0:0:
130,177,15171,1,0,0:0:0:0:
160,91,15265,1,0,0:0:0:0:
248,73,15359,6,0,B|161:90|161:90|129:177|129:177|202:258,1,272.999987503052
279,229,15734,2,0,L|213:151,1,90.9999958343508
43,195,15921,2,0,L|109:273,1,90.9999958343508
251,314,16109,5,0,0:0:0:0:
190,245,16202,1,0,0:0:0:0:
130,177,16296,1,0,0:0:0:0:
69,109,16390,1,0,0:0:0:0:
9,41,16484,6,0,B|91:80|150:39|150:39|129:43|99:32,1,181.999991668702
149,39,16765,1,0,0:0:0:0:
328,38,16859,6,0,B|263:31|263:31|215:45|215:45|147:38,1,181.999991668702
346,41,17140,1,0,0:0:0:0:
267,123,17234,2,0,L|371:135,1,90.9999958343508
436,51,17421,6,0,L|332:39,1,90.9999958343508
294,252,17609,1,0,0:0:0:0:
382,265,17702,1,0,0:0:0:0:
456,216,17796,1,0,0:0:0:0:
478,130,17890,1,0,0:0:0:0:
436,51,17984,6,0,P|392:133|472:219,1,210.000008010865
478,130,18265,1,0,0:0:0:0:
461,304,18359,2,0,B|480:377|480:377|486:340,1,105.000004005432
382,265,18546,1,0,0:0:0:0:
294,252,18640,6,0,B|104:228|104:228|194:192,1,251.999992309571
275,226,18921,6,0,B|85:202|85:202|175:166,1,251.999992309571
256,201,19202,6,0,B|66:177|66:177|156:141,1,251.999992309571
352,149,19484,6,0,B|375:147|398:134|403:80|383:44|333:29|288:30|258:61|235:129|260:231,1,336
442,161,19859,6,0,L|330:146,1,90.9999958343508
255,200,20046,2,0,L|141:185,1,90.9999958343508
73,123,20234,1,0,0:0:0:0:
51,343,20327,2,0,P|8:364|51:327,1,181.999991668702
127,277,20609,6,0,P|94:237|45:217,1,90.9999958343508
146,375,20796,2,0,P|195:355|222:312,1,90.9999958343508
255,200,20984,2,0,B|274:77|274:77|263:116|217:133,1,181.999991668702
197,54,21265,1,0,0:0:0:0:
255,200,21359,6,0,B|317:200|317:200|368:160|368:160|482:160|482:160|445:203|445:203|388:202,1,336
386,80,21734,2,0,L|491:80,1,90.9999958343508
360,282,21921,2,0,L|255:282,1,90.9999958343508
28,230,22109,1,0,0:0:0:0:
118,230,22202,1,0,0:0:0:0:
74,199,22296,5,0,0:0:0:0:
164,199,22390,1,0,0:0:0:0:
255,200,22484,6,0,L|345:200,1,90.9999958343508
205,117,22671,2,0,L|164:198,1,90.9999958343508
269,189,22859,6,0,L|359:189,1,90.9999958343508
219,106,23046,6,0,L|239:65,1,45.4999979171754
315,104,23140,2,0,L|335:63,1,45.4999979171754
411,102,23234,1,0,0:0:0:0:
123,108,23421,1,0,0:0:0:0:
507,100,23609,6,0,L|487:59,1,45.4999979171754
460,184,23702,2,0,L|440:143,1,45.4999979171754
413,268,23796,2,0,L|393:227,1,45.4999979171754
366,352,23890,2,0,L|346:311,1,45.4999979171754
264,360,23984,5,0,0:0:0:0:
217,276,24078,1,0,0:0:0:0:
170,192,24172,1,0,0:0:0:0:
123,108,24266,1,0,0:0:0:0:
219,106,24359,6,0,B|186:140|186:140|83:140,1,125.999996154785
43,53,24546,2,0,L|139:53,1,90.9999958343508
411,102,24734,1,0,0:0:0:0:
315,104,24827,1,0,0:0:0:0:
219,106,24921,1,0,0:0:0:0:
507,100,25109,5,0,0:0:0:0:
123,108,25296,1,0,0:0:0:0:
322,201,25484,6,0,L|314:98,1,97.9999970092774
247,254,25671,2,0,P|282:288|343:289,1,97.9999970092774
230,158,25859,6,0,B|188:168|162:194|144:228|149:265|149:265|131:211|71:200,1,238.00000453949
60,300,26140,1,0,0:0:0:0:
149,265,26234,6,0,P|124:225|79:202,1,90.9999958343508
126,364,26421,1,0,0:0:0:0:
214,339,26515,1,0,0:0:0:0:
247,254,26609,6,0,P|282:288|343:289,1,97.9999970092774
436,239,26796,2,0,P|463:269|427:265,1,97.9999970092774
340,172,26984,1,0,0:0:0:0:
421,122,27077,1,0,0:0:0:0:
502,72,27171,2,0,L|394:88,1,97.9999970092774
166,115,27359,6,0,B|108:147|57:142|29:57|86:39|156:31|132:99|192:129|198:131|259:131|298:110|316:40,1,377.999988464356
0,62,27734,2,0,P|-5:119|19:168,1,97.9999970092774
156,208,27921,2,0,P|172:162|165:114,1,97.9999970092774
66,253,28109,6,0,B|97:310|159:333|236:307|252:236|252:236|262:318|340:332,1,377.999988464356
349,229,28484,1,0,0:0:0:0:
308,145,28577,1,0,0:0:0:0:
215,135,28671,1,0,0:0:0:0:
155,207,28765,1,0,0:0:0:0:
252,236,28859,6,0,L|370:228,1,97.9999970092774
405,136,29046,2,0,L|294:146,1,97.9999970092774
484,223,29234,1,0,0:0:0:0:
495,126,29327,1,0,0:0:0:0:
506,28,29421,6,0,B|314:54,1,125.999996154785
202,85,29609,2,0,B|180:97|164:117|149:147|168:188|198:206|246:217|300:175|332:110|322:51|262:-1,1,377.999988464356
44,160,29984,6,0,L|57:271,1,97.9999970092774
55,144,30171,1,0,0:0:0:0:
173,304,30265,6,0,L|303:291,1,125.999996154785
157,293,30452,1,0,0:0:0:0:
298,291,30546,6,0,B|416:279|416:279|367:254,1,154.000004699707
301,178,30734,6,0,B|373:170|373:170|434:200|434:200|514:189,1,195.999994018555
279,174,30922,1,0,0:0:0:0:
182,186,31015,1,0,0:0:0:0:
84,196,31109,5,0,0:0:0:0:
15,117,31203,1,0,0:0:0:0:
48,20,31297,1,0,0:0:0:0:
149,0,31390,1,0,0:0:0:0:
112,97,31484,6,0,L|178:90,3,48.9999985046387
239,54,31671,2,0,L|287:48,3,48.9999985046387
239,54,31859,6,0,B|275:232|275:232|269:186|306:142,1,251.999992309571
381,117,32140,1,0,0:0:0:0:
374,243,32234,6,0,P|443:235|376:219,1,195.999994018555
289,164,32515,1,0,0:0:0:0:
329,332,32609,6,0,P|372:357|429:358,1,97.9999970092774
251,262,32796,2,0,P|226:304|226:359,1,97.9999970092774
185,180,32984,1,0,0:0:0:0:
130,99,33077,1,0,0:0:0:0:
74,18,33171,6,0,L|96:125,1,97.9999970092774
118,357,33359,6,0,B|85:199|85:199|101:252|150:271,1,251.999992309571
251,262,33640,1,0,0:0:0:0:
211,341,33734,5,0,0:0:0:0:
251,262,33827,1,0,0:0:0:0:
337,241,33921,1,0,0:0:0:0:
377,162,34014,1,0,0:0:0:0:
344,78,34109,6,0,B|311:84|285:114|275:156|270:210|338:241|338:241|368:203|423:198|423:198|396:182|378:162|378:162|384:169,1,377.999988464356
206,96,34484,6,0,P|189:147|195:200,1,105.000004005432
489,257,34671,2,0,P|509:209|500:153,1,105.000004005432
269,37,34859,2,0,P|219:5|164:17,1,105.000004005432
411,303,35046,2,0,P|458:348|509:347,1,105.000004005432
337,241,35234,5,0,0:0:0:0:
244,228,35327,1,0,0:0:0:0:
156,264,35421,1,0,0:0:0:0:
61,254,35515,1,0,0:0:0:0:
19,168,35609,5,0,0:0:0:0:
129,136,35702,1,0,0:0:0:0:
27,130,35796,5,0,0:0:0:0:
137,98,35889,1,0,0:0:0:0:
35,92,35984,5,0,0:0:0:0:
27,130,36359,5,0,0:0:0:0:
19,168,36734,5,0,0:0:0:0:
129,136,36921,1,0,0:0:0:0:
35,92,37109,6,0,L|49:12,1,70
129,136,37296,2,0,L|115:216,1,70
227,187,37484,5,0,0:0:0:0:
211,261,37577,1,0,0:0:0:0:
154,310,37671,1,0,0:0:0:0:
79,316,37765,1,0,0:0:0:0:
15,275,37859,6,0,L|97:286,1,77.0000023498536
382,318,38046,1,0,0:0:0:0:
420,321,38140,1,0,0:0:0:0:
458,325,38234,5,0,0:0:0:0:
437,251,38327,1,0,0:0:0:0:
455,176,38421,1,0,0:0:0:0:
476,93,38515,1,0,0:0:0:0:
422,17,38609,1,0,0:0:0:0:
322,24,38702,1,0,0:0:0:0:
281,107,38796,1,0,0:0:0:0:
303,188,38890,1,0,0:0:0:0:
298,265,38984,6,0,L|277:347,1,77.0000023498536
95,157,39171,1,0,0:0:0:0:
163,192,39265,1,0,0:0:0:0:
231,227,39359,6,0,L|210:309,1,77.0000023498536
27,122,39546,1,0,0:0:0:0:
95,157,39640,1,0,0:0:0:0:
163,192,39734,6,0,L|142:274,1,77.0000023498536
58,306,39921,1,0,0:0:0:0:
76,231,40015,1,0,0:0:0:0:
95,157,40109,6,0,L|232:228,1,154.000004699707
298,265,40390,1,0,0:0:0:0:
366,300,40484,6,0,L|346:209,1,77.0000023498536
419,41,40671,2,0,L|439:132,1,77.0000023498536
231,227,40859,5,0,0:0:0:0:
263,142,40952,1,0,0:0:0:0:
345,103,41046,1,0,0:0:0:0:
436,117,41140,1,0,0:0:0:0:
495,188,41234,5,0,0:0:0:0:
397,171,41327,1,0,0:0:0:0:
308,218,41421,5,0,0:0:0:0:
210,201,41514,1,0,0:0:0:0:
129,136,41609,6,0,L|232:153,1,90.9999958343508
0,241,41796,1,0,0:0:0:0:
81,298,41890,6,0,L|184:281,1,90.9999958343508
210,201,42077,1,0,0:0:0:0:
291,258,42171,6,0,L|409:240,1,112
439,91,42359,6,0,L|328:107,1,112
129,136,42546,1,0,0:0:0:0:
230,90,42640,6,0,L|209:202,1,112
133,274,42827,1,0,0:0:0:0:
32,228,42921,6,0,L|53:340,1,112
306,345,43109,5,0,0:0:0:0:
302,322,43202,1,0,0:0:0:0:
282,298,43296,5,0,0:0:0:0:
287,275,43390,1,0,0:0:0:0:
291,257,43484,5,0,0:0:0:0:
365,267,43577,1,0,0:0:0:0:
430,228,43671,1,0,0:0:0:0:
455,157,43765,1,0,0:0:0:0:
428,86,43859,6,0,L|412:171,1,77.0000023498536
282,89,44046,1,0,0:0:0:0:
208,64,44140,1,0,0:0:0:0:
134,39,44234,6,0,L|117:123,1,77.0000023498536
291,257,44421,1,0,0:0:0:0:
210,213,44514,1,0,0:0:0:0:
119,217,44609,5,0,0:0:0:0:
213,242,44702,1,0,0:0:0:0:
302,201,44796,1,0,0:0:0:0:
344,112,44890,1,0,0:0:0:0:
307,12,44984,5,0,0:0:0:0:
316,88,45077,1,0,0:0:0:0:
325,164,45171,1,0,0:0:0:0:
334,241,45265,1,0,0:0:0:0:
343,317,45359,5,0,0:0:0:0:
250,280,45452,1,0,0:0:0:0:
167,338,45546,1,0,0:0:0:0:
77,295,45639,1,0,0:0:0:0:
233,254,45734,5,0,0:0:0:0:
150,312,45828,1,0,0:0:0:0:
60,269,45921,1,0,0:0:0:0:
52,168,46015,1,0,0:0:0:0:
136,113,46109,5,0,0:0:0:0:
147,196,46202,1,0,0:0:0:0:
172,96,46296,5,0,0:0:0:0:
183,179,46389,1,0,0:0:0:0:
250,128,46484,6,0,P|232:39|150:14,1,181.999991668702
172,96,46765,1,0,0:0:0:0:
328,160,46859,6,0,L|335:237,1,77.0000023498536
342,313,47046,5,0,0:0:0:0:
334,236,47139,1,0,0:0:0:0:
328,160,47234,6,0,B|312:22|312:22|324:63|355:78,1,195.999994018555
403,121,47515,1,0,0:0:0:0:
253,199,47609,5,0,0:0:0:0:
178,238,47702,1,0,0:0:0:0:
255,228,47796,5,0,0:0:0:0:
180,267,47889,1,0,0:0:0:0:
181,153,47984,6,0,L|140:52,1,97.9999970092774
253,199,48171,1,0,0:0:0:0:
178,238,48265,1,0,0:0:0:0:
103,277,48359,6,0,L|62:176,1,97.9999970092774
255,228,48546,1,0,0:0:0:0:
180,267,48640,1,0,0:0:0:0:
105,306,48734,6,0,L|64:205,1,97.9999970092774
252,313,48921,1,0,0:0:0:0:
324,359,49015,1,0,0:0:0:0:
392,314,49108,5,0,0:0:0:0:
327,272,49202,1,0,0:0:0:0:
427,245,49296,5,0,0:0:0:0:
370,209,49390,1,0,0:0:0:0:
435,163,49484,6,0,P|362:131|284:212,1,154.000004699707
255,228,49765,1,0,0:0:0:0:
433,132,49859,6,0,P|360:100|282:181,1,154.000004699707
253,197,50140,1,0,0:0:0:0:
178,216,50234,1,0,0:0:0:0:
102,205,50327,1,0,0:0:0:0:
48,149,50421,1,0,0:0:0:0:
41,72,50515,1,0,0:0:0:0:
90,13,50609,6,0,B|79:117|79:117|88:87|112:72,1,154.000004699707
190,51,50890,1,0,0:0:0:0:
178,216,50984,6,0,B|189:320|189:320|180:290|162:279,1,154.000004699707
76,181,51265,1,0,0:0:0:0:
204,240,51359,6,0,B|215:344|215:344|206:314|188:303,1,154.000004699707
102,205,51640,1,0,0:0:0:0:
157,153,51733,1,0,0:0:0:0:
233,146,51827,1,0,0:0:0:0:
297,186,51921,1,0,0:0:0:0:
324,257,52015,1,0,0:0:0:0:
303,330,52109,5,0,0:0:0:0:
326,299,52202,1,0,0:0:0:0:
359,280,52296,1,0,0:0:0:0:
397,276,52390,1,0,0:0:0:0:
434,286,52484,5,0,0:0:0:0:
378,235,52577,1,0,0:0:0:0:
366,160,52671,1,0,0:0:0:0:
402,94,52765,1,0,0:0:0:0:
471,64,52859,5,0,0:0:0:0:
479,93,52952,1,0,0:0:0:0:
469,176,53046,1,0,0:0:0:0:
447,196,53139,1,0,0:0:0:0:
362,198,53234,5,0,0:0:0:0:
333,188,53327,1,0,0:0:0:0:
252,224,53421,5,0,0:0:0:0:
223,234,53514,1,0,0:0:0:0:
149,183,53609,5,0,0:0:0:0:
120,173,53702,1,0,0:0:0:0:
91,161,53796,1,0,0:0:0:0:
62,149,53890,1,0,0:0:0:0:
33,137,53984,5,0,0:0:0:0:
7,208,54077,1,0,0:0:0:0:
31,280,54171,1,0,0:0:0:0:
93,323,54265,1,0,0:0:0:0:
168,320,54359,5,0,0:0:0:0:
216,251,54452,1,0,0:0:0:0:
295,223,54546,1,0,0:0:0:0:
375,244,54640,1,0,0:0:0:0:
429,307,54734,5,0,0:0:0:0:
341,292,54827,1,0,0:0:0:0:
291,217,54921,1,0,0:0:0:0:
288,126,55015,1,0,0:0:0:0:
223,60,55109,5,0,0:0:0:0:
124,73,55202,1,0,0:0:0:0:
84,165,55296,1,0,0:0:0:0:
136,250,55390,1,0,0:0:0:0:
132,350,55484,5,0,0:0:0:0:
174,332,55577,1,0,0:0:0:0:
267,273,55671,5,0,0:0:0:0:
225,255,55764,1,0,0:0:0:0:
176,170,55859,5,0,0:0:0:0:
218,152,55952,1,0,0:0:0:0:
284,74,56046,5,0,0:0:0:0:
242,56,56139,1,0,0:0:0:0:
314,165,56234,5,0,0:0:0:0:
350,155,56327,1,0,0:0:0:0:
380,130,56421,1,0,0:0:0:0:
397,96,56515,1,0,0:0:0:0:
399,58,56609,5,0,0:0:0:0:
346,113,56702,1,0,0:0:0:0:
328,187,56796,1,0,0:0:0:0:
350,260,56890,1,0,0:0:0:0:
405,312,56984,5,0,0:0:0:0:
411,274,57077,1,0,0:0:0:0:
417,236,57171,1,0,0:0:0:0:
423,198,57265,1,0,0:0:0:0:
282,248,57359,5,0,0:0:0:0:
288,286,57453,1,0,0:0:0:0:
294,324,57547,1,0,0:0:0:0:
300,363,57640,1,0,0:0:0:0:
187,195,57734,5,0,0:0:0:0:
105,183,57827,1,0,0:0:0:0:
45,238,57921,1,0,0:0:0:0:
51,320,58015,1,0,0:0:0:0:
119,367,58109,5,0,0:0:0:0:
116,275,58202,1,0,0:0:0:0:
72,193,58296,5,0,0:0:0:0:
68,100,58389,1,0,0:0:0:0:
104,13,58484,5,0,0:0:0:0:
218,14,58577,1,0,0:0:0:0:
154,97,58671,5,0,0:0:0:0:
255,88,58764,1,0,0:0:0:0:
214,177,58859,5,0,0:0:0:0:
303,161,58952,1,0,0:0:0:0:
273,250,59046,5,0,0:0:0:0:
351,228,59139,1,0,0:0:0:0:
331,306,59234,5,0,0:0:0:0:
404,289,59327,1,0,0:0:0:0:
432,221,59421,1,0,0:0:0:0:
392,158,59515,1,0,0:0:0:0:
316,154,59609,5,0,0:0:0:0:
222,197,59702,1,0,0:0:0:0:
136,140,59796,1,0,0:0:0:0:
138,37,59890,1,0,0:0:0:0:
228,0,59984,6,0,L|223:37,1,36.749998878479
216,92,61484,6,0,L|228:-8,1,56
122,65,61671,1,0,0:0:0:0:
184,110,61765,1,0,0:0:0:0:
245,156,61859,6,0,L|257:56,1,56
162,124,62046,1,0,0:0:0:0:
224,169,62140,1,0,0:0:0:0:
285,215,62234,6,0,L|297:115,1,56
205,180,62421,1,0,0:0:0:0:
267,225,62515,1,0,0:0:0:0:
328,271,62609,5,0,0:0:0:0:
368,93,62796,1,0,0:0:0:0:
102,235,62984,6,0,L|97:153,1,56
21,268,63171,1,0,0:0:0:0:
70,323,63264,1,0,0:0:0:0:
145,318,63358,1,0,0:0:0:0:
70,323,63546,5,0,0:0:0:0:
145,318,63639,1,0,0:0:0:0:
187,258,63733,5,0,0:0:0:0:
202,235,63827,1,0,0:0:0:0:
298,212,63921,5,0,0:0:0:0:
313,189,64015,1,0,0:0:0:0:
294,95,64109,6,0,L|355:104,1,56
408,328,64296,1,0,0:0:0:0:
497,308,64390,1,0,0:0:0:0:
405,308,64484,6,0,L|440:221,1,56
482,113,64671,1,0,0:0:0:0:
453,184,64765,1,0,0:0:0:0:
425,256,64859,6,0,L|371:233,1,56
313,189,65046,1,0,0:0:0:0:
284,260,65140,1,0,0:0:0:0:
256,332,65234,6,0,L|211:312,1,28
216,344,65327,2,0,L|171:324,1,28
177,355,65421,1,0,0:0:0:0:
313,189,65609,1,0,0:0:0:0:
256,332,65796,5,0,0:0:0:0:
216,344,65890,1,0,0:0:0:0:
177,355,65984,2,0,L|186:287,1,56
203,188,66171,1,0,0:0:0:0:
129,211,66264,1,0,0:0:0:0:
56,234,66358,1,0,0:0:0:0:
198,177,66546,5,0,0:0:0:0:
124,200,66639,1,0,0:0:0:0:
51,223,66734,5,0,0:0:0:0:
35,142,66827,1,0,0:0:0:0:
74,69,66921,1,0,0:0:0:0:
149,37,67015,1,0,0:0:0:0:
229,59,67109,5,0,0:0:0:0:
260,86,67202,1,0,0:0:0:0:
299,101,67296,1,0,0:0:0:0:
341,101,67390,1,0,0:0:0:0:
380,86,67484,6,0,B|392:154|474:163|474:163|428:172|397:195|376:286|506:296|478:224,1,336
474,163,67859,1,0,0:0:0:0:
328,210,67952,6,0,P|334:269|365:312,1,112
443,351,68140,1,0,0:0:0:0:
328,210,68234,6,0,P|262:206|212:240,1,112
183,300,68421,1,0,0:0:0:0:
310,167,68515,6,0,P|245:183|208:231,1,112
183,300,68702,1,0,0:0:0:0:
116,337,68795,5,0,0:0:0:0:
44,313,68889,1,0,0:0:0:0:
13,244,68984,5,0,0:0:0:0:
14,220,69077,1,0,0:0:0:0:
17,100,69171,5,0,0:0:0:0:
18,119,69265,1,0,0:0:0:0:
99,65,69359,6,0,P|71:29|28:14,1,77.0000023498536
105,162,69546,2,0,P|148:152|184:114,1,77.0000023498536
232,70,69734,1,0,0:0:0:0:
297,31,69827,1,0,0:0:0:0:
372,39,69921,1,0,0:0:0:0:
427,90,70015,1,0,0:0:0:0:
428,165,70109,6,0,L|418:251,1,77.0000023498536
248,375,70296,2,0,L|262:279,1,77.0000023498536
334,171,70484,6,0,B|326:246|326:246|349:296|349:296|340:373,1,181.999991668702
317,164,70765,1,0,0:0:0:0:
248,375,70859,6,0,L|262:279,1,90.9999958343508
228,379,71046,1,0,0:0:0:0:
207,118,71140,6,0,L|193:214,1,90.9999958343508
177,126,71327,2,0,L|161:218,1,90.9999958343508
39,370,71515,6,0,L|53:274,1,90.9999958343508
62,268,71702,1,0,0:0:0:0:
14,201,71796,6,0,L|30:109,1,90.9999958343508
120,30,71984,5,0,0:0:0:0:
238,109,72077,5,0,0:0:0:0:
272,99,72171,1,0,0:0:0:0:
406,32,72265,5,0,0:0:0:0:
388,37,72358,1,0,0:0:0:0:
371,43,72452,1,0,0:0:0:0:
354,49,72546,6,0,L|371:104,1,56
484,203,72734,2,0,L|466:141,1,56
272,99,72921,2,0,L|289:154,1,56
315,223,73109,5,0,0:0:0:0:
248,252,73202,1,0,0:0:0:0:
181,281,73296,1,0,0:0:0:0:
114,310,73390,1,0,0:0:0:0:
47,339,73484,5,0,0:0:0:0:
81,264,73577,1,0,0:0:0:0:
157,231,73671,1,0,0:0:0:0:
235,254,73765,1,0,0:0:0:0:
280,323,73859,5,0,0:0:0:0:
279,308,73952,1,0,0:0:0:0:
279,293,74046,1,0,0:0:0:0:
280,277,74140,1,0,0:0:0:0:
282,262,74233,5,0,0:0:0:0:
237,193,74327,1,0,0:0:0:0:
159,170,74421,1,0,0:0:0:0:
83,203,74515,1,0,0:0:0:0:
49,278,74610,5,0,0:0:0:0:
49,262,74703,1,0,0:0:0:0:
49,247,74797,1,0,0:0:0:0:
48,231,74891,1,0,0:0:0:0:
47,216,74984,5,0,0:0:0:0:
81,141,75077,1,0,0:0:0:0:
157,108,75171,1,0,0:0:0:0:
235,131,75265,1,0,0:0:0:0:
280,200,75359,5,0,0:0:0:0:
279,184,75452,1,0,0:0:0:0:
279,169,75546,1,0,0:0:0:0:
280,153,75640,1,0,0:0:0:0:
281,138,75734,5,0,0:0:0:0:
356,124,75827,1,0,0:0:0:0:
432,111,75921,6,0,L|514:100,1,56
295,121,76109,1,0,0:0:0:0:
370,107,76202,1,0,0:0:0:0:
446,94,76296,6,0,L|527:82,1,56
451,323,76484,5,0,0:0:0:0:
466,326,76577,1,0,0:0:0:0:
481,329,76671,1,0,0:0:0:0:
496,332,76765,1,0,0:0:0:0:
512,336,76859,5,0,0:0:0:0:
442,305,76952,1,0,0:0:0:0:
371,273,77046,1,0,0:0:0:0:
301,242,77140,1,0,0:0:0:0:
230,211,77234,5,0,0:0:0:0:
247,210,77328,1,0,0:0:0:0:
262,210,77422,1,0,0:0:0:0:
277,209,77516,1,0,0:0:0:0:
293,208,77608,5,0,0:0:0:0:
220,233,77702,1,0,0:0:0:0:
147,258,77796,1,0,0:0:0:0:
74,283,77890,1,0,0:0:0:0:
2,308,77984,5,0,0:0:0:0:
17,311,78077,1,0,0:0:0:0:
32,314,78171,1,0,0:0:0:0:
47,317,78265,1,0,0:0:0:0:
63,321,78359,5,0,0:0:0:0:
54,244,78452,1,0,0:0:0:0:
46,167,78546,1,0,0:0:0:0:
38,91,78640,1,0,0:0:0:0:
30,14,78734,5,0,0:0:0:0:
120,33,78827,1,0,0:0:0:0:
180,102,78921,5,0,0:0:0:0:
269,120,79014,1,0,0:0:0:0:
361,136,79109,6,0,L|449:155,1,77.0000023498536
192,89,79296,1,0,0:0:0:0:
281,107,79389,1,0,0:0:0:0:
373,123,79484,6,0,L|461:142,1,77.0000023498536
287,241,79671,2,0,L|381:266,1,77.0000023498536
330,111,79859,6,0,L|418:130,1,77.0000023498536
244,229,80046,2,0,L|338:254,1,77.0000023498536
291,101,80234,6,0,L|379:120,1,77.0000023498536
205,219,80421,2,0,L|299:244,1,77.0000023498536
139,103,80609,6,0,L|145:143,1,38.5000011749268
97,96,80702,2,0,L|103:136,1,38.5000011749268
64,89,80796,6,0,L|85:219,1,112
110,340,80984,1,0,0:0:0:0:
184,357,81077,1,0,0:0:0:0:
256,333,81171,1,0,0:0:0:0:
305,276,81265,1,0,0:0:0:0:
239,309,81359,5,0,0:0:0:0:
258,235,81452,1,0,0:0:0:0:
237,162,81546,1,0,0:0:0:0:
181,111,81640,1,0,0:0:0:0:
106,96,81734,5,0,0:0:0:0:
174,156,81827,1,0,0:0:0:0:
263,176,81921,1,0,0:0:0:0:
350,149,82015,1,0,0:0:0:0:
413,82,82109,6,0,L|333:92,1,56
448,211,82296,2,0,L|521:204,1,56
337,318,82484,5,0,0:0:0:0:
271,244,82577,1,0,0:0:0:0:
175,218,82671,1,0,0:0:0:0:
81,247,82765,1,0,0:0:0:0:
18,323,82859,5,0,0:0:0:0:
107,302,82952,1,0,0:0:0:0:
23,273,83046,5,0,0:0:0:0:
111,251,83139,1,0,0:0:0:0:
27,222,83234,5,0,0:0:0:0:
115,200,83327,1,0,0:0:0:0:
31,171,83422,5,0,0:0:0:0:
119,149,83515,1,0,0:0:0:0:
35,120,83609,5,0,0:0:0:0:
149,108,83702,1,0,0:0:0:0:
264,96,83796,1,0,0:0:0:0:
379,85,83890,1,0,0:0:0:0:
494,73,83984,6,0,P|469:130|471:76,1,175
494,73,84359,5,0,0:0:0:0:
458,141,84546,1,0,0:0:0:0:
494,73,84734,1,0,0:0:0:0:
502,206,84921,6,0,P|463:220|412:201,1,77.0000023498536
330,93,85109,1,0,0:0:0:0:
305,74,85202,1,0,0:0:0:0:
284,169,85296,5,0,0:0:0:0:
254,178,85390,1,0,0:0:0:0:
204,287,85484,5,0,0:0:0:0:
133,256,85577,1,0,0:0:0:0:
90,195,85671,1,0,0:0:0:0:
86,119,85765,1,0,0:0:0:0:
122,52,85859,5,0,0:0:0:0:
106,127,85952,1,0,0:0:0:0:
90,202,86046,1,0,0:0:0:0:
74,277,86140,1,0,0:0:0:0:
58,353,86234,5,0,0:0:0:0:
98,331,86327,1,0,0:0:0:0:
212,341,86421,1,0,0:0:0:0:
252,318,86515,1,0,0:0:0:0:
70,336,86609,5,0,0:0:0:0:
110,314,86702,1,0,0:0:0:0:
224,324,86796,1,0,0:0:0:0:
264,301,86890,1,0,0:0:0:0:
412,291,86984,5,0,0:0:0:0:
462,234,87077,1,0,0:0:0:0:
479,159,87171,1,0,0:0:0:0:
458,86,87265,1,0,0:0:0:0:
404,32,87359,6,0,L|425:122,1,77.0000023498536
293,85,87546,1,0,0:0:0:0:
216,78,87640,1,0,0:0:0:0:
139,71,87734,6,0,L|159:160,1,77.0000023498536
385,169,87921,1,0,0:0:0:0:
308,162,88015,1,0,0:0:0:0:
231,155,88109,5,0,0:0:0:0:
223,238,88202,1,0,0:0:0:0:
191,165,88296,5,0,0:0:0:0:
183,248,88389,1,0,0:0:0:0:
174,333,88484,5,0,0:0:0:0:
89,301,88577,1,0,0:0:0:0:
46,221,88671,1,0,0:0:0:0:
65,133,88765,1,0,0:0:0:0:
137,78,88859,5,0,0:0:0:0:
164,106,88952,1,0,0:0:0:0:
198,123,89046,1,0,0:0:0:0:
236,128,89140,1,0,0:0:0:0:
273,119,89234,5,0,0:0:0:0:
354,53,89327,1,0,0:0:0:0:
456,76,89421,1,0,0:0:0:0:
502,169,89515,1,0,0:0:0:0:
457,263,89609,1,0,0:0:0:0:
356,287,89702,6,0,L|228:274,1,77.0000023498536
223,203,89890,1,0,0:0:0:0:
178,271,89984,1,0,0:0:0:0:
213,193,90077,6,0,L|101:183,1,97.9999970092774
356,287,90265,6,0,L|240:276,1,97.9999970092774
178,271,90452,1,0,0:0:0:0:
80,262,90546,6,0,L|177:270,1,97.9999970092774
312,201,90734,1,0,0:0:0:0:
350,123,90827,6,0,L|234:117,1,97.9999970092774
443,147,91015,2,0,L|427:55,1,77.0000023498536
224,42,91202,5,0,0:0:0:0:
192,62,91295,1,0,0:0:0:0:
171,95,91389,1,0,0:0:0:0:
166,133,91484,5,0,0:0:0:0:
97,164,91577,1,0,0:0:0:0:
64,232,91671,1,0,0:0:0:0:
81,305,91765,1,0,0:0:0:0:
142,351,91859,5,0,0:0:0:0:
149,259,91952,1,0,0:0:0:0:
130,169,92046,1,0,0:0:0:0:
85,89,92140,1,0,0:0:0:0:
18,25,92234,5,0,0:0:0:0:
28,77,92327,1,0,0:0:0:0:
65,115,92421,1,0,0:0:0:0:
117,128,92515,1,0,0:0:0:0:
167,111,92609,5,0,0:0:0:0:
190,80,92702,1,0,0:0:0:0:
339,68,92796,1,0,0:0:0:0:
316,99,92889,1,0,0:0:0:0:
248,206,92984,5,0,0:0:0:0:
271,253,93077,1,0,0:0:0:0:
313,287,93171,1,0,0:0:0:0:
365,299,93265,1,0,0:0:0:0:
417,287,93359,5,0,0:0:0:0:
402,284,93452,1,0,0:0:0:0:
388,272,93546,5,0,0:0:0:0:
372,269,93640,1,0,0:0:0:0:
357,276,93734,5,0,0:0:0:0:
295,321,93827,1,0,0:0:0:0:
220,332,93921,1,0,0:0:0:0:
148,306,94015,1,0,0:0:0:0:
97,249,94109,5,0,0:0:0:0:
193,237,94202,1,0,0:0:0:0:
242,154,94296,1,0,0:0:0:0:
208,63,94390,1,0,0:0:0:0:
116,34,94484,6,0,B|142:174|142:174|146:138|165:111,1,195.999994018555
227,40,94765,6,0,L|246:141,1,97.9999970092774
325,87,94952,1,0,0:0:0:0:
343,63,95046,6,0,L|362:164,1,97.9999970092774
457,223,95234,1,0,0:0:0:0:
481,240,95328,6,0,L|379:261,1,97.9999970092774
206,237,95515,6,0,B|274:225|274:225|317:197|317:197|397:182,1,195.999994018555
217,321,95796,2,0,P|175:320|128:267,1,97.9999970092774
225,112,95984,6,0,B|200:174|206:237|206:237|188:199|151:186,1,195.999994018555
133,65,96265,2,0,P|169:29|232:23,1,97.9999970092774
373,48,96452,1,0,0:0:0:0:
399,65,96546,6,0,P|365:99|318:110,1,97.9999970092774
74,145,96734,1,0,0:0:0:0:
64,165,96827,1,0,0:0:0:0:
59,188,96921,1,0,0:0:0:0:
61,211,97015,6,0,L|79:293,1,77.0000023498536
179,156,97202,1,0,0:0:0:0:
153,84,97295,1,0,0:0:0:0:
88,48,97389,1,0,0:0:0:0:
14,65,97484,5,0,0:0:0:0:
77,121,97577,1,0,0:0:0:0:
157,143,97671,1,0,0:0:0:0:
240,128,97765,1,0,0:0:0:0:
307,77,97859,5,0,0:0:0:0:
328,152,97952,1,0,0:0:0:0:
348,226,98046,1,0,0:0:0:0:
369,300,98140,1,0,0:0:0:0:
390,374,98234,5,0,0:0:0:0:
410,342,98327,1,0,0:0:0:0:
276,320,98421,1,0,0:0:0:0:
295,287,98514,1,0,0:0:0:0:
358,364,98609,5,0,0:0:0:0:
377,331,98702,1,0,0:0:0:0:
243,309,98796,1,0,0:0:0:0:
262,276,98889,1,0,0:0:0:0:
435,220,98984,5,0,0:0:0:0:
493,172,99077,1,0,0:0:0:0:
507,98,99171,1,0,0:0:0:0:
469,32,99265,1,0,0:0:0:0:
398,6,99359,5,0,0:0:0:0:
363,19,99452,1,0,0:0:0:0:
283,95,99546,1,0,0:0:0:0:
244,89,99640,1,0,0:0:0:0:
137,23,99734,5,0,0:0:0:0:
109,103,99827,1,0,0:0:0:0:
82,183,99921,1,0,0:0:0:0:
99,266,100015,1,0,0:0:0:0:
72,346,100109,5,0,0:0:0:0:
163,340,100202,1,0,0:0:0:0:
91,309,100296,5,0,0:0:0:0:
182,303,100389,1,0,0:0:0:0:
275,296,100484,5,0,0:0:0:0:
374,264,100577,1,0,0:0:0:0:
420,169,100671,1,0,0:0:0:0:
382,71,100765,1,0,0:0:0:0:
285,32,100859,6,0,L|299:117,1,77.0000023498536
389,167,101046,1,0,0:0:0:0:
351,69,101140,1,0,0:0:0:0:
254,29,101234,6,0,L|267:113,1,77.0000023498536
286,198,101421,5,0,0:0:0:0:
294,243,101515,1,0,0:0:0:0:
65,198,101609,5,0,0:0:0:0:
57,243,101703,1,0,0:0:0:0:
176,221,101796,5,0,0:0:0:0:
177,267,101890,1,0,0:0:0:0:
41,204,101984,1,0,0:0:0:0:
33,249,102077,6,0,L|19:360,1,97.9999970092774
131,151,102265,6,0,L|145:40,1,97.9999970092774
237,113,102452,1,0,0:0:0:0:
335,123,102546,6,0,L|223:110,1,97.9999970092774
325,212,102734,1,0,0:0:0:0:
411,181,102827,6,0,P|431:130|419:78,1,97.9999970092774
247,243,103015,2,0,P|227:294|239:346,1,97.9999970092774
414,329,103203,1,0,0:0:0:0:
387,316,103296,1,0,0:0:0:0:
359,308,103390,1,0,0:0:0:0:
330,304,103484,5,0,0:0:0:0:
255,356,103577,1,0,0:0:0:0:
164,365,103671,1,0,0:0:0:0:
80,328,103765,1,0,0:0:0:0:
26,254,103859,5,0,0:0:0:0:
63,243,103952,1,0,0:0:0:0:
170,187,104046,1,0,0:0:0:0:
205,172,104140,1,0,0:0:0:0:
327,168,104234,5,0,0:0:0:0:
301,80,104327,1,0,0:0:0:0:
231,22,104421,1,0,0:0:0:0:
140,13,104515,1,0,0:0:0:0:
60,56,104609,5,0,0:0:0:0:
94,73,104702,1,0,0:0:0:0:
210,98,104796,1,0,0:0:0:0:
244,114,104890,1,0,0:0:0:0:
344,183,104984,5,0,0:0:0:0:
325,271,105077,1,0,0:0:0:0:
252,324,105171,1,0,0:0:0:0:
163,314,105265,1,0,0:0:0:0:
104,245,105359,5,0,0:0:0:0:
142,243,105452,1,0,0:0:0:0:
180,240,105546,1,0,0:0:0:0:
218,237,105640,1,0,0:0:0:0:
256,234,105734,5,0,0:0:0:0:
230,146,105827,1,0,0:0:0:0:
156,94,105921,1,0,0:0:0:0:
66,100,106015,1,0,0:0:0:0:
0,161,106109,5,0,0:0:0:0:
36,157,106202,1,0,0:0:0:0:
74,152,106296,1,0,0:0:0:0:
112,147,106390,1,0,0:0:0:0:
150,142,106484,5,0,0:0:0:0:
230,146,106577,1,0,0:0:0:0:
145,194,106671,5,0,0:0:0:0:
225,198,106764,1,0,0:0:0:0:
140,246,106859,5,0,0:0:0:0:
220,250,106952,1,0,0:0:0:0:
135,298,107047,5,0,0:0:0:0:
215,302,107140,1,0,0:0:0:0:
130,350,107234,5,0,0:0:0:0:
214,348,107327,1,0,0:0:0:0:
298,346,107421,1,0,0:0:0:0:
382,341,107515,1,0,0:0:0:0:
463,297,107609,5,0,0:0:0:0:
485,208,107702,1,0,0:0:0:0:
445,115,107796,1,0,0:0:0:0:
364,42,107890,1,0,0:0:0:0:
249,24,107984,6,0,L|257:92,1,38.5000011749268
154,237,108171,6,0,L|150:183,1,38.5000011749268
40,31,108359,6,0,L|43:77,1,38.5000011749268
376,185,108546,1,0,0:0:0:0:
337,277,108640,1,0,0:0:0:0:
319,105,108734,5,0,0:0:0:0:
280,197,108828,1,0,0:0:0:0:
416,95,108921,6,0,L|457:60,1,38.5000011749268
454,135,109015,2,0,L|499:100,1,38.5000011749268
240,287,109109,2,0,P|188:220|202:139,1,154.000004699707
256,192,109484,12,0,112484,0:0:0:0:
