osu file format v14

[General]
AudioFilename: audio.mp3
AudioLeadIn: 0
PreviewTime: 20878
Countdown: 0
SampleSet: Soft
StackLeniency: 0.7
Mode: 0
LetterboxInBreaks: 0
WidescreenStoryboard: 0

[Editor]
DistanceSpacing: 1.7
BeatDivisor: 4
GridSize: 8
TimelineZoom: 1.9

[Metadata]
Title:Oregon Spirit
TitleUnicode:Oregon Spirit
Artist:Rolf Krueger
ArtistUnicode:Rolf Krueger
Creator:Metronome
Version:Hard
Source:The Eric Andre Show
Tags:investigate 311 dab
BeatmapID:1534859
BeatmapSetID:726999

[Difficulty]
HPDrainRate:5
CircleSize:4
OverallDifficulty:7
ApproachRate:8.3
SliderMultiplier:1.4
SliderTickRate:1

[Events]
//Background and Video events
0,0,"TaH2EUg.jpg",0,0
//Break Periods
//Storyboard Layer 0 (Background)
//Storyboard Layer 1 (Fail)
//Storyboard Layer 2 (Pass)
//Storyboard Layer 3 (Foreground)
//Storyboard Sound Samples

[TimingPoints]
628,375,4,2,0,30,1,0
2878,-83.3333333333333,4,2,0,30,0,0
5878,-100,4,2,0,30,0,0
7940,-100,4,2,0,10,0,0
8315,-100,4,2,0,20,0,0
8878,-83.3333333333333,4,2,0,30,0,0
29878,-105.263157894737,4,2,0,30,0,0

[HitObjects]
449,178,640,5,0,0:0:0:0:
408,274,827,1,0,0:0:0:0:
344,189,1015,1,0,0:0:0:0:
264,74,1202,5,4,0:0:0:0:
256,311,1577,1,4,0:0:0:0:
449,178,1940,2,12,P|418:138|376:119,1,70,4|0,0:0|0:0,0:0:0:0:
264,74,2315,5,0,0:0:0:0:
215,178,2503,1,0,0:0:0:0:
168,282,2690,1,0,0:0:0:0:
256,311,2878,6,4,B|291:269|291:269|258:253|258:253|306:215|296:157,1,167.999994873047,4|0,0:0|0:0,0:0:0:0:
214,181,3440,1,8,0:0:0:0:
449,178,3815,5,0,0:0:0:0:
198,163,4190,1,8,0:0:0:0:
431,156,4565,5,0,0:0:0:0:
472,60,4753,1,0,0:0:0:0:
367,71,4940,1,0,0:0:0:0:
114,108,5128,5,8,0:0:0:0:
367,71,5503,1,8,0:0:0:0:
114,108,5878,2,0,B|111:156|111:156|147:161|147:161|126:222|212:291,1,210
255,312,6628,1,0,0:0:0:0:
331,309,6815,1,0,0:0:0:0:
388,256,7003,1,0,0:0:0:0:
400,159,7190,6,0,B|332:153|304:203|298:224|298:224|273:188|225:182,1,210
228,288,7940,5,0,3:0:0:0:
228,288,8034,1,0,3:0:0:0:
228,288,8128,1,0,3:0:0:0:
331,309,8315,1,4,3:0:0:0:
298,223,8503,1,0,3:0:0:0:
213,180,8690,1,0,3:0:0:0:
93,176,8878,6,0,P|104:232|126:261,1,83.9999974365235
228,288,9253,1,0,0:0:0:0:
213,180,9440,1,8,0:0:0:0:
160,92,9628,6,0,B|122:71|122:71|82:68,1,83.9999974365235
93,176,10003,1,0,0:0:0:0:
149,263,10190,2,0,B|187:284|187:284|227:287,1,83.9999974365235
318,331,10565,2,0,B|328:288|328:288|320:249,1,83.9999974365235,8|0,0:0|0:0,0:0:0:0:
268,93,10940,5,8,0:0:0:0:
146,209,11128,2,0,P|111:168|105:122,1,83.9999974365235
231,29,11503,1,0,0:0:0:0:
248,195,11690,1,0,0:0:0:0:
153,57,11878,2,4,P|196:35|258:28,1,83.9999974365235,0|0,0:0|0:0,0:0:0:0:
355,103,12253,5,0,0:0:0:0:
320,249,12440,2,0,B|289:274|289:274|246:285,1,83.9999974365235
200,141,12815,2,0,B|202:101|202:101|223:62,1,83.9999974365235
338,176,13190,1,0,0:0:0:0:
193,221,13378,1,0,0:0:0:0:
283,100,13565,2,0,B|319:83|319:83|363:84,1,83.9999974365235
406,212,13940,6,0,P|373:247|301:241,1,83.9999974365235,4|0,0:0|0:0,0:0:0:0:
193,221,14315,1,0,0:0:0:0:
283,100,14503,2,0,L|347:195,1,83.9999974365235,4|0,0:0|0:0,0:0:0:0:
200,132,14878,2,0,L|153:62,1,83.9999974365235
70,168,15253,5,0,0:0:0:0:
193,221,15440,1,0,0:0:0:0:
231,86,15628,2,0,B|193:65|193:65|153:62,1,83.9999974365235
17,55,16003,1,0,0:0:0:0:
70,168,16190,2,0,B|89:206|89:206|121:231,1,83.9999974365235
235,159,16565,2,0,B|193:149|193:149|153:158,1,83.9999974365235
195,286,16940,5,0,0:0:0:0:
317,229,17128,2,0,P|338:183|340:139,1,83.9999974365235,0|0,2:0|0:0,0:0:0:0:
231,86,17503,2,0,P|239:135|263:172,1,83.9999974365235,0|0,2:0|0:0,0:0:0:0:
404,238,17878,5,0,0:0:0:0:
375,98,18065,1,0,0:0:0:0:
317,229,18253,1,0,0:0:0:0:
441,159,18440,1,0,0:0:0:0:
298,144,18628,2,0,B|258:161|258:161|232:193,1,83.9999974365235
286,307,19003,1,0,0:0:0:0:
411,237,19190,6,0,L|453:124,1,83.9999974365235
317,229,19565,2,0,L|287:307,1,83.9999974365235
232,192,19940,6,4,B|241:138|241:138|271:152|271:152|271:90|324:62,1,167.999994873047,4|0,0:0|0:0,0:0:0:0:
380,154,20503,1,0,0:0:0:0:
394,261,20690,1,0,0:0:0:0:
374,380,20878,6,0,P|321:357|297:330,1,83.9999974365235
288,221,21253,1,0,0:0:0:0:
394,261,21440,1,8,0:0:0:0:
496,304,21628,6,0,B|490:346|490:346|470:381,1,83.9999974365235
374,380,22003,1,0,0:0:0:0:
300,302,22190,2,0,B|285:260|285:260|287:220,1,83.9999974365235
282,119,22565,2,0,B|325:127|325:127|357:150,1,83.9999974365235
462,234,22940,5,0,0:0:0:0:
339,294,23128,2,0,P|286:310|236:288,1,83.9999974365235
143,219,23503,1,0,0:0:0:0:
286,220,23690,1,0,0:0:0:0:
175,128,23878,2,0,P|123:127|69:169,1,83.9999974365235
214,218,24253,5,0,0:0:0:0:
275,89,24440,2,0,B|252:52|252:52|219:28,1,83.9999974365235
339,294,25003,6,0,B|368:299|368:299|443:271,2,55.9999982910157
266,250,25378,1,0,0:0:0:0:
193,144,25565,2,0,B|229:127|229:127|273:128,1,83.9999974365235
413,169,25940,6,0,P|453:206|459:261,1,83.9999974365235,4|0,0:0|0:0,0:0:0:0:
339,294,26315,1,0,0:0:0:0:
241,205,26503,2,0,L|279:110,1,83.9999974365235,4|0,0:0|0:0,0:0:0:0:
137,175,26878,2,0,L|105:252,1,83.9999974365235
241,205,27253,5,0,0:0:0:0:
291,71,27440,1,0,0:0:0:0:
381,181,27628,2,0,B|385:224|385:224|372:262,1,83.9999974365235,0|0,2:0|2:0,2:0:0:0:
241,205,28003,1,0,0:0:0:0:
152,93,28190,2,0,B|194:99|194:99|228:122,1,83.9999974365235,0|0,2:0|2:0,2:0:0:0:
311,195,28565,5,0,0:0:0:0:
449,232,28753,2,0,P|405:256|362:261,1,83.9999974365235,0|0,2:0|2:0,2:0:0:0:
241,205,29128,2,0,P|225:157|230:113,1,83.9999974365235,0|0,2:0|2:0,2:0:0:0:
368,104,29503,5,0,0:0:0:0:
449,232,29690,1,0,0:0:0:0:
285,233,29878,6,0,B|243:244|228:267|228:267|243:244|240:185,1,132.999996448517,4|0,0:0|0:0,0:0:0:0:
344,167,30440,2,0,B|330:147|330:147|303:145|303:145|269:118|213:124,1,132.999996448517,4|4,1:2|1:2,0:0:0:0:
112,218,31190,2,0,P|157:256|232:265,1,132.999996448517,4|4,1:2|0:0,0:0:0:0:
438,171,31940,1,4,1:2:0:0:
