osu file format v14

[General]
AudioFilename: audio.mp3
AudioLeadIn: 0
PreviewTime: 107874
Countdown: 0
SampleSet: Soft
StackLeniency: 0.3
Mode: 0
LetterboxInBreaks: 0
WidescreenStoryboard: 0

[Editor]
Bookmarks: 70950
DistanceSpacing: 1.8
BeatDivisor: 8
GridSize: 16
TimelineZoom: 2.3

[Metadata]
Title:Tada Koe Hitotsu
TitleUnicode:ただ声一つ
Artist:Rokudenashi
ArtistUnicode:ロクデナシ
Creator:keevy
Version:Regret
Source:
Tags:japanese pop the voice jpop j-pop female vocal vocalist
BeatmapID:3554008
BeatmapSetID:1738898

[Difficulty]
HPDrainRate:5.5
CircleSize:4
OverallDifficulty:9
ApproachRate:9.4
SliderMultiplier:2
SliderTickRate:1

[Events]
//Background and Video events
0,0,"BG.png",0,0
//Break Periods
//Storyboard Layer 0 (Background)
//Storyboard Layer 1 (Fail)
//Storyboard Layer 2 (Pass)
//Storyboard Layer 3 (Foreground)
//Storyboard Layer 4 (Overlay)
//Storyboard Sound Samples

[TimingPoints]
1013,461.538461538462,4,2,1,45,1,0
1013,-66.6666666666667,4,2,1,45,0,0
1474,-100,4,2,1,45,0,0
1937,-66.6666666666667,4,2,1,45,0,0
2398,-100,4,2,1,45,0,0
2859,-66.6666666666667,4,2,1,45,0,0
3320,-100,4,2,1,45,0,0
3783,-66.6666666666667,4,2,1,45,0,0
4706,-66.6666666666667,4,2,1,45,0,0
5051,-100,4,2,1,45,0,0
5629,-50,4,2,1,45,0,0
6089,-66.6666666666667,4,2,1,45,0,0
6552,-100,4,2,1,45,0,0
7013,-133.333333333333,4,2,1,45,0,0
7937,-100,4,2,1,45,0,0
8398,-66.6666666666667,4,2,1,45,0,0
8859,-100,4,2,1,45,0,0
9320,-66.6666666666667,4,2,1,45,0,0
9782,-100,4,2,1,45,0,0
10705,-133.333333333333,4,2,1,45,0,0
12089,-66.6666666666667,4,2,1,45,0,0
12551,-100,4,2,1,45,0,0
13013,-66.6666666666667,4,2,1,45,0,0
13474,-100,4,2,1,45,0,0
13936,-133.333333333333,4,2,1,55,0,0
15782,-100,4,2,1,55,0,0
17166,-66.6666666666667,4,2,1,55,0,0
17628,-100,4,2,1,55,0,0
19013,-57.1428571428571,4,2,1,55,0,0
21320,-80,4,2,1,55,0,0
22705,-57.1428571428571,4,2,1,55,0,0
24089,-80,4,2,1,55,0,0
24551,-66.6666666666667,4,2,1,55,0,0
25013,-100,4,2,1,55,0,0
25936,-66.6666666666667,4,2,1,55,0,0
26859,-80,4,2,1,55,0,0
28243,-100,4,2,1,55,0,0
28705,-66.6666666666667,4,2,1,55,0,0
30551,-100,4,2,1,40,0,0
32397,-80,4,2,1,45,0,0
33320,-80,4,2,1,60,0,0
34243,-80,4,2,1,80,0,1
35628,-66.6666666666667,4,2,1,80,0,1
37474,-50,4,2,1,80,0,1
38859,-44.4444444444445,4,2,1,80,0,1
40705,-57.1428571428571,4,2,1,80,0,1
45320,-50,4,2,1,80,0,1
46705,-45.4545454545455,4,2,1,80,0,1
47628,-50,4,2,1,80,0,1
49013,-50,4,2,1,65,0,0
50397,-66.6666666666667,4,2,1,65,0,0
55474,-66.6666666666667,4,2,1,70,0,0
56397,-58.8235294117647,4,2,1,70,0,0
61705,-50,4,2,1,70,0,0
61936,-57.1428571428571,4,2,1,70,0,0
63089,-90.9090909090909,4,2,1,70,0,0
63320,-50,4,2,1,70,0,0
63782,-100,4,2,1,55,0,0
69782,-66.6666666666667,4,2,1,55,0,0
70013,-50,4,2,1,55,0,0
70243,-66.6666666666667,4,2,1,55,0,0
74397,-83.3333333333333,4,2,1,55,0,0
77628,-66.6666666666667,4,2,1,55,0,0
78551,-57.1428571428571,4,2,1,50,0,0
79705,-76.9230769230769,4,2,1,50,0,0
81551,-66.6666666666667,4,2,1,50,0,0
93205,-66.6666666666667,4,2,1,5,0,0
93320,-66.6666666666667,4,2,1,50,0,0
100705,-66.6666666666667,4,2,1,80,0,0
104397,-100,4,2,1,80,0,0
106243,-80,4,2,1,80,0,0
107166,-133.333333333333,4,2,1,80,0,0
108089,-50,4,2,1,80,0,1
108551,-66.6666666666667,4,2,1,80,0,1
109013,-58.8235294117647,4,2,1,80,0,1
111782,-50,4,2,1,80,0,1
113628,-58.8235294117647,4,2,1,80,0,1
115474,-50,4,2,1,80,0,1
118243,-45.4545454545455,4,2,1,80,0,1
122859,-50,4,2,1,80,0,1
137628,-57.1428571428571,4,2,1,85,0,0
150551,-50,4,2,1,85,0,0
151013,-57.1428571428571,4,2,1,85,0,0
152397,-57.1428571428571,4,2,1,5,0,0
153089,-100,4,2,1,65,0,0
153724,-333.333333333333,4,2,1,65,0,0
155628,-333.333333333333,4,2,1,45,0,0
157474,-333.333333333333,4,2,1,25,0,0
157705,-333.333333333333,4,2,1,5,0,0

[Colours]
Combo1 : 255,255,187
Combo2 : 255,223,255

[HitObjects]
189,339,1013,6,0,P|224:292|158:166,1,150.000005722046,2|2,0:0|0:0,0:0:0:0:
189,130,1359,1,2,0:0:0:0:
176,126,1474,2,0,P|141:151|140:174,1,50,2|2,0:0|0:0,0:0:0:0:
67,152,1705,2,0,P|71:194|90:207,1,50,2|2,0:0|0:0,0:0:0:0:
234,0,1937,6,0,P|239:54|308:123,1,150.000005722046,2|2,0:0|0:0,0:0:0:0:
397,120,2283,1,2,0:0:0:0:
411,126,2398,2,0,P|385:95|363:90,1,50,2|2,0:0|0:0,0:0:0:0:
345,191,2628,5,2,0:0:0:0:
345,200,2744,1,2,0:0:0:0:
351,207,2859,2,0,P|409:255|441:329,1,150.000005722046,2|2,0:0|0:0,0:0:0:0:
347,365,3206,1,2,0:0:0:0:
339,361,3320,2,0,P|344:309|391:277,1,100,2|2,0:0|0:0,0:0:0:0:
458,237,3667,5,2,0:0:0:0:
451,245,3783,1,2,0:0:0:0:
380,133,4013,1,2,0:0:0:0:
268,275,4244,1,2,0:0:0:0:
179,118,4475,1,2,0:0:0:0:
7,249,4705,6,0,P|68:212|180:210,1,150.000005722046,2|2,0:0|0:0,0:0:0:0:
227,196,5051,1,2,0:0:0:0:
234,205,5167,2,0,P|213:250|204:253,1,50,2|2,0:0|0:0,0:0:0:0:
243,318,5397,2,0,P|193:322|186:316,1,50,2|2,0:0|0:0,0:0:0:0:
114,328,5629,6,0,P|174:302|319:323,1,200,2|2,0:0|0:0,0:0:0:0:
372,350,5975,1,2,0:0:0:0:
378,342,6089,2,0,P|369:274|337:262,1,75.0000028610231,2|2,0:0|0:0,0:0:0:0:
481,138,6320,5,2,0:0:0:0:
489,149,6437,1,2,0:0:0:0:
489,158,6552,2,0,P|464:203|416:215,1,100,2|2,0:0|0:0,0:0:0:0:
358,158,6898,1,2,0:0:0:0:
348,151,7013,2,0,P|342:103|373:69,1,75.0000028610231,2|2,0:0|0:0,0:0:0:0:
445,10,7360,5,2,0:0:0:0:
454,6,7475,2,0,P|451:58|426:93,1,75.0000028610231,2|2,0:0|0:0,0:0:0:0:
319,236,7937,2,0,P|271:225|256:169,1,100,2|2,0:0|0:0,0:0:0:0:
0,21,8398,6,0,P|85:42|114:141,1,150.000005722046,2|2,0:0|0:0,0:0:0:0:
159,154,8743,1,2,0:0:0:0:
172,152,8859,2,0,P|193:135|191:96,1,50,2|2,0:0|0:0,0:0:0:0:
268,83,9089,2,0,P|263:56|229:38,1,50,2|2,0:0|0:0,0:0:0:0:
42,180,9320,6,0,P|77:265|90:348,1,150.000005722046,2|2,0:0|0:0,0:0:0:0:
196,362,9666,1,2,0:0:0:0:
201,356,9782,2,0,P|180:313|158:307,1,50,2|2,0:0|0:0,0:0:0:0:
373,248,10013,5,2,0:0:0:0:
373,261,10128,1,2,0:0:0:0:
367,267,10243,2,0,P|338:309|279:324,1,100,2|2,0:0|0:0,0:0:0:0:
237,180,10589,1,2,0:0:0:0:
227,176,10705,2,0,P|255:217|259:264,1,75.0000028610231,2|2,0:0|0:0,0:0:0:0:
331,169,11051,5,2,0:0:0:0:
339,165,11166,1,2,0:0:0:0:
387,54,11397,1,2,0:0:0:0:
292,86,11628,1,2,0:0:0:0:
430,140,11859,1,2,0:0:0:0:
227,176,12089,6,0,P|163:150|158:45,1,150.000005722046,2|2,0:0|0:0,0:0:0:0:
114,6,12436,1,2,0:0:0:0:
119,0,12551,2,0,P|87:18|80:42,1,50,2|2,0:0|0:0,0:0:0:0:
7,23,12782,2,0,P|6:59|23:77,1,50,2|2,0:0|0:0,0:0:0:0:
229,89,13013,6,0,P|287:67|393:65,1,150.000005722046,2|2,0:0|0:0,0:0:0:0:
450,142,13359,1,2,0:0:0:0:
450,150,13474,2,0,P|411:132|404:110,1,50,2|2,0:0|0:0,0:0:0:0:
466,2,13705,5,2,0:0:0:0:
478,0,13820,1,2,0:0:0:0:
490,2,13936,2,0,P|467:48|463:95,1,75.0000028610231,2|2,0:0|0:0,0:0:0:0:
333,155,14282,1,2,0:0:0:0:
325,149,14397,2,0,P|353:191|355:240,1,75.0000028610231,2|2,0:0|0:0,0:0:0:0:
434,269,14743,5,2,0:0:0:0:
426,264,14859,1,2,0:0:0:0:
376,341,15089,1,2,0:0:0:0:
257,378,15320,1,2,0:0:0:0:
120,353,15551,1,2,0:0:0:0:
56,290,15782,6,0,P|23:248|22:201,2,100,2|0|0,0:0|0:0|0:0,0:0:0:0:
138,261,16474,2,0,P|134:211|103:174,2,100,2|0|2,0:0|0:0|0:0,0:0:0:0:
35,120,17166,6,0,P|133:143|205:89,1,150.000005722046,2|0,0:0|0:0,0:0:0:0:
330,39,17628,6,0,P|302:78|300:138,2,100,2|0|2,0:0|0:0|0:0,0:0:0:0:
416,72,18320,2,0,P|412:121|383:161,2,100,2|2|0,0:0|0:0|0:0,0:0:0:0:
309,205,19013,5,2,0:0:0:0:
476,177,19243,1,2,0:0:0:0:
177,73,19474,5,2,0:0:0:0:
138,138,19705,1,0,0:0:0:0:
74,98,19936,1,0,0:0:0:0:
113,34,20166,1,2,0:0:0:0:
113,34,20628,1,2,0:0:0:0:
113,34,20859,2,0,P|95:107|151:217,1,175.00000166893,2|2,0:0|0:0,0:0:0:0:
317,343,21320,6,0,P|347:296|356:215,2,125,2|0|0,0:0|0:0|0:0,0:0:0:0:
237,313,22013,2,0,P|245:251|277:198,2,125,2|2|0,0:0|0:0|0:0,0:0:0:0:
347,144,22705,5,2,0:0:0:0:
184,168,22936,1,2,0:0:0:0:
399,15,23166,5,2,0:0:0:0:
486,75,23397,1,0,0:0:0:0:
477,0,23628,1,0,0:0:0:0:
411,90,23859,1,2,0:0:0:0:
411,90,24089,2,0,P|390:149|428:234,1,125,2|2,0:0|0:0,0:0:0:0:
483,360,24551,2,0,P|410:315|320:322,1,150.000005722046,2|2,0:0|0:0,0:0:0:0:
297,372,25013,6,0,P|274:342|285:269,1,100,2|0,0:0|0:0,0:0:0:0:
347,150,25474,1,2,0:0:0:0:
229,196,25705,1,2,0:0:0:0:
166,49,25936,2,0,P|156:135|101:192,1,150.000005722046,2|0,0:0|0:0,0:0:0:0:
81,17,26397,2,0,P|36:76|31:149,1,150.000005722046,2|2,0:0|0:0,0:0:0:0:
53,232,26859,6,0,P|109:221|188:267,2,125,2|0|0,0:0|0:0|0:0,0:0:0:0:
169,246,27551,1,2,0:0:0:0:
53,232,28013,1,2,0:0:0:0:
248,229,28243,2,0,P|245:282|213:318,1,100,2|2,0:0|0:0,0:0:0:0:
142,109,28705,6,0,P|134:186|170:247,2,150.000005722046,2|0|0,0:0|0:0|0:0,0:0:0:0:
248,229,29397,1,2,0:0:0:0:
220,91,29628,2,0,P|256:155|247:228,2,150.000005722046,2|2|2,0:0|0:0|0:0,0:0:0:0:
165,30,30551,6,0,P|222:66|370:30,1,200,2|2,0:0|0:0,0:0:0:0:
423,25,31243,1,2,0:0:0:0:
423,25,31474,2,0,P|413:96|379:117,2,100,2|0|2,0:0|0:0|0:0,0:0:0:0:
369,201,32166,5,2,0:0:0:0:
369,201,32397,2,0,P|316:161|243:161,1,125,2|0,0:0|0:0,0:0:0:0:
334,279,32859,2,0,P|272:272|224:234,1,125,2|2,0:0|0:0,0:0:0:0:
69,111,33320,6,0,P|122:176|113:340,1,250,2|0,0:0|0:0,0:0:0:0:
0,68,34013,6,0,P|16:48|55:33,1,62.5,0|0,1:2|1:2,0:0:0:0:
211,14,34243,6,0,P|165:73|153:146,1,125,6|0,3:2|1:2,0:0:0:0:
148,60,34589,1,0,1:2:0:0:
255,223,34705,6,0,P|257:179|238:151,1,62.5,10|0,0:0|0:0,0:0:0:0:
182,202,34936,1,2,3:2:0:0:
327,125,35051,5,0,1:2:0:0:
377,225,35166,2,0,P|364:148|287:94,1,125,2|0,3:2|0:0,0:0:0:0:
383,22,35513,1,0,0:0:0:0:
487,110,35628,6,0,P|442:107|419:82,1,75.0000028610231,10|0,0:0|0:0,0:0:0:0:
483,264,35859,2,0,P|473:210|437:182,1,75.0000028610231,2|0,3:0|1:2,0:0:0:0:
334,382,36089,6,0,P|363:295|430:243,1,150.000005722046,2|0,3:2|0:0,0:0:0:0:
262,240,36436,1,0,1:2:0:0:
343,201,36551,2,0,P|294:215|265:241,1,75.0000028610231,10|0,0:0|0:0,0:0:0:0:
104,168,36782,5,2,1:2:0:0:
169,245,36897,1,0,1:2:0:0:
126,131,37013,2,0,P|153:218|143:312,1,150.000005722046,2|0,3:2|0:0,0:0:0:0:
104,336,37359,5,0,1:2:0:0:
207,384,37474,2,0,P|99:321|38:335,1,100,10|0,0:0|0:0,0:0:0:0:
0,225,37705,2,0,P|57:228|121:203,1,100,10|0,0:0|1:2,0:0:0:0:
195,242,37878,5,0,1:2:0:0:
195,242,37936,2,0,B|130:115|197:172|136:49,1,200,2|0,3:2|1:2,0:0:0:0:
65,44,38282,5,0,1:2:0:0:
237,43,38397,2,0,P|164:24|103:43,1,100,10|0,0:0|0:0,0:0:0:0:
254,168,38628,5,2,3:2:0:0:
94,114,38743,1,0,1:2:0:0:
316,60,38859,2,0,P|292:113|212:153,1,112.500004291535,2|0,3:2|0:0,0:0:0:0:
377,213,39089,5,2,3:2:0:0:
312,48,39205,1,0,1:2:0:0:
401,345,39320,2,0,P|359:257|384:127,1,225.000008583069,10|2,0:0|1:2,0:0:0:0:
399,60,39666,1,0,1:2:0:0:
192,124,39782,6,0,P|242:155|267:222,1,112.500004291535,2|0,3:2|0:0,0:0:0:0:
234,274,40013,1,2,1:2:0:0:
279,127,40128,1,0,1:2:0:0:
71,234,40243,6,0,P|122:207|206:220,1,112.500004291535,10|0,0:0|0:0,0:0:0:0:
306,224,40474,1,2,3:2:0:0:
190,114,40589,1,0,1:2:0:0:
314,229,40705,6,0,B|283:130|357:168|317:42,1,175.00000166893,2|0,3:2|0:0,0:0:0:0:
483,31,41051,1,0,1:2:0:0:
483,31,41109,1,0,1:2:0:0:
483,31,41166,2,0,P|438:64|427:120,1,87.500000834465,10|0,1:2|0:0,0:0:0:0:
478,169,41397,5,10,0:0:0:0:
315,49,41513,1,8,0:0:0:0:
103,180,41628,6,0,P|157:128|288:104,1,175.00000166893,6|0,3:2|1:0,0:0:0:0:
112,97,41974,1,0,1:0:0:0:
361,209,42089,6,0,P|345:145|321:115,1,87.500000834465,10|0,0:0|0:0,0:0:0:0:
242,78,42320,1,2,1:2:0:0:
393,209,42436,1,0,1:2:0:0:
193,346,42551,6,0,P|244:276|264:191,1,175.00000166893,2|0,3:2|1:2,0:0:0:0:
207,266,42897,1,0,1:0:0:0:
410,306,43013,6,0,P|342:297|317:264,1,87.500000834465,10|0,0:0|0:0,0:0:0:0:
512,336,43243,1,2,1:2:0:0:
329,271,43359,1,0,1:2:0:0:
452,159,43474,6,0,P|453:213|488:258,1,87.500000834465,2|0,3:2|0:0,0:0:0:0:
285,378,43705,2,0,P|289:301|271:273,1,87.500000834465,0|0,0:0|1:2,0:0:0:0:
209,236,43878,5,0,1:2:0:0:
209,236,43936,2,0,B|113:205|133:257|11:208,1,175.00000166893,10|2,0:2|1:2,0:0:0:0:
138,196,44282,1,0,1:0:0:0:
0,338,44397,6,0,P|33:313|97:308,1,87.500000834465,2|0,0:0|0:0,0:0:0:0:
166,324,44628,1,0,3:2:0:0:
26,212,44743,1,0,1:2:0:0:
195,124,44859,6,0,P|165:182|126:201,1,87.500000834465,10|0,1:2|0:0,0:0:0:0:
70,35,45089,1,2,1:2:0:0:
295,150,45205,5,0,1:2:0:0:
295,150,45263,1,0,1:2:0:0:
295,150,45320,2,0,B|405:167|345:88|498:116,1,200,2|0,3:2|0:0,0:0:0:0:
352,92,45666,5,0,1:2:0:0:
471,282,45782,2,0,P|447:206|417:179,1,100,10|0,0:0|0:0,0:0:0:0:
487,105,46013,1,2,3:2:0:0:
314,169,46128,1,0,1:2:0:0:
512,26,46243,2,0,P|463:21|416:57,1,100,2|0,3:2|0:0,0:0:0:0:
420,195,46474,1,2,1:2:0:0:
512,15,46589,1,0,1:2:0:0:
409,209,46705,2,0,P|396:151|365:103,1,110.000003356934,10|0,0:0|0:0,0:0:0:0:
264,5,46936,2,0,P|244:64|216:108,1,110.000003356934,2|0,1:2|1:2,0:0:0:0:
37,123,47109,5,0,1:2:0:0:
37,123,47166,2,0,B|166:134|94:196|238:218,1,220.000006713867,2|2,3:2|0:2,0:0:0:0:
136,109,47513,5,0,1:2:0:0:
16,303,47628,2,0,P|47:250|63:209,1,100,10|0,0:0|0:0,0:0:0:0:
247,227,47859,1,2,3:2:0:0:
119,95,47974,1,0,1:2:0:0:
324,197,48089,1,2,1:2:0:0:
144,251,48205,1,8,0:2:0:0:
286,36,48320,2,0,P|265:93|261:154,1,100,0|0,1:2|0:0,0:0:0:0:
403,179,48551,5,10,0:0:0:0:
266,239,48666,1,8,0:0:0:0:
477,246,48782,1,8,0:0:0:0:
296,117,48897,1,8,0:0:0:0:
277,326,49013,5,6,3:2:0:0:
151,112,49243,1,2,1:2:0:0:
74,369,49474,1,10,0:0:0:0:
9,324,49589,1,2,0:0:0:0:
19,248,49705,2,0,P|81:229|145:240,1,100,2|0,0:0|0:0,0:0:0:0:
266,48,49936,6,0,P|238:148|254:282,1,200,2|0,3:2|1:2,0:0:0:0:
313,349,50282,1,0,0:0:0:0:
377,307,50397,2,0,P|357:280|312:269,1,75.0000028610231,10|2,0:0|0:0,0:0:0:0:
243,243,50628,2,0,P|195:261|169:293,1,75.0000028610231,2|0,0:0|0:0,0:0:0:0:
14,98,50859,6,0,P|102:146|188:133,1,150.000005722046,2|0,3:2|1:2,0:0:0:0:
238,142,51205,1,0,0:0:0:0:
238,142,51320,2,0,P|237:111|204:81,1,75.0000028610231,10|0,0:0|0:0,0:0:0:0:
462,119,51551,5,2,1:2:0:0:
462,119,51666,1,0,1:2:0:0:
462,119,51782,2,0,P|382:137|280:244,1,225.000008583069,2|0,3:2|0:0,0:0:0:0:
333,304,52243,2,0,P|439:272|512:188,1,225.000008583069,10|0,0:0|0:0,0:0:0:0:
462,119,52705,6,0,P|452:81|429:41,1,75.0000028610231,2|0,3:2|0:0,0:0:0:0:
359,68,52936,2,0,P|376:101|385:137,1,75.0000028610231,2|0,1:2|0:0,0:0:0:0:
275,230,53166,5,10,0:0:0:0:
199,251,53282,1,2,0:0:0:0:
130,212,53397,2,0,P|118:178|131:133,1,75.0000028610231,2|0,0:0|0:0,0:0:0:0:
249,22,53628,6,0,P|243:93|200:171,1,150.000005722046,2|2,3:2|1:2,0:0:0:0:
43,92,54051,2,0,P|33:68|31:54,4,25.0000009536744,2|10|2|2|2,0:0|0:0|0:0|0:0|0:0,0:0:0:0:
130,212,54320,2,0,P|128:249|101:302,1,75.0000028610231,2|0,1:2|0:0,0:0:0:0:
264,384,54551,6,0,P|218:279|221:225,1,150.000005722046,2|0,3:2|1:2,0:0:0:0:
254,170,54897,1,0,0:0:0:0:
327,208,55013,2,0,P|363:200|399:145,1,75.0000028610231,10|0,0:0|0:0,0:0:0:0:
414,49,55243,2,0,P|378:57|342:112,1,75.0000028610231,2|0,1:2|0:0,0:0:0:0:
327,208,55474,6,0,P|352:285|439:340,1,150.000005722046,2|10,3:2|0:0,0:0:0:0:
491,339,55820,1,8,0:0:0:0:
449,171,55936,2,0,P|426:220|441:266,1,75.0000028610231,2|0,1:2|0:0,0:0:0:0:
403,328,56166,5,10,0:0:0:0:
509,226,56282,1,0,1:2:0:0:
355,113,56397,2,0,P|262:83|151:110,1,170.000003242493,6|2,3:2|1:2,0:0:0:0:
172,86,56743,1,0,0:0:0:0:
100,180,56859,5,14,0:0:0:0:
27,128,56974,1,2,0:0:0:0:
27,42,57089,1,2,0:0:0:0:
40,344,57320,6,0,P|125:296|239:302,1,170.000003242493,2|2,3:2|1:2,0:0:0:0:
214,282,57666,1,0,0:0:0:0:
292,357,57782,5,10,0:0:0:0:
347,297,57897,1,2,0:0:0:0:
336,218,58012,1,2,0:0:0:0:
171,16,58243,6,0,P|175:108|247:190,1,170.000003242493,2|0,3:2|1:2,0:0:0:0:
223,184,58589,1,0,0:0:0:0:
336,218,58705,2,0,P|366:189|385:145,1,85.0000016212464,10|0,0:0|0:0,0:0:0:0:
453,110,58936,2,0,P|453:68|436:23,1,85.0000016212464,2|0,0:0|0:0,0:0:0:0:
357,0,59166,5,0,3:2:0:0:
478,216,59397,1,0,1:2:0:0:
294,136,59628,1,8,0:0:0:0:
157,271,60089,6,0,P|250:301|361:274,1,170.000003242493,6|2,3:2|1:2,0:0:0:0:
340,298,60435,1,0,0:0:0:0:
422,216,60551,5,14,0:0:0:0:
482,274,60666,1,2,0:0:0:0:
478,355,60781,1,2,0:0:0:0:
472,40,61012,6,0,P|399:85|372:83,1,85.0000016212464,2|2,3:2|1:2,0:0:0:0:
320,136,61243,2,0,P|236:116|218:95,1,85.0000016212464,2|0,3:2|0:2,0:0:0:0:
156,206,61474,6,0,P|146:216|134:223,3,28.3333338737488,10|2|2|2,0:0|0:0|0:0|0:0,0:0:0:0:
93,156,61705,2,0,P|51:119|46:47,1,100,0|0,1:2|0:0,0:0:0:0:
259,330,61936,6,0,P|360:306|410:218,1,175.00000166893,2|0,3:2|1:2,0:0:0:0:
404,163,62281,1,0,0:0:0:0:
320,136,62397,2,0,P|275:158|248:197,1,87.500000834465,10|0,0:0|0:0,0:0:0:0:
156,206,62628,2,0,P|145:246|153:293,1,87.500000834465,0|0,1:2|0:0,0:0:0:0:
90,356,62859,5,0,0:0:0:0:
108,22,63089,6,0,P|105:46|108:62,3,27.5000008392334,0|0|0|0,1:2|1:2|1:2|1:2,0:0:0:0:
18,85,63320,2,0,B|68:101|81:157|81:157|114:113|169:120,1,200,2|0,0:0|1:2,0:0:0:0:
234,67,63666,5,0,1:2:0:0:
234,67,63782,2,0,P|248:93|251:119,1,50,6|0,3:2|0:0,0:0:0:0:
173,251,64013,2,0,P|159:225|156:199,1,50,2|0,0:0|0:0,0:0:0:0:
333,125,64243,2,0,P|324:153|308:173,1,50,2|0,3:2|0:0,0:0:0:0:
78,204,64474,2,0,P|88:161|104:143,2,50,2|0|0,0:0|0:0|3:2,0:0:0:0:
333,125,64936,6,0,P|324:153|308:173,1,50,2|0,0:2|0:0,0:0:0:0:
173,251,65167,2,0,P|159:225|156:199,1,50,2|0,3:2|0:0,0:0:0:0:
234,67,65398,2,0,P|248:93|251:119,1,50,2|0,0:2|0:0,0:0:0:0:
494,183,65628,6,0,P|452:136|406:127,1,100,2|2,3:2|0:0,0:0:0:0:
333,125,65974,1,2,0:0:0:0:
333,125,66089,2,0,P|337:154|354:180,1,50,2|0,3:2|0:0,0:0:0:0:
487,59,66320,2,0,P|491:30|508:4,1,50,2|0,0:0|0:0,0:0:0:0:
417,213,66551,6,0,P|376:247|318:247,1,100,2|2,3:2|0:0,0:0:0:0:
257,281,66897,1,2,0:0:0:0:
257,281,67013,2,0,P|250:243|259:217,1,50,2|0,3:2|0:0,0:0:0:0:
178,183,67243,2,0,P|171:221|180:247,1,50,2|0,0:0|0:0,0:0:0:0:
19,316,67474,6,0,P|66:288|121:283,1,100,2|0,3:2|0:0,0:0:0:0:
253,151,67820,2,0,P|247:136|243:124,3,16.6666666666667,2|2|2|2,0:0|0:0|0:0|3:2,0:0:0:0:
120,29,68166,1,2,0:0:0:0:
120,29,68628,6,0,P|117:63|128:83,1,50,2|0,0:0|0:0,0:0:0:0:
168,229,68859,2,0,P|179:196|174:174,1,50,2|0,3:2|0:0,0:0:0:0:
55,123,69089,2,0,P|76:149|98:155,1,50,2|0,0:0|0:0,0:0:0:0:
253,151,69320,5,2,3:2:0:0:
349,310,69551,1,2,0:0:0:0:
431,313,69666,1,2,0:0:0:0:
488,256,69782,2,0,P|490:218|468:175,1,75.0000028610231,2|0,3:2|0:0,0:0:0:0:
456,40,70013,2,0,P|401:87|368:91,1,100,2|0,0:0|0:0,0:0:0:0:
202,15,70243,6,0,P|245:79|245:183,1,150.000005722046,2|2,3:2|0:0,0:0:0:0:
322,221,70589,1,2,0:0:0:0:
322,221,70705,2,0,P|360:205|382:166,1,75.0000028610231,2|0,3:2|0:0,0:0:0:0:
276,293,70936,2,0,P|255:332|252:373,1,75.0000028610231,2|0,0:0|0:0,0:0:0:0:
148,250,71166,6,0,P|116:187|115:107,1,150.000005722046,2|0,3:2|0:0,0:0:0:0:
202,15,71513,2,0,P|210:6|222:1,3,25.0000009536744,2|2|2|2,0:0|0:0|0:0|3:2,0:0:0:0:
46,29,71859,1,2,0:0:0:0:
46,29,72320,6,0,P|27:62|25:107,1,75.0000028610231,2|0,0:0|0:0,0:0:0:0:
148,250,72551,2,0,P|164:215|164:170,1,75.0000028610231,2|0,3:2|0:0,0:0:0:0:
146,102,72782,1,2,0:0:0:0:
258,240,73013,6,0,P|233:309|170:358,1,150.000005722046,2|2,3:2|0:0,0:0:0:0:
92,359,73359,1,2,0:0:0:0:
44,289,73474,2,0,P|45:245|65:203,1,75.0000028610231,2|0,3:2|0:0,0:0:0:0:
146,102,73705,2,0,P|167:140|170:186,1,75.0000028610231,2|0,0:0|0:0,0:0:0:0:
457,76,73936,6,0,P|379:150|333:159,1,150.000005722046,2|2,3:2|0:0,0:0:0:0:
260,161,74282,1,2,0:0:0:0:
260,161,74397,2,0,P|263:135|290:101,1,59.9999981689454,2|0,3:2|0:0,0:0:0:0:
371,234,74628,2,0,P|374:256|396:285,1,59.9999981689454,2|0,0:0|0:0,0:0:0:0:
502,374,74859,6,0,P|445:362|371:370,1,119.999996337891,2|0,3:2|0:0,0:0:0:0:
251,327,75205,2,0,P|238:307|231:301,3,19.9999993896485,2|2|2|2,0:0|0:0|0:0|3:2,0:0:0:0:
340,158,75551,1,2,0:0:0:0:
340,158,76013,6,0,P|324:113|307:91,1,59.9999981689454,2|0,0:0|0:0,0:0:0:0:
131,53,76243,2,0,P|130:89|137:115,1,59.9999981689454,2|0,3:2|0:0,0:0:0:0:
72,200,76474,2,0,P|91:228|119:247,1,59.9999981689454,2|0,0:0|0:0,0:0:0:0:
271,343,76705,6,0,P|251:283|255:212,1,119.999996337891,2|0,3:2|0:0,0:0:0:0:
381,53,77166,2,0,P|382:89|375:115,1,59.9999981689454,2|0,3:2|0:0,0:0:0:0:
440,200,77397,2,0,P|421:228|393:247,1,59.9999981689454,2|0,0:0|0:0,0:0:0:0:
271,343,77628,6,0,P|291:283|285:195,1,150.000005722046,2|0,3:2|1:2,0:0:0:0:
238,134,77974,1,0,1:2:0:0:
238,134,78089,1,0,3:2:0:0:
72,319,78320,1,0,3:2:0:0:
72,319,78551,6,0,P|45:277|42:222,1,87.500000834465,2|0,3:2|0:0,0:0:0:0:
145,130,78782,1,2,0:0:0:0:
183,200,78897,1,2,0:0:0:0:
259,223,79013,2,0,P|298:205|322:169,1,87.500000834465,2|2,0:0|0:0,0:0:0:0:
466,51,79243,2,0,P|439:100|439:145,1,87.500000834465,2|2,0:0|0:0,0:0:0:0:
484,331,79474,5,2,0:0:0:0:
430,269,79589,1,2,0:0:0:0:
350,288,79705,2,0,P|327:328|325:371,1,64.9999970245363,2|2,0:0|0:0,0:0:0:0:
196,76,79936,5,2,0:0:0:0:
248,141,80051,1,2,0:0:0:0:
259,223,80166,1,2,0:0:0:0:
223,295,80282,1,2,0:0:0:0:
155,332,80397,2,0,P|90:306|21:295,1,129.999994049073,2|2,0:0|0:0,0:0:0:0:
0,366,80743,1,2,0:0:0:0:
6,371,80859,2,0,P|37:350|42:313,1,64.9999970245363,2|2,0:0|0:0,0:0:0:0:
122,259,81089,2,0,P|119:221|89:198,1,64.9999970245363,2|2,0:0|0:0,0:0:0:0:
47,71,81320,5,2,0:0:0:0:
119,113,81436,1,2,0:0:0:0:
197,83,81551,2,0,P|220:40|223:5,1,75.0000028610231,2|2,0:0|0:0,0:0:0:0:
460,162,81782,5,2,0:0:0:0:
388,122,81898,1,2,0:0:0:0:
310,150,82013,2,0,P|287:193|284:228,1,75.0000028610231,2|2,0:0|0:0,0:0:0:0:
188,360,82243,5,2,0:0:0:0:
241,305,82359,1,2,0:0:0:0:
317,294,82474,1,2,0:0:0:0:
393,315,82589,1,2,0:0:0:0:
453,362,82705,1,2,0:0:0:0:
453,362,82936,5,2,0:0:0:0:
512,303,83051,1,2,0:0:0:0:
478,229,83166,2,0,P|436:208|397:210,1,75.0000028610231,2|2,0:0|0:0,0:0:0:0:
312,70,83397,5,2,0:0:0:0:
345,142,83512,1,2,0:0:0:0:
323,213,83628,2,0,P|281:234|242:232,1,75.0000028610231,2|2,0:0|0:0,0:0:0:0:
171,357,83859,2,0,P|115:317|102:285,1,75.0000028610231,2|2,0:0|0:0,0:0:0:0:
0,338,84089,5,2,0:0:0:0:
0,338,84320,1,2,0:0:0:0:
0,258,84436,1,2,0:0:0:0:
53,198,84551,2,0,P|100:195|140:215,1,75.0000028610231,2|2,0:0|0:0,0:0:0:0:
221,87,84782,2,0,P|257:129|264:165,1,75.0000028610231,2|2,0:0|0:0,0:0:0:0:
484,304,85013,5,2,0:0:0:0:
432,237,85128,1,2,0:0:0:0:
351,247,85243,2,0,P|320:281|313:320,1,75.0000028610231,2|2,0:0|0:0,0:0:0:0:
256,365,85474,5,2,0:0:0:0:
256,365,85705,1,2,0:0:0:0:
177,370,85820,1,2,0:0:0:0:
113,324,85936,2,0,P|105:300|105:278,1,37.5000014305115,2|2,0:0|0:0,0:0:0:0:
8,92,86166,5,2,0:0:0:0:
189,216,86397,1,2,0:0:0:0:
248,161,86513,1,2,0:0:0:0:
323,179,86628,2,0,P|347:219|349:258,1,75.0000028610231,2|2,0:0|0:0,0:0:0:0:
495,62,86859,5,2,0:0:0:0:
424,106,86974,1,2,0:0:0:0:
346,73,87089,2,0,P|315:37|310:-4,1,75.0000028610231,2|2,0:0|0:0,0:0:0:0:
160,9,87320,2,0,P|166:48|181:81,1,75.0000028610231,2|2,0:0|0:0,0:0:0:0:
25,153,87551,2,0,P|3:110|12:55,1,75.0000028610231,2|2,0:0|0:0,0:0:0:0:
189,216,87782,5,2,0:0:0:0:
177,299,87897,1,2,0:0:0:0:
98,330,88013,2,0,P|52:314|24:287,1,75.0000028610231,2|2,0:0|0:0,0:0:0:0:
274,267,88243,2,0,P|277:230|293:197,1,75.0000028610231,2|2,0:0|0:0,0:0:0:0:
425,372,88474,2,0,P|461:374|499:360,1,75.0000028610231,2|2,0:0|0:0,0:0:0:0:
308,104,88705,5,2,0:0:0:0:
366,35,88820,1,2,0:0:0:0:
453,58,88936,2,0,P|500:82|519:114,1,75.0000028610231,2|2,0:0|0:0,0:0:0:0:
372,310,89166,5,2,0:0:0:0:
309,369,89281,1,2,0:0:0:0:
225,350,89397,2,0,P|178:326|159:294,1,75.0000028610231,2|2,0:0|0:0,0:0:0:0:
170,25,89628,6,0,P|206:87|219:180,1,150.000005722046,2|2,0:0|0:0,0:0:0:0:
150,207,89974,1,2,0:0:0:0:
150,207,90089,2,0,P|102:196|88:146,1,75.0000028610231,2|2,0:0|0:0,0:0:0:0:
11,128,90320,2,0,P|8:94|40:54,1,75.0000028610231,2|2,0:0|0:0,0:0:0:0:
351,104,90551,5,2,0:0:0:0:
374,185,90666,1,2,0:0:0:0:
316,245,90782,2,0,P|282:258|243:251,1,75.0000028610231,2|2,0:0|0:0,0:0:0:0:
7,292,91013,5,2,0:0:0:0:
81,262,91128,1,2,0:0:0:0:
141,313,91244,2,0,P|154:347|147:386,1,75.0000028610231,2|2,0:0|0:0,0:0:0:0:
301,363,91474,6,0,P|375:319|463:304,1,150.000005722046,2|2,0:0|0:0,0:0:0:0:
499,253,91820,1,2,0:0:0:0:
499,253,91936,2,0,P|471:226|427:221,1,75.0000028610231,2|2,0:0|0:0,0:0:0:0:
348,66,92166,2,0,P|298:87|281:113,1,75.0000028610231,2|2,0:0|0:0,0:0:0:0:
112,183,92397,5,2,0:0:0:0:
256,192,92513,12,0,93205,0:0:0:0:
150,293,93320,5,2,0:0:0:0:
150,293,94243,1,2,0:0:0:0:
150,293,95166,1,2,0:0:0:0:
150,293,96089,1,2,0:0:0:0:
250,204,96551,1,2,0:0:0:0:
66,44,97013,5,2,0:0:0:0:
66,44,97936,1,2,0:0:0:0:
66,44,98859,1,2,0:0:0:0:
66,44,99782,1,2,0:0:0:0:
1,166,100243,1,2,0:0:0:0:
208,242,100705,6,0,P|285:192|366:187,1,150.000005722046,0|0,3:2|1:2,0:0:0:0:
404,234,101051,1,0,1:2:0:0:
404,234,101166,2,0,P|423:189|410:145,1,75.0000028610231,0|0,3:2|0:0,0:0:0:0:
278,26,101397,2,0,P|277:78|297:111,1,75.0000028610231,0|0,1:2|0:2,0:0:0:0:
0,26,101628,6,0,P|71:92|98:166,1,150.000005722046,0|0,3:2|1:2,0:0:0:0:
57,220,101974,1,0,1:2:0:0:
57,220,102089,2,0,P|17:189|13:152,1,75.0000028610231,0|0,3:2|0:0,0:0:0:0:
184,46,102320,2,0,P|181:100|167:123,1,75.0000028610231,0|0,1:2|0:2,0:0:0:0:
283,273,102551,6,0,P|207:218|129:209,1,150.000005722046,0|0,3:2|1:2,0:0:0:0:
94,323,102897,1,0,1:2:0:0:
94,323,103013,2,0,P|136:317|158:279,1,75.0000028610231,0|0,3:2|0:0,0:0:0:0:
292,200,103243,2,0,P|281:256|289:292,1,75.0000028610231,0|0,1:2|0:2,0:0:0:0:
501,338,103474,6,0,P|500:249|461:172,1,150.000005722046,0|0,3:2|1:2,0:0:0:0:
215,77,103936,6,0,P|242:151|307:208,1,150.000005722046,0|0,3:2|1:2,0:0:0:0:
94,323,104397,6,0,P|95:275|137:222,1,100,0|0,3:2|1:2,0:0:0:0:
33,186,104743,1,0,1:2:0:0:
33,186,104859,2,0,P|59:143|110:129,1,100,0|0,3:2|1:2,0:0:0:0:
139,15,105320,6,0,P|207:74|257:81,1,100,0|0,3:2|1:2,0:0:0:0:
300,90,105666,1,0,1:2:0:0:
300,90,105782,2,0,P|311:121|307:144,1,50,0|0,3:2|0:0,0:0:0:0:
240,279,106013,2,0,P|223:250|216:211,1,50,0|0,1:2|0:2,0:0:0:0:
440,41,106243,6,0,P|436:125|389:183,1,125,0|0,3:2|1:2,0:0:0:0:
302,222,106705,1,0,3:2:0:0:
68,109,106936,5,2,3:2:0:0:
45,130,107013,5,0,3:2:0:0:
40,150,107089,5,0,3:2:0:0:
44,163,107166,6,2,P|50:221|106:298,1,150.000005722046,14|2,1:2|0:0,0:0:0:0:
314,193,107859,5,0,1:2:0:0:
269,113,107974,1,0,1:2:0:0:
302,222,108089,2,0,P|295:149|350:22,1,200,2|0,3:2|1:2,0:0:0:0:
412,0,108436,1,0,1:2:0:0:
182,69,108551,2,0,P|220:33|255:24,1,75.0000028610231,14|0,0:0|0:0,0:0:0:0:
364,124,108782,1,2,3:2:0:0:
245,14,108897,1,0,1:2:0:0:
129,214,109013,6,0,P|194:154|275:118,1,170.000003242493,2|0,3:2|0:0,0:0:0:0:
344,131,109359,1,0,0:0:0:0:
29,105,109474,2,0,P|71:117|120:109,1,85.0000016212464,10|0,0:0|0:0,0:0:0:0:
5,300,109705,2,0,P|15:339|51:374,1,85.0000016212464,2|0,3:0|1:2,0:0:0:0:
248,352,109936,6,0,P|173:312|73:296,1,170.000003242493,2|0,3:2|0:0,0:0:0:0:
2,318,110282,1,0,1:2:0:0:
187,162,110397,6,0,P|202:208|229:240,1,85.0000016212464,10|0,0:0|0:0,0:0:0:0:
289,284,110628,1,2,1:2:0:0:
418,199,110743,1,0,1:2:0:0:
378,367,110859,2,0,P|373:318|407:184,1,170.000003242493,2|0,3:2|0:0,0:0:0:0:
292,79,111205,1,0,1:2:0:0:
496,70,111320,2,0,P|443:105|399:113,1,85.0000016212464,10|0,0:0|0:0,0:0:0:0:
273,165,111551,2,0,P|223:133|202:103,1,85.0000016212464,10|0,0:0|1:2,0:0:0:0:
128,49,111724,5,0,1:2:0:0:
128,49,111782,2,0,B|110:178|63:94|37:258,1,200,2|0,3:2|1:2,0:0:0:0:
41,123,112128,1,0,1:2:0:0:
169,302,112243,2,0,P|158:241|133:206,1,100,10|0,0:0|0:0,0:0:0:0:
23,139,112474,1,2,3:2:0:0:
198,231,112589,1,0,1:2:0:0:
5,355,112705,2,0,P|47:307|92:290,1,100,2|0,3:2|0:0,0:0:0:0:
237,353,112936,1,2,3:2:0:0:
89,280,113051,1,0,1:2:0:0:
276,188,113166,6,0,P|218:342|216:385,1,200,10|2,0:0|1:2,0:0:0:0:
189,242,113513,1,0,1:2:0:0:
389,191,113628,6,0,P|369:245|330:273,1,85.0000016212464,2|0,3:2|0:0,0:0:0:0:
271,271,113859,1,2,1:2:0:0:
418,196,113974,1,0,1:2:0:0:
264,114,114089,2,0,P|285:167|317:196,1,85.0000016212464,10|0,0:0|0:0,0:0:0:0:
149,116,114320,1,2,3:2:0:0:
302,30,114436,1,0,1:2:0:0:
37,22,114551,6,0,B|145:45|86:80|211:116,1,170.000003242493,2|0,3:2|0:0,0:0:0:0:
135,310,114897,1,0,1:2:0:0:
135,310,114955,1,0,1:2:0:0:
135,310,115013,2,0,P|111:259|109:207,1,85.0000016212464,10|0,1:2|0:0,0:0:0:0:
348,114,115243,5,10,0:0:0:0:
245,184,115359,1,8,0:0:0:0:
302,30,115474,2,0,P|309:101|258:248,1,200,6|0,3:2|1:0,0:0:0:0:
222,282,115820,1,0,1:0:0:0:
421,321,115936,6,0,P|401:265|358:241,1,100,10|0,0:0|0:0,0:0:0:0:
200,202,116166,1,2,1:2:0:0:
364,231,116282,1,0,1:2:0:0:
152,380,116397,6,0,P|113:322|93:182,1,200,2|0,3:2|1:2,0:0:0:0:
126,118,116743,1,0,1:0:0:0:
285,231,116859,2,0,P|282:170|254:131,1,100,10|0,0:0|0:0,0:0:0:0:
142,18,117089,2,0,P|118:75|114:119,1,100,2|0,1:2|1:2,0:0:0:0:
22,274,117320,6,0,P|109:212|227:206,1,200,2|0,3:2|0:0,0:0:0:0:
285,231,117666,1,0,1:2:0:0:
206,368,117782,2,0,P|163:335|153:270,1,100,10|0,0:2|0:0,0:0:0:0:
210,194,118013,5,2,1:2:0:0:
368,275,118128,1,0,1:0:0:0:
232,289,118243,2,0,P|327:237|436:242,1,220.000006713867,2|0,0:0|3:2,0:0:0:0:
490,174,118589,5,0,1:2:0:0:
490,174,118647,1,0,0:0:0:0:
490,174,118705,2,0,P|488:119|443:58,1,110.000003356934,10|0,1:2|0:0,0:0:0:0:
284,18,118936,5,2,1:2:0:0:
337,181,119051,1,0,1:2:0:0:
368,8,119166,2,0,B|367:78|326:112|286:86|243:122|244:219,1,220.000006713867,2|0,3:2|0:0,0:0:0:0:
270,16,119513,1,0,1:2:0:0:
199,254,119628,6,0,P|168:194|173:144,1,110.000003356934,10|0,0:0|0:0,0:0:0:0:
196,70,119859,1,2,3:2:0:0:
106,277,119974,1,0,1:2:0:0:
342,246,120089,6,0,P|285:195|225:175,1,110.000003356934,2|0,3:2|0:0,0:0:0:0:
187,255,120320,1,2,1:2:0:0:
394,164,120436,1,0,1:2:0:0:
321,381,120551,6,0,P|272:327|270:278,1,110.000003356934,10|0,0:0|0:0,0:0:0:0:
440,71,120782,2,0,P|428:147|388:175,1,110.000003356934,2|0,1:2|1:2,0:0:0:0:
254,181,120955,5,0,1:2:0:0:
254,181,121013,2,0,P|154:137|20:148,1,220.000006713867,2|2,3:2|0:2,0:0:0:0:
0,205,121359,1,0,1:2:0:0:
62,36,121474,2,0,P|117:82|129:126,1,110.000003356934,10|0,0:0|0:0,0:0:0:0:
292,272,121705,5,2,3:2:0:0:
119,132,121820,1,0,1:2:0:0:
275,187,121935,1,2,1:2:0:0:
91,269,122051,1,8,0:2:0:0:
246,23,122166,2,0,P|217:79|213:140,1,110.000003356934,0|0,1:2|0:0,0:0:0:0:
395,303,122397,2,0,P|387:236|353:194,1,110.000003356934,10|8,0:0|0:0,0:0:0:0:
110,131,122628,5,8,0:0:0:0:
458,185,122743,1,8,0:0:0:0:
218,384,122859,2,0,P|174:291|185:159,1,200,6|0,3:2|1:2,0:0:0:0:
292,105,123205,1,0,1:2:0:0:
107,36,123320,2,0,P|140:95|191:123,1,100,10|0,0:0|0:0,0:0:0:0:
304,116,123551,2,0,P|368:94|391:49,1,100,2|0,3:2|1:2,0:0:0:0:
512,115,123782,6,0,B|451:241|546:201|473:340,1,200,2|0,3:2|0:0,0:0:0:0:
422,358,124128,1,0,0:0:0:0:
327,283,124243,2,0,P|277:282|233:304,1,100,10|0,0:0|0:0,0:0:0:0:
104,291,124474,2,0,P|46:340|31:389,1,100,2|0,3:0|1:2,0:0:0:0:
204,189,124705,6,0,P|210:86|172:-3,1,200,2|0,3:2|0:0,0:0:0:0:
86,1,125051,1,0,1:2:0:0:
250,96,125166,2,0,P|325:64|344:21,1,100,10|0,0:0|0:0,0:0:0:0:
117,91,125397,2,0,P|58:135|41:186,1,100,2|0,1:2|1:2,0:0:0:0:
28,270,125628,6,0,B|147:234|118:323|219:291,1,200,2|0,3:2|0:0,0:0:0:0:
307,231,125974,1,0,1:2:0:0:
373,353,126089,2,0,P|406:305|396:244,1,100,10|0,0:0|0:0,0:0:0:0:
266,70,126320,1,10,0:0:0:0:
417,136,126436,1,0,1:2:0:0:
499,73,126551,6,0,P|383:107|303:178,1,200,2|0,3:2|1:2,0:0:0:0:
271,54,126897,1,0,1:2:0:0:
297,238,127013,2,0,P|244:195|239:144,1,100,10|0,0:0|0:0,0:0:0:0:
161,34,127243,2,0,P|146:97|110:130,1,100,2|0,3:2|1:2,0:0:0:0:
26,342,127474,6,0,P|60:270|169:205,1,200,2|2,3:2|3:2,0:0:0:0:
233,128,127820,1,0,1:2:0:0:
311,250,127936,2,0,P|355:230|376:185,1,100,10|0,0:0|0:0,0:0:0:0:
505,178,128166,2,0,P|496:106|461:73,1,100,2|0,1:2|1:2,0:0:0:0:
383,95,128397,6,0,P|299:42|188:33,1,200,2|2,3:2|1:2,0:0:0:0:
127,61,128743,1,0,1:2:0:0:
190,206,128859,2,0,P|233:166|235:113,1,100,10|0,0:0|0:0,0:0:0:0:
52,250,129089,2,0,P|37:308|68:358,1,100,2|0,3:2|1:2,0:0:0:0:
285,372,129320,5,2,3:2:0:0:
134,298,129436,1,0,0:0:0:0:
278,280,129551,2,0,P|322:258|350:217,1,100,0|0,0:0|1:2,0:0:0:0:
134,75,129782,5,10,1:2:0:0:
272,196,129897,1,0,0:0:0:0:
299,38,130013,2,0,P|351:8|408:7,1,100,10|8,0:0|0:0,0:0:0:0:
473,65,130186,5,0,0:0:0:0:
473,65,130243,2,0,B|419:181|506:142|459:276,1,200,6|0,3:2|1:0,0:0:0:0:
381,206,130589,1,0,1:0:0:0:
338,334,130705,2,0,P|288:360|224:346,1,100,10|0,0:0|0:0,0:0:0:0:
129,370,130936,2,0,P|66:345|41:285,1,100,2|0,1:2|1:2,0:0:0:0:
88,198,131166,6,0,P|151:147|285:121,1,200,2|0,3:2|1:2,0:0:0:0:
346,141,131513,1,0,1:0:0:0:
254,30,131628,2,0,P|193:67|181:117,1,100,10|0,0:0|0:0,0:0:0:0:
173,248,131859,2,0,P|206:303|264:308,1,100,2|0,1:2|1:2,0:0:0:0:
446,228,132089,6,0,B|324:194|369:277|234:221,1,200,2|0,3:2|0:0,0:0:0:0:
187,170,132436,1,0,1:2:0:0:
116,339,132551,2,0,P|78:295|71:246,1,100,10|0,0:2|0:0,0:0:0:0:
0,149,132782,2,0,P|27:88|78:53,1,100,2|0,1:2|1:0,0:0:0:0:
265,45,133013,6,0,P|293:129|225:248,1,200,2|0,0:0|3:2,0:0:0:0:
157,137,133359,1,0,1:2:0:0:
261,315,133474,2,0,P|327:288|337:246,1,100,10|0,1:2|0:0,0:0:0:0:
476,226,133705,2,0,P|485:166|464:129,1,100,2|0,1:2|1:2,0:0:0:0:
265,45,133936,6,0,B|330:169|349:77|413:221,1,200,2|0,3:2|0:0,0:0:0:0:
481,240,134282,1,0,1:2:0:0:
355,369,134397,2,0,P|290:354|262:315,1,100,10|0,0:0|0:0,0:0:0:0:
195,173,134628,2,0,P|175:231|133:264,1,100,2|0,3:2|1:2,0:0:0:0:
46,300,134801,5,0,1:2:0:0:
46,300,134859,2,0,P|2:180|4:84,1,200,2|2,3:2|1:2,0:0:0:0:
51,19,135205,1,0,1:2:0:0:
195,173,135320,2,0,P|224:122|219:75,1,100,10|0,0:0|0:0,0:0:0:0:
393,10,135551,2,0,P|376:69|393:121,1,100,2|0,1:2|1:2,0:0:0:0:
512,173,135724,5,0,1:2:0:0:
512,173,135782,2,0,B|385:189|467:250|342:279,1,200,2|2,3:2|0:2,0:0:0:0:
195,173,136128,1,0,1:2:0:0:
133,368,136243,2,0,P|100:321|102:260,1,100,10|0,0:0|0:0,0:0:0:0:
298,149,136474,5,2,3:2:0:0:
240,290,136589,1,0,1:2:0:0:
105,193,136705,1,2,1:2:0:0:
228,307,136820,1,8,0:2:0:0:
307,159,136936,2,0,P|314:99|295:53,1,100,0|0,1:2|0:0,0:0:0:0:
62,10,137166,2,0,P|76:78|114:119,1,100,10|0,0:0|0:0,0:0:0:0:
133,368,137397,5,8,0:0:0:0:
202,152,137513,1,8,0:0:0:0:
362,294,137628,2,0,P|436:235|446:126,1,175.00000166893,6|2,3:2|1:2,0:0:0:0:
490,89,137974,1,0,1:2:0:0:
490,89,138089,2,0,P|440:76|401:101,1,87.500000834465,14|0,0:0|0:0,0:0:0:0:
144,222,138320,5,2,0:0:0:0:
227,238,138436,1,2,0:0:0:0:
287,180,138551,2,0,P|298:146|286:87,1,87.500000834465,2|0,3:2|0:0,0:0:0:0:
180,0,138782,2,0,P|159:37|150:94,1,87.500000834465,2|0,0:2|0:2,0:0:0:0:
105,341,139013,6,0,P|42:283|34:197,1,175.00000166893,10|2,0:0|1:2,0:0:0:0:
10,123,139359,1,2,1:2:0:0:
10,123,139474,2,0,P|58:121|95:139,1,87.500000834465,2|2,3:2|0:0,0:0:0:0:
379,193,139705,5,2,0:0:0:0:
325,255,139820,1,2,0:0:0:0:
245,248,139936,2,0,P|212:208|207:164,1,87.500000834465,10|2,0:0|0:0,0:0:0:0:
391,350,140166,2,0,P|417:301|412:261,1,87.500000834465,2|2,0:0|0:0,0:0:0:0:
438,71,140397,5,2,3:2:0:0:
379,193,140513,1,2,1:2:0:0:
498,134,140628,1,2,3:2:0:0:
360,115,140743,1,2,1:2:0:0:
465,209,140859,1,10,0:0:0:0:
303,343,141089,2,0,P|240:363|195:348,1,87.500000834465,0|0,1:2|1:2,0:0:0:0:
62,146,141320,6,0,P|128:235|139:321,1,175.00000166893,2|2,3:2|1:2,0:0:0:0:
76,361,141666,1,0,1:2:0:0:
76,361,141782,2,0,P|45:338|45:282,1,87.500000834465,10|0,0:0|0:0,0:0:0:0:
92,19,142013,5,2,0:0:0:0:
178,16,142128,1,0,0:0:0:0:
238,72,142243,2,0,P|231:185|189:267,1,175.00000166893,2|2,3:2|1:2,0:0:0:0:
140,296,142589,1,0,1:2:0:0:
234,366,142705,2,0,P|289:357|316:310,1,87.500000834465,10|0,0:0|0:0,0:0:0:0:
416,335,142936,2,0,P|445:300|445:249,1,87.500000834465,2|0,0:0|0:0,0:0:0:0:
512,119,143166,6,0,B|404:94|448:160|305:121,1,175.00000166893,2|2,3:2|1:2,0:0:0:0:
270,63,143513,1,0,1:2:0:0:
180,195,143628,2,0,P|156:147|164:101,1,87.500000834465,10|0,0:0|0:0,0:0:0:0:
50,17,143859,2,0,P|39:82|11:111,1,87.500000834465,2|0,0:0|0:0,0:0:0:0:
18,330,144089,6,0,P|114:301|231:330,1,175.00000166893,2|8,3:2|1:2,0:0:0:0:
309,358,144436,1,8,1:2:0:0:
276,187,144551,2,0,P|266:250|282:301,1,87.500000834465,2|0,3:2|0:0,0:0:0:0:
412,336,144782,5,10,0:0:0:0:
412,336,144897,1,8,0:0:0:0:
412,336,145013,2,0,P|448:237|436:126,1,175.00000166893,2|2,3:2|1:2,0:0:0:0:
482,90,145359,1,2,1:2:0:0:
482,90,145474,2,0,P|362:25|271:29,1,175.00000166893,14|2,0:2|1:2,0:0:0:0:
217,34,145820,5,2,1:2:0:0:
217,34,145936,2,0,P|209:66|249:110,1,87.500000834465,2|0,3:2|0:0,0:0:0:0:
165,172,146166,2,0,P|184:212|231:221,1,87.500000834465,2|2,0:0|0:0,0:0:0:0:
396,235,146397,1,10,0:0:0:0:
396,235,146513,2,0,P|303:284|264:355,1,175.00000166893,2|2,1:2|0:0,0:0:0:0:
194,384,146859,6,0,P|174:340|186:305,1,87.500000834465,2|2,3:2|0:0,0:0:0:0:
33,276,147089,2,0,P|44:235|83:209,1,87.500000834465,2|2,0:0|0:0,0:0:0:0:
92,69,147320,2,0,P|183:119|298:100,1,175.00000166893,10|2,0:0|1:2,0:0:0:0:
316,60,147666,1,0,1:2:0:0:
464,110,147782,5,2,3:2:0:0:
512,184,147898,1,2,1:2:0:0:
457,252,148013,1,2,3:2:0:0:
380,222,148128,1,2,1:2:0:0:
381,139,148243,1,10,0:0:0:0:
234,324,148474,2,0,P|179:339|115:313,1,87.500000834465,0|0,1:2|1:2,0:0:0:0:
55,344,148705,6,0,P|22:237|54:146,1,175.00000166893,2|0,3:2|1:2,0:0:0:0:
81,102,149051,1,0,1:2:0:0:
166,186,149166,2,0,P|199:135|197:101,1,87.500000834465,10|0,0:0|0:0,0:0:0:0:
302,2,149397,2,0,P|302:61|336:94,1,87.500000834465,2|0,0:0|0:0,0:0:0:0:
512,131,149628,6,0,B|403:154|456:202|354:226,1,175.00000166893,2|2,3:2|1:2,0:0:0:0:
254,210,149974,1,2,1:2:0:0:
221,341,150089,2,0,P|180:292|183:247,1,87.500000834465,10|0,0:0|0:0,0:0:0:0:
61,274,150320,2,0,P|54:215|82:177,1,87.500000834465,2|0,0:0|0:0,0:0:0:0:
297,34,150551,6,0,P|239:127|150:154,1,200,2|2,3:2|1:2,0:0:0:0:
93,100,150897,1,2,1:2:0:0:
254,210,151013,2,0,P|274:160|268:129,1,87.500000834465,10|0,0:0|0:0,0:0:0:0:
427,95,151243,2,0,P|413:38|357:-6,1,87.500000834465,2|0,0:0|0:0,0:0:0:0:
401,222,151474,6,0,P|429:316|521:388,1,175.00000166893,2|10,3:2|1:2,0:0:0:0:
509,280,151820,1,8,1:2:0:0:
349,375,151936,2,0,P|366:331|426:307,1,87.500000834465,2|0,3:2|0:0,0:0:0:0:
191,151,152166,6,0,P|194:238|231:317,1,175.00000166893,10|0,0:0|0:0,0:0:0:0:
256,192,153089,12,0,157705,0:0:0:0:
