osu file format v14

[General]
AudioFilename: audio.mp3
AudioLeadIn: 0
PreviewTime: 107874
Countdown: 0
SampleSet: Soft
StackLeniency: 0.3
Mode: 0
LetterboxInBreaks: 0
WidescreenStoryboard: 1

[Editor]
Bookmarks: 34258,49027,78566,93335,100720,137643,152181
DistanceSpacing: 1.8
BeatDivisor: 12
GridSize: 32
TimelineZoom: 3.599999

[Metadata]
Title:Tada Koe Hitotsu
TitleUnicode:ただ声一つ
Artist:Rokudenashi
ArtistUnicode:ロクデナシ
Creator:keevy
Version:Insane
Source:
Tags:japanese pop the voice jpop j-pop female vocal vocalist
BeatmapID:3554007
BeatmapSetID:1738898

[Difficulty]
HPDrainRate:5
CircleSize:4
OverallDifficulty:8
ApproachRate:9
SliderMultiplier:1.75
SliderTickRate:1

[Events]
//Background and Video events
0,0,"BG.png",0,0
//Break Periods
2,93520,100105
//Storyboard Layer 0 (Background)
//Storyboard Layer 1 (Fail)
//Storyboard Layer 2 (Pass)
//Storyboard Layer 3 (Foreground)
//Storyboard Layer 4 (Overlay)
//Storyboard Sound Samples

[TimingPoints]
1013,461.538461538462,4,2,1,45,1,0
13935,-100,4,2,1,55,0,0
15782,-100,4,2,1,55,0,0
30089,-62.5,4,2,1,55,0,0
30166,-100,4,2,1,55,0,0
30551,-200,4,2,1,40,0,0
32396,-200,4,2,1,45,0,0
33319,-200,4,2,1,60,0,0
34243,-66.6666666666667,4,2,1,80,0,1
49013,-100,4,2,1,65,0,0
55473,-100,4,2,1,70,0,0
63782,-100,4,2,1,55,0,0
78550,-100,4,2,1,50,0,0
92397,-133.333333333333,4,2,1,50,0,0
93204,-133.333333333333,4,2,1,5,0,0
93319,-133.333333333333,4,2,1,50,0,0
100705,-100,4,2,1,80,0,0
107974,-100,4,2,1,5,0,0
108089,-66.6666666666667,4,2,1,80,0,1
137628,-83.3333333333333,4,2,1,85,0,0
144089,-83.3333333333333,4,2,1,85,0,0
152396,-83.3333333333333,4,2,1,5,0,0
153088,-83.3333333333333,4,2,1,65,0,0
155627,-83.3333333333333,4,2,1,45,0,0
157473,-83.3333333333333,4,2,1,25,0,0
157704,-83.3333333333333,4,2,1,5,0,0

[Colours]
Combo1 : 255,255,187
Combo2 : 255,223,255

[HitObjects]
58,252,1012,6,0,P|51:225|53:199,1,43.75,2|0,0:0|0:0,0:0:0:0:
99,137,1243,1,2,0:0:0:0:
107,136,1359,1,2,0:0:0:0:
116,133,1474,2,0,P|123:160|121:186,1,43.75,2|2,0:0|0:0,0:0:0:0:
259,345,1705,1,2,0:0:0:0:
250,347,1821,1,2,0:0:0:0:
241,348,1936,6,0,P|234:321|236:295,1,43.75,2|0,0:0|0:0,0:0:0:0:
155,307,2166,1,2,0:0:0:0:
146,303,2282,1,2,0:0:0:0:
139,299,2397,2,0,P|150:273|169:255,1,43.75,2|2,0:0|0:0,0:0:0:0:
346,265,2628,1,2,0:0:0:0:
341,272,2744,1,2,0:0:0:0:
335,279,2859,6,0,P|308:271|286:256,1,43.75,2|0,0:0|0:0,0:0:0:0:
432,171,3089,1,2,0:0:0:0:
432,179,3205,1,2,0:0:0:0:
432,188,3320,2,0,P|406:199|380:202,1,43.75,2|0,0:0|0:0,0:0:0:0:
240,206,3551,1,2,0:0:0:0:
233,209,3667,1,2,0:0:0:0:
225,214,3782,6,0,P|202:197|187:176,1,43.75,2|0,0:0|0:0,0:0:0:0:
263,124,4012,2,0,P|285:140|300:161,1,43.75,2|0,0:0|0:0,0:0:0:0:
126,373,4243,6,0,P|133:346|131:320,1,43.75,2|0,0:0|0:0,0:0:0:0:
232,343,4474,2,0,P|220:317|201:299,1,43.75,2|0,0:0|0:0,0:0:0:0:
17,242,4705,6,0,P|28:267|47:285,1,43.75,2|0,0:0|0:0,0:0:0:0:
110,248,4936,1,2,0:0:0:0:
118,244,5051,1,2,0:0:0:0:
128,239,5166,2,0,P|116:213|97:195,1,43.75,2|2,0:0|0:0,0:0:0:0:
18,7,5397,1,2,0:0:0:0:
10,11,5512,1,2,0:0:0:0:
0,16,5627,6,0,P|12:41|31:59,1,43.75,2|0,0:0|0:0,0:0:0:0:
109,43,5859,1,2,0:0:0:0:
105,51,5974,1,2,0:0:0:0:
100,61,6089,2,0,P|125:73|152:74,1,43.75,2|2,0:0|0:0,0:0:0:0:
320,51,6320,1,2,0:0:0:0:
324,43,6435,1,2,0:0:0:0:
329,33,6550,6,0,P|303:20|276:19,1,43.75,2|0,0:0|0:0,0:0:0:0:
245,96,6782,1,2,0:0:0:0:
241,104,6897,1,2,0:0:0:0:
236,114,7012,2,0,P|261:126|288:127,1,43.75,2|0,0:0|0:0,0:0:0:0:
290,283,7243,1,2,0:0:0:0:
294,290,7358,1,2,0:0:0:0:
301,299,7474,6,0,P|324:282|338:260,1,43.75,2|0,0:0|0:0,0:0:0:0:
413,268,7705,2,0,P|420:240|417:214,1,43.75,2|0,0:0|0:0,0:0:0:0:
226,221,7936,6,0,P|202:204|188:182,1,43.75,2|0,0:0|0:0,0:0:0:0:
114,190,8167,2,0,P|106:162|109:136,1,43.75,2|0,0:0|0:0,0:0:0:0:
384,150,8397,6,0,P|391:123|389:97,1,43.75,2|0,0:0|0:0,0:0:0:0:
343,35,8628,1,2,0:0:0:0:
335,34,8744,1,2,0:0:0:0:
326,31,8859,2,0,P|319:58|321:84,1,43.75,2|2,0:0|0:0,0:0:0:0:
355,265,9090,1,2,0:0:0:0:
364,267,9206,1,2,0:0:0:0:
373,268,9321,6,0,P|380:241|378:215,1,43.75,2|0,0:0|0:0,0:0:0:0:
459,227,9551,1,2,0:0:0:0:
468,223,9667,1,2,0:0:0:0:
475,219,9782,2,0,P|464:193|445:175,1,43.75,2|2,0:0|0:0,0:0:0:0:
268,185,10013,1,2,0:0:0:0:
273,192,10129,1,2,0:0:0:0:
279,199,10244,6,0,P|306:191|328:176,1,43.75,2|0,0:0|0:0,0:0:0:0:
182,91,10474,1,2,0:0:0:0:
182,99,10590,1,2,0:0:0:0:
182,108,10705,2,0,P|208:119|234:122,1,43.75,2|0,0:0|0:0,0:0:0:0:
374,126,10936,1,2,0:0:0:0:
381,129,11052,1,2,0:0:0:0:
389,134,11167,6,0,P|412:117|427:96,1,43.75,2|0,0:0|0:0,0:0:0:0:
351,44,11397,2,0,P|329:60|314:81,1,43.75,2|0,0:0|0:0,0:0:0:0:
302,265,11628,6,0,P|295:238|297:212,1,43.75,2|0,0:0|0:0,0:0:0:0:
196,235,11859,2,0,P|208:209|227:191,1,43.75,2|0,0:0|0:0,0:0:0:0:
495,242,12090,6,0,P|484:267|465:285,1,43.75,2|0,0:0|0:0,0:0:0:0:
402,248,12321,1,2,0:0:0:0:
394,244,12436,1,2,0:0:0:0:
384,239,12551,2,0,P|396:213|415:195,1,43.75,2|2,0:0|0:0,0:0:0:0:
494,7,12782,1,2,0:0:0:0:
502,11,12897,1,2,0:0:0:0:
512,16,13012,6,0,P|500:41|481:59,1,43.75,2|0,0:0|0:0,0:0:0:0:
403,43,13244,1,2,0:0:0:0:
407,51,13359,1,2,0:0:0:0:
412,61,13474,2,0,P|386:73|359:74,1,43.75,2|2,0:0|0:0,0:0:0:0:
192,51,13705,1,2,0:0:0:0:
188,43,13820,1,2,0:0:0:0:
183,33,13935,6,0,P|208:20|235:19,1,43.75,2|0,0:0|0:0,0:0:0:0:
267,96,14167,1,2,0:0:0:0:
271,104,14282,1,2,0:0:0:0:
276,114,14397,2,0,P|250:126|223:127,1,43.75,2|0,0:0|0:0,0:0:0:0:
222,283,14628,1,2,0:0:0:0:
218,290,14743,1,2,0:0:0:0:
211,299,14859,6,0,P|187:282|173:260,1,43.75,2|0,0:0|0:0,0:0:0:0:
99,268,15090,2,0,P|91:240|94:214,1,43.75,2|0,0:0|0:0,0:0:0:0:
286,221,15321,6,0,P|309:204|323:182,1,43.75,2|0,0:0|0:0,0:0:0:0:
398,190,15552,2,0,P|405:162|402:136,1,43.75,2|0,0:0|0:0,0:0:0:0:
387,72,15782,5,2,0:0:0:0:
322,114,16012,1,0,0:0:0:0:
237,124,16243,1,0,0:0:0:0:
152,88,16474,1,2,0:0:0:0:
99,0,16705,5,0,0:0:0:0:
165,44,16936,1,2,0:0:0:0:
8,114,17166,1,2,0:0:0:0:
13,34,17397,1,0,0:0:0:0:
139,178,17628,5,2,0:0:0:0:
212,154,17859,1,0,0:0:0:0:
366,261,18089,1,2,0:0:0:0:
293,237,18320,1,2,0:0:0:0:
351,183,18551,5,2,0:0:0:0:
311,312,18782,1,0,0:0:0:0:
351,183,19012,2,0,P|343:162|320:137,1,43.75,2|0,0:0|0:0,0:0:0:0:
350,74,19243,2,0,P|330:63|296:58,1,43.75,2|0,0:0|0:0,0:0:0:0:
235,69,19474,5,2,0:0:0:0:
159,106,19705,1,0,0:0:0:0:
165,28,19936,1,0,0:0:0:0:
224,146,20166,1,2,0:0:0:0:
224,146,20628,5,2,0:0:0:0:
367,231,20859,1,2,0:0:0:0:
322,299,21089,1,2,0:0:0:0:
285,228,21320,5,2,0:0:0:0:
359,206,21551,1,0,0:0:0:0:
424,246,21782,1,0,0:0:0:0:
463,346,22012,1,2,0:0:0:0:
512,187,22243,6,0,P|454:169|420:158,1,87.5,2|0,0:0|0:0,0:0:0:0:
276,121,22705,1,2,0:0:0:0:
423,64,22936,1,2,0:0:0:0:
387,312,23166,5,2,0:0:0:0:
322,270,23396,1,0,0:0:0:0:
237,260,23627,1,0,0:0:0:0:
152,296,23858,1,2,0:0:0:0:
99,384,24089,5,2,0:0:0:0:
165,340,24320,1,2,0:0:0:0:
8,270,24550,1,2,0:0:0:0:
13,350,24781,1,2,0:0:0:0:
139,206,25012,5,2,0:0:0:0:
212,230,25243,1,0,0:0:0:0:
366,123,25473,1,2,0:0:0:0:
293,147,25704,1,2,0:0:0:0:
351,201,25935,5,2,0:0:0:0:
311,72,26166,1,0,0:0:0:0:
351,201,26396,2,0,P|343:222|320:247,1,43.75,2|0,0:0|0:0,0:0:0:0:
350,310,26627,2,0,P|330:320|296:325,1,43.75,2|0,0:0|0:0,0:0:0:0:
235,315,26858,5,2,0:0:0:0:
159,278,27089,1,0,0:0:0:0:
165,356,27320,1,0,0:0:0:0:
224,238,27550,1,2,0:0:0:0:
224,238,28012,5,2,0:0:0:0:
367,153,28243,1,2,0:0:0:0:
322,85,28473,1,2,0:0:0:0:
285,156,28704,5,2,0:0:0:0:
359,178,28935,1,0,0:0:0:0:
424,138,29166,1,0,0:0:0:0:
463,38,29396,1,2,0:0:0:0:
221,10,29627,6,0,P|229:52|232:96,1,87.5,2|2,0:0|0:0,0:0:0:0:
198,240,30089,2,0,L|191:272,2,23.3333333333333,2|2|2,0:0|0:0|0:0,0:0:0:0:
123,292,30551,6,0,P|183:298|257:307,1,131.25,2|2,0:0|0:0,0:0:0:0:
335,374,31474,2,0,P|341:313|350:239,1,131.25,2|2,0:0|0:0,0:0:0:0:
430,207,32397,6,0,P|397:172|309:172,1,131.25,2|2,0:0|0:0,0:0:0:0:
297,64,33320,2,0,P|264:99|176:99,1,131.25,2|0,0:0|1:2,0:0:0:0:
79,130,34243,6,0,P|62:100|66:45,1,65.6250025033952,6|0,3:2|0:0,0:0:0:0:
139,39,34474,1,0,1:2:0:0:
152,38,34589,1,0,1:2:0:0:
164,42,34705,2,0,P|181:72|177:127,1,65.6250025033952,10|0,0:0|0:0,0:0:0:0:
101,235,34936,2,0,P|118:205|168:181,1,65.6250025033952,2|0,3:2|1:2,0:0:0:0:
312,200,35166,6,0,P|277:199|231:168,1,65.6250025033952,2|0,3:2|0:0,0:0:0:0:
188,260,35397,1,0,0:0:0:0:
200,261,35512,1,0,0:0:0:0:
211,268,35628,2,0,P|224:305|231:339,1,65.6250025033952,10|0,0:0|0:0,0:0:0:0:
37,305,35859,2,0,P|44:337|56:368,1,65.6250025033952,2|0,3:0|1:2,0:0:0:0:
137,361,36089,6,0,P|121:297|101:235,1,131.25000500679,2|0,3:2|0:0,0:0:0:0:
38,177,36436,1,0,1:2:0:0:
38,177,36551,2,0,P|87:158|121:149,1,65.6250025033952,10|0,0:0|0:0,0:0:0:0:
249,186,36782,2,0,P|200:205|166:214,1,65.6250025033952,2|0,1:2|1:2,0:0:0:0:
76,30,37012,6,0,P|104:45|128:68,1,65.6250025033952,2|0,3:2|0:0,0:0:0:0:
203,44,37243,2,0,P|215:74|218:106,1,65.6250025033952,0|0,0:0|1:2,0:0:0:0:
267,272,37474,2,0,P|295:256|319:233,1,65.6250025033952,10|0,0:0|0:0,0:0:0:0:
443,217,37705,2,0,P|455:186|458:154,1,65.6250025033952,10|0,0:0|1:2,0:0:0:0:
421,43,37936,6,0,P|355:50|290:57,1,131.25000500679,2|0,3:2|1:2,0:0:0:0:
290,143,38282,1,0,1:2:0:0:
290,143,38397,2,0,P|340:136|374:130,1,65.6250025033952,10|0,0:0|0:0,0:0:0:0:
198,190,38628,2,0,P|248:183|282:177,1,65.6250025033952,2|0,3:2|1:2,0:0:0:0:
132,69,38859,6,0,P|182:62|216:56,1,65.6250025033952,2|0,3:2|0:0,0:0:0:0:
7,139,39090,2,0,P|57:132|91:126,1,65.6250025033952,2|0,3:2|1:2,0:0:0:0:
198,190,39320,2,0,P|191:242|187:267,1,65.6250025033952,10|0,0:0|0:0,0:0:0:0:
296,367,39551,2,0,P|300:334|305:302,1,65.6250025033952,2|0,1:2|1:2,0:0:0:0:
477,207,39782,6,0,P|445:208|400:246,1,65.6250025033952,2|0,3:2|0:0,0:0:0:0:
397,92,40012,1,2,1:2:0:0:
386,96,40128,1,0,1:2:0:0:
375,104,40243,2,0,P|351:125|341:183,1,65.6250025033952,10|0,0:0|0:0,0:0:0:0:
188,254,40474,2,0,P|212:233|222:174,1,65.6250025033952,2|0,3:2|1:2,0:0:0:0:
85,134,40705,5,2,3:2:0:0:
76,142,40821,1,0,0:0:0:0:
68,153,40936,2,0,P|52:180|63:238,1,65.6250025033952,0|0,0:0|1:2,0:0:0:0:
36,337,41166,2,0,P|78:331|114:329,1,65.6250025033952,10|0,1:2|0:0,0:0:0:0:
336,302,41397,1,10,0:0:0:0:
282,279,41512,1,8,0:0:0:0:
227,283,41628,6,0,P|221:338|218:360,1,65.6250025033952,6|0,3:2|0:0,0:0:0:0:
361,216,41859,1,0,1:0:0:0:
373,217,41974,1,0,1:0:0:0:
385,218,42089,2,0,P|389:170|393:143,1,65.6250025033952,10|0,0:0|0:0,0:0:0:0:
476,165,42320,2,0,P|471:197|469:230,1,65.6250025033952,2|0,1:2|1:2,0:0:0:0:
299,150,42551,6,0,P|360:130|399:79,1,131.25000500679,2|0,3:2|1:2,0:0:0:0:
296,64,42897,1,0,1:0:0:0:
283,57,43012,2,0,P|250:71|217:111,1,65.6250025033952,10|0,0:0|0:0,0:0:0:0:
106,25,43243,2,0,P|128:48|141:78,1,65.6250025033952,2|0,1:2|1:2,0:0:0:0:
132,274,43474,6,0,P|109:250|96:220,1,65.6250025033952,2|0,3:2|0:0,0:0:0:0:
19,196,43705,1,0,0:0:0:0:
10,186,43820,1,0,1:2:0:0:
5,173,43936,2,0,P|6:140|18:110,1,65.6250025033952,10|0,0:2|0:0,0:0:0:0:
186,141,44166,2,0,P|185:173|173:204,1,65.6250025033952,2|0,1:2|1:0,0:0:0:0:
102,135,44397,6,0,P|110:103|118:71,1,65.6250025033952,2|0,0:0|0:0,0:0:0:0:
276,175,44628,2,0,P|285:143|293:112,1,65.6250025033952,0|0,3:2|1:2,0:0:0:0:
194,49,44859,6,0,P|202:80|210:112,1,65.6250025033952,10|0,1:2|0:0,0:0:0:0:
368,8,45090,2,0,P|376:39|384:71,1,65.6250025033952,2|0,1:2|1:2,0:0:0:0:
502,188,45320,6,0,P|417:172|359:164,1,131.25000500679,2|0,3:2|0:0,0:0:0:0:
325,261,45666,1,0,1:2:0:0:
325,261,45782,2,0,P|375:247|396:242,1,65.6250025033952,10|0,0:0|0:0,0:0:0:0:
503,324,46012,2,0,P|453:310|432:305,1,65.6250025033952,2|0,3:2|1:2,0:0:0:0:
266,324,46243,6,0,P|246:291|243:256,1,65.6250025033952,2|0,3:2|0:0,0:0:0:0:
62,228,46474,2,0,P|91:202|124:193,1,65.6250025033952,2|0,1:2|1:2,0:0:0:0:
151,305,46705,2,0,P|156:266|177:238,1,65.6250025033952,10|0,0:0|0:0,0:0:0:0:
56,109,46936,2,0,P|94:108|126:123,1,65.6250025033952,2|0,1:2|1:2,0:0:0:0:
297,197,47166,6,0,P|249:186|217:178,1,65.6250025033952,2|0,3:2|0:0,0:0:0:0:
189,72,47397,1,2,0:2:0:0:
186,59,47512,1,0,1:2:0:0:
185,45,47628,2,0,P|216:52|248:59,1,65.6250025033952,10|0,0:0|0:0,0:0:0:0:
379,193,47859,2,0,P|346:185|315:178,1,65.6250025033952,2|0,3:2|1:2,0:0:0:0:
268,74,48089,6,0,P|271:53|280:0,2,65.6250025033952,2|8|0,1:2|0:2|1:2,0:0:0:0:
229,247,48551,1,10,0:0:0:0:
491,142,48782,1,8,0:0:0:0:
444,105,48897,1,8,0:0:0:0:
389,110,49013,6,0,P|383:141|378:162,1,43.75,6|0,3:2|0:0,0:0:0:0:
419,231,49243,2,0,P|413:262|408:283,1,43.75,2|0,1:2|0:0,0:0:0:0:
289,344,49474,1,10,0:0:0:0:
280,343,49589,1,2,0:0:0:0:
271,342,49705,2,0,P|282:302|286:284,1,43.75,2|0,0:0|0:0,0:0:0:0:
277,224,49936,6,0,P|317:230|328:232,1,43.75,2|0,3:2|0:0,0:0:0:0:
203,302,50166,2,0,P|181:298|159:295,1,43.75,0|0,1:2|0:0,0:0:0:0:
49,258,50397,1,10,0:0:0:0:
51,249,50512,1,2,0:0:0:0:
53,240,50628,2,0,L|69:176,1,43.75,2|0,0:0|0:0,0:0:0:0:
85,122,50859,5,2,3:2:0:0:
224,222,51089,1,0,1:2:0:0:
325,88,51320,1,10,0:0:0:0:
247,95,51551,1,2,1:2:0:0:
315,310,51782,1,2,3:2:0:0:
383,14,52243,1,10,0:0:0:0:
383,14,52705,6,0,L|392:72,1,43.75,2|0,3:2|0:0,0:0:0:0:
328,153,52936,2,0,L|321:109,1,43.75,2|0,1:2|0:0,0:0:0:0:
236,27,53166,1,10,0:0:0:0:
227,29,53282,1,2,0:0:0:0:
219,32,53397,2,0,L|228:102,1,43.75,2|0,0:0|0:0,0:0:0:0:
122,191,53628,6,0,P|97:188|79:176,1,43.75,2|0,3:2|0:0,0:0:0:0:
105,90,53859,2,0,P|129:92|147:105,1,43.75,2|0,1:2|0:0,0:0:0:0:
245,178,54089,2,0,L|195:166,1,43.75,10|2,0:0|0:0,0:0:0:0:
372,176,54320,2,0,L|322:164,1,43.75,2|0,1:2|0:0,0:0:0:0:
275,108,54551,5,2,3:2:0:0:
301,241,54782,1,0,1:2:0:0:
164,260,55012,1,10,0:0:0:0:
138,127,55243,1,2,1:2:0:0:
218,188,55474,5,2,3:2:0:0:
89,328,55705,1,10,0:0:0:0:
80,330,55820,1,8,0:0:0:0:
71,332,55936,2,0,P|53:296|52:281,1,43.75,2|0,1:2|0:0,0:0:0:0:
0,227,56166,2,0,P|12:188|22:177,1,43.75,10|0,0:0|1:2,0:0:0:0:
143,98,56397,6,0,P|149:129|154:150,1,43.75,6|0,3:2|0:0,0:0:0:0:
113,219,56628,2,0,P|119:250|124:271,1,43.75,2|0,1:2|0:0,0:0:0:0:
223,344,56859,1,14,0:0:0:0:
232,343,56974,1,2,0:0:0:0:
241,342,57090,2,0,P|230:302|226:284,1,43.75,2|0,0:0|0:0,0:0:0:0:
235,224,57321,6,0,P|195:230|184:232,1,43.75,2|0,3:2|0:0,0:0:0:0:
309,302,57551,2,0,P|330:298|352:295,1,43.75,2|0,1:2|0:0,0:0:0:0:
463,258,57782,1,10,0:0:0:0:
461,249,57897,1,2,0:0:0:0:
459,240,58013,2,0,L|443:176,1,43.75,2|0,0:0|0:0,0:0:0:0:
427,122,58244,5,2,3:2:0:0:
288,222,58474,1,0,1:2:0:0:
187,88,58705,1,10,0:0:0:0:
265,95,58936,1,2,0:0:0:0:
197,310,59167,1,0,3:2:0:0:
129,14,59628,1,8,0:0:0:0:
129,14,60090,6,0,L|120:72,1,43.75,6|0,3:2|0:0,0:0:0:0:
184,153,60321,2,0,L|190:109,1,43.75,2|0,1:2|0:0,0:0:0:0:
276,27,60551,1,14,0:0:0:0:
285,29,60667,1,2,0:0:0:0:
293,32,60782,2,0,L|284:102,1,43.75,2|0,0:0|0:0,0:0:0:0:
390,191,61013,6,0,P|414:188|433:176,1,43.75,2|2,3:2|1:2,0:0:0:0:
320,267,61244,2,0,P|295:269|277:282,1,43.75,2|0,3:2|0:2,0:0:0:0:
417,328,61474,2,0,L|442:321,3,14.5833333333333,10|2|2|2,0:0|0:0|0:0|0:0,0:0:0:0:
392,334,61705,1,0,1:2:0:0:
484,259,61936,5,2,3:2:0:0:
355,201,62166,1,0,1:2:0:0:
509,136,62397,1,10,0:0:0:0:
318,55,62628,1,0,1:2:0:0:
485,13,62859,6,0,P|477:47|475:72,1,43.75
355,201,63089,2,0,P|347:167|345:142,1,43.75,0|0,1:2|1:2,0:0:0:0:
318,55,63320,2,0,P|357:49|377:48,1,43.75,2|0,0:0|0:0,0:0:0:0:
260,135,63551,2,0,P|238:137|216:141,1,43.75,0|0,1:2|1:2,0:0:0:0:
151,98,63782,5,6,3:2:0:0:
107,270,64012,1,2,0:0:0:0:
128,276,64128,1,0,0:0:0:0:
149,272,64243,1,2,3:2:0:0:
127,196,64474,1,2,0:0:0:0:
237,343,64705,5,0,3:2:0:0:
265,260,64936,1,2,0:2:0:0:
127,196,65166,1,2,3:2:0:0:
99,113,65397,1,2,0:2:0:0:
298,11,65628,5,2,3:2:0:0:
318,123,65859,1,2,0:0:0:0:
297,129,65974,1,2,0:0:0:0:
275,126,66089,1,2,3:2:0:0:
199,74,66320,1,2,0:0:0:0:
6,131,66551,5,2,3:2:0:0:
86,155,66782,1,2,0:0:0:0:
97,173,66897,1,2,0:0:0:0:
103,193,67012,1,2,3:2:0:0:
82,358,67243,1,2,0:0:0:0:
29,291,67474,5,2,3:2:0:0:
175,255,67705,2,0,L|187:313,1,43.75,0|2,0:0|0:0,0:0:0:0:
171,331,67936,5,2,3:2:0:0:
265,196,68166,1,2,0:0:0:0:
376,337,68397,1,0,0:0:0:0:
355,342,68512,1,0,0:0:0:0:
333,337,68628,1,2,0:0:0:0:
378,198,68859,1,2,3:2:0:0:
310,76,69089,1,2,0:0:0:0:
178,24,69320,5,2,3:2:0:0:
129,159,69551,1,2,0:0:0:0:
142,159,69666,1,2,0:0:0:0:
155,159,69782,2,0,P|163:129|165:114,1,43.75,2|0,3:2|0:0,0:0:0:0:
92,72,70012,2,0,P|76:86|57:98,1,43.75,2|0,0:0|0:0,0:0:0:0:
37,246,70243,6,0,P|77:237|101:233,1,43.75,2|0,3:2|0:0,0:0:0:0:
234,219,70474,1,2,0:0:0:0:
239,230,70589,1,2,0:0:0:0:
243,242,70705,2,0,P|221:246|200:251,1,43.75,2|0,3:2|0:0,0:0:0:0:
147,352,70936,2,0,P|139:318|135:298,1,43.75,2|0,0:0|0:0,0:0:0:0:
120,236,71166,5,2,3:2:0:0:
264,349,71397,1,0,0:0:0:0:
276,347,71512,1,2,0:0:0:0:
288,344,71628,1,2,3:2:0:0:
326,236,71859,1,2,0:0:0:0:
415,324,72089,5,0,0:0:0:0:
240,258,72320,1,2,0:0:0:0:
238,244,72436,1,0,0:0:0:0:
236,231,72551,1,2,3:2:0:0:
396,169,72782,1,2,0:0:0:0:
180,63,73012,5,2,3:2:0:0:
120,172,73243,1,2,0:0:0:0:
108,166,73359,1,2,0:0:0:0:
100,155,73474,1,2,3:2:0:0:
252,109,73705,1,2,0:0:0:0:
106,27,73936,5,2,3:2:0:0:
273,16,74166,1,2,0:0:0:0:
260,11,74282,1,2,0:0:0:0:
246,9,74397,1,2,3:2:0:0:
227,174,74628,1,2,0:0:0:0:
444,100,74859,5,2,3:2:0:0:
344,40,75089,2,0,L|341:102,1,43.75,0|2,0:0|0:0,0:0:0:0:
361,116,75320,1,2,3:2:0:0:
467,16,75551,1,2,0:0:0:0:
485,195,75782,1,0,0:0:0:0:
473,201,75897,1,0,0:0:0:0:
459,202,76012,1,2,0:0:0:0:
341,146,76243,1,2,3:2:0:0:
330,301,76474,1,2,0:0:0:0:
436,237,76705,6,0,L|375:228,1,43.75,2|0,3:2|0:0,0:0:0:0:
298,216,76936,2,0,L|237:207,1,43.75
392,230,77166,6,0,L|331:239,1,43.75,2|0,3:2|0:0,0:0:0:0:
232,283,77397,2,0,L|171:292,1,43.75,2|0,0:0|0:0,0:0:0:0:
348,236,77628,6,0,L|287:227,1,43.75,2|0,3:2|0:0,0:0:0:0:
202,153,77859,2,0,L|141:144,1,43.75,0|0,1:2|1:2,0:0:0:0:
90,232,78089,6,0,P|76:214|70:187,1,43.75,0|0,3:2|0:0,0:0:0:0:
0,139,78320,2,0,P|0:116|13:91,1,43.75,0|0,3:2|0:0,0:0:0:0:
60,31,78551,5,2,3:2:0:0:
282,91,78782,1,2,0:0:0:0:
280,78,78897,1,2,0:0:0:0:
278,64,79012,2,0,L|212:75,1,43.75,2|2,0:0|0:0,0:0:0:0:
147,134,79243,1,2,0:0:0:0:
150,146,79359,1,2,0:0:0:0:
120,200,79474,5,2,0:0:0:0:
131,192,79589,1,2,0:0:0:0:
143,187,79705,1,2,0:0:0:0:
156,186,79820,1,2,0:0:0:0:
225,151,79936,5,2,0:0:0:0:
238,151,80051,1,2,0:0:0:0:
250,155,80167,1,2,0:0:0:0:
261,163,80282,1,2,0:0:0:0:
314,219,80397,5,2,0:0:0:0:
436,91,80628,1,2,0:0:0:0:
422,90,80743,1,2,0:0:0:0:
408,87,80859,2,0,L|394:153,1,43.75,2|2,0:0|0:0,0:0:0:0:
326,23,81089,2,0,L|312:89,1,43.75,2|2,0:0|0:0,0:0:0:0:
237,121,81320,5,2,0:0:0:0:
223,123,81436,1,2,0:0:0:0:
209,124,81551,1,2,0:0:0:0:
196,125,81666,1,2,0:0:0:0:
150,194,81782,5,2,0:0:0:0:
164,196,81898,1,2,0:0:0:0:
178,197,82013,1,2,0:0:0:0:
191,198,82128,1,2,0:0:0:0:
238,264,82243,5,2,0:0:0:0:
250,258,82359,1,2,0:0:0:0:
258,247,82474,1,2,0:0:0:0:
263,235,82589,1,2,0:0:0:0:
263,221,82705,1,2,0:0:0:0:
77,255,82936,1,2,0:0:0:0:
79,267,83051,1,2,0:0:0:0:
53,340,83166,5,2,0:0:0:0:
61,330,83282,1,2,0:0:0:0:
73,326,83397,1,2,0:0:0:0:
86,325,83512,1,2,0:0:0:0:
156,347,83628,5,2,0:0:0:0:
164,357,83744,1,2,0:0:0:0:
176,361,83859,1,2,0:0:0:0:
189,362,83974,1,2,0:0:0:0:
252,317,84089,5,2,0:0:0:0:
439,358,84320,1,2,0:0:0:0:
447,347,84436,1,2,0:0:0:0:
380,305,84551,5,2,0:0:0:0:
374,293,84666,1,2,0:0:0:0:
373,279,84782,1,2,0:0:0:0:
375,266,84897,1,2,0:0:0:0:
418,205,85012,5,2,0:0:0:0:
423,217,85127,1,2,0:0:0:0:
424,231,85243,1,2,0:0:0:0:
422,244,85358,1,2,0:0:0:0:
400,312,85474,5,2,0:0:0:0:
205,290,85705,1,2,0:0:0:0:
202,277,85820,1,2,0:0:0:0:
207,264,85936,6,0,L|268:262,1,43.75,2|0,0:0|0:0,0:0:0:0:
330,192,86166,2,0,L|286:193,1,43.75,2|0,0:0|0:0,0:0:0:0:
176,183,86397,1,2,0:0:0:0:
172,170,86512,1,2,0:0:0:0:
169,157,86628,1,2,0:0:0:0:
165,144,86743,1,2,0:0:0:0:
200,74,86859,5,2,0:0:0:0:
210,81,86974,1,2,0:0:0:0:
221,74,87089,1,2,0:0:0:0:
231,82,87205,1,2,0:0:0:0:
304,109,87320,5,2,0:0:0:0:
314,101,87436,1,2,0:0:0:0:
318,88,87551,1,2,0:0:0:0:
317,74,87666,1,2,0:0:0:0:
266,13,87782,5,2,0:0:0:0:
253,33,87897,1,2,0:0:0:0:
247,57,88012,1,2,0:0:0:0:
249,81,88128,1,2,0:0:0:0:
303,137,88243,5,2,0:0:0:0:
309,147,88358,1,2,0:0:0:0:
313,160,88473,1,2,0:0:0:0:
312,173,88589,1,2,0:0:0:0:
319,252,88705,5,2,0:0:0:0:
289,220,88820,1,2,0:0:0:0:
248,206,88935,1,2,0:0:0:0:
206,215,89051,1,2,0:0:0:0:
137,257,89166,5,2,0:0:0:0:
138,270,89282,1,2,0:0:0:0:
139,282,89397,1,2,0:0:0:0:
141,294,89512,1,2,0:0:0:0:
186,358,89628,5,2,0:0:0:0:
401,309,89859,1,2,0:0:0:0:
388,311,89974,1,2,0:0:0:0:
316,271,90089,5,2,0:0:0:0:
324,261,90205,1,2,0:0:0:0:
336,257,90320,1,2,0:0:0:0:
349,257,90436,1,2,0:0:0:0:
425,259,90551,5,2,0:0:0:0:
412,257,90667,1,2,0:0:0:0:
402,248,90782,1,2,0:0:0:0:
396,237,90898,1,2,0:0:0:0:
341,183,91012,5,2,0:0:0:0:
345,195,91128,1,2,0:0:0:0:
342,208,91243,1,2,0:0:0:0:
336,219,91359,1,2,0:0:0:0:
324,230,91474,6,0,L|264:223,1,43.75,2|2,0:0|0:0,0:0:0:0:
192,214,91705,2,0,L|132:207,1,43.75,2|2,0:0|0:0,0:0:0:0:
67,224,91936,5,2,0:0:0:0:
60,212,92051,1,2,0:0:0:0:
59,198,92166,1,2,0:0:0:0:
62,185,92282,1,2,0:0:0:0:
0,143,92397,6,0,B|174:121|105:205|266:171,1,262.500010013581,2|2,0:0|0:0,0:0:0:0:
82,335,100705,6,0,P|71:293|64:238,1,87.5,0|0,3:2|1:2,0:0:0:0:
132,165,101051,1,0,1:2:0:0:
132,165,101166,2,0,P|141:201|143:218,1,43.75,0|0,3:2|0:0,0:0:0:0:
37,90,101397,2,0,P|46:126|48:143,1,43.75,0|0,1:2|0:2,0:0:0:0:
165,70,101628,6,0,P|129:79|108:85,1,43.75,0|0,3:2|0:0,0:0:0:0:
274,108,101859,2,0,P|238:117|217:123,1,43.75,0|0,1:2|1:2,0:0:0:0:
193,260,102089,2,0,P|209:248|240:240,1,43.75,0|0,3:2|0:0,0:0:0:0:
82,316,102320,2,0,P|86:296|105:270,1,43.75,0|0,1:2|0:2,0:0:0:0:
320,205,102551,6,0,P|326:237|329:258,1,43.75,0|0,3:2|0:0,0:0:0:0:
380,109,102782,2,0,P|386:141|389:162,1,43.75,0|0,1:2|1:2,0:0:0:0:
255,134,103012,2,0,P|288:127|309:123,1,43.75,0|0,3:2|0:0,0:0:0:0:
444,217,103243,2,0,P|422:221|401:225,1,43.75,0|0,1:2|0:2,0:0:0:0:
327,248,103474,1,0,3:2:0:0:
483,119,103705,1,0,1:2:0:0:
282,9,103936,6,0,P|291:42|297:64,1,43.75,0|0,3:2|0:0,0:0:0:0:
215,156,104166,2,0,P|210:133|203:113,1,43.75,0|0,1:2|0:0,0:0:0:0:
121,30,104397,6,0,P|73:34|28:66,1,87.5,0|0,3:2|1:2,0:0:0:0:
16,130,104743,1,0,1:2:0:0:
16,130,104859,2,0,P|42:142|64:164,1,43.75,0|0,3:2|0:0,0:0:0:0:
133,154,105089,2,0,P|145:179|147:210,1,43.75,0|0,1:2|0:0,0:0:0:0:
267,318,105320,2,0,P|264:289|272:259,1,43.75,0|0,3:2|0:0,0:0:0:0:
229,204,105550,2,0,P|245:180|270:162,1,43.75,0|0,1:2|1:2,0:0:0:0:
307,11,105782,2,0,P|283:27|253:35,1,43.75,0|0,3:2|0:0,0:0:0:0:
227,100,106012,2,0,P|198:97|170:84,1,43.75,0|0,1:2|0:2,0:0:0:0:
385,40,106243,6,0,P|429:39|472:49,1,87.5,0|0,3:2|1:2,0:0:0:0:
471,150,106589,1,0,0:0:0:0:
471,150,106705,2,0,P|443:147|421:143,1,43.75,0|0,3:2|0:0,0:0:0:0:
319,138,106936,2,0,L|315:110,3,29.1666666666667,0|0|0|14,3:2|3:2|3:2|1:2,0:0:0:0:
256,192,107224,12,0,107974,0:2:0:0:
167,145,108089,6,0,P|150:175|154:230,1,65.6250025033952,2|0,3:2|0:0,0:0:0:0:
139,345,108320,1,0,1:2:0:0:
152,346,108435,1,0,1:2:0:0:
164,342,108551,2,0,P|181:312|177:257,1,65.6250025033952,14|0,0:0|0:0,0:0:0:0:
306,324,108782,2,0,P|279:304|264:276,1,65.6250025033952,2|0,3:2|1:2,0:0:0:0:
104,76,109012,6,0,P|133:62|166:62,1,65.6250025033952,2|0,3:2|0:0,0:0:0:0:
363,124,109243,1,0,0:0:0:0:
375,123,109358,1,0,0:0:0:0:
386,116,109474,2,0,P|399:79|406:45,1,65.6250025033952,10|0,0:0|0:0,0:0:0:0:
275,23,109705,2,0,P|263:53|256:85,1,65.6250025033952,2|0,3:0|1:2,0:0:0:0:
260,184,109935,6,0,P|323:199|373:240,1,131.25000500679,2|0,3:2|0:0,0:0:0:0:
322,312,110282,1,0,1:2:0:0:
322,312,110397,2,0,P|371:331|405:340,1,65.6250025033952,10|0,0:0|0:0,0:0:0:0:
507,241,110628,2,0,P|458:222|424:213,1,65.6250025033952,2|0,1:2|1:2,0:0:0:0:
118,260,110858,6,0,P|146:245|170:222,1,65.6250025033952,2|0,3:2|0:0,0:0:0:0:
245,246,111089,2,0,P|257:216|260:184,1,65.6250025033952,0|0,0:0|1:2,0:0:0:0:
0,18,111320,2,0,P|28:34|52:57,1,65.6250025033952,10|0,0:0|0:0,0:0:0:0:
176,73,111551,2,0,P|188:104|191:136,1,65.6250025033952,10|0,0:0|1:2,0:0:0:0:
87,334,111782,6,0,P|74:268|62:204,1,131.25000500679,2|0,3:2|1:2,0:0:0:0:
79,62,112128,1,0,1:2:0:0:
79,62,112243,6,0,P|89:111|95:145,1,65.6250025033952,10|0,0:0|0:0,0:0:0:0:
240,92,112474,2,0,P|202:125|176:147,1,65.6250025033952,2|0,3:2|1:2,0:0:0:0:
173,360,112705,6,0,P|183:310|189:276,1,65.6250025033952,2|0,3:2|0:0,0:0:0:0:
380,292,112936,2,0,P|342:258|316:236,1,65.6250025033952,2|0,3:2|1:2,0:0:0:0:
261,377,113166,6,0,P|292:368|317:347,1,65.6250025033952,10|0,0:0|0:0,0:0:0:0:
458,344,113397,2,0,P|473:315|477:283,1,65.6250025033952,2|0,1:2|1:2,0:0:0:0:
418,136,113628,6,0,P|412:167|404:218,1,65.6250025033952,2|0,3:2|0:0,0:0:0:0:
247,172,113858,1,2,1:2:0:0:
255,164,113974,1,0,1:2:0:0:
267,157,114089,2,0,P|296:145|352:162,1,65.6250025033952,10|0,0:0|0:0,0:0:0:0:
512,54,114320,2,0,P|482:65|426:48,1,65.6250025033952,2|0,3:2|1:2,0:0:0:0:
188,118,114551,5,2,3:2:0:0:
179,110,114667,1,0,0:0:0:0:
171,99,114782,2,0,P|155:72|166:14,1,65.6250025033952,0|0,0:0|1:2,0:0:0:0:
342,0,115012,2,0,P|349:39|357:76,1,65.6250025033952,10|0,1:2|0:0,0:0:0:0:
349,234,115243,1,10,0:0:0:0:
295,257,115358,1,8,0:0:0:0:
240,253,115474,6,0,P|234:198|231:176,1,65.6250025033952,6|0,3:2|0:0,0:0:0:0:
172,345,115705,1,0,1:0:0:0:
160,346,115820,1,0,1:0:0:0:
148,347,115935,2,0,P|144:299|140:272,1,65.6250025033952,10|0,0:0|0:0,0:0:0:0:
59,180,116166,2,0,P|60:212|66:245,1,65.6250025033952,2|0,1:2|1:2,0:0:0:0:
295,141,116397,6,0,P|229:145|163:148,1,131.25000500679,2|0,3:2|1:2,0:0:0:0:
185,14,116743,1,0,1:0:0:0:
169,14,116858,2,0,P|147:42|138:93,1,65.6250025033952,10|0,0:0|0:0,0:0:0:0:
0,75,117089,2,0,P|30:83|56:103,1,65.6250025033952,2|0,1:2|1:2,0:0:0:0:
75,351,117320,6,0,P|52:327|39:297,1,65.6250025033952,2|0,3:2|0:0,0:0:0:0:
178,343,117551,1,0,0:0:0:0:
169,333,117666,1,0,1:2:0:0:
164,320,117782,2,0,P|165:287|177:257,1,65.6250025033952,10|0,0:2|0:0,0:0:0:0:
395,316,118012,2,0,P|394:284|382:253,1,65.6250025033952,2|0,1:2|1:0,0:0:0:0:
278,223,118243,6,0,P|286:255|294:287,1,65.6250025033952,2|0,0:0|0:0,0:0:0:0:
190,119,118474,2,0,P|199:151|207:182,1,65.6250025033952,0|0,3:2|1:2,0:0:0:0:
397,189,118705,6,0,P|389:221|381:253,1,65.6250025033952,10|0,1:2|0:0,0:0:0:0:
512,20,118936,2,0,P|503:52|495:83,1,65.6250025033952,2|0,1:2|1:2,0:0:0:0:
240,47,119166,6,0,P|305:37|370:25,1,131.25000500679,2|0,3:2|0:0,0:0:0:0:
420,96,119512,1,0,1:2:0:0:
420,96,119628,2,0,P|370:110|349:115,1,65.6250025033952,10|0,0:0|0:0,0:0:0:0:
171,90,119858,2,0,P|203:82|235:73,1,65.6250025033952,2|0,3:2|1:2,0:0:0:0:
370,24,120089,6,0,P|350:57|347:92,1,65.6250025033952,2|0,3:2|0:0,0:0:0:0:
441,242,120320,2,0,P|410:230|387:207,1,65.6250025033952,2|0,1:2|1:2,0:0:0:0:
483,86,120551,6,0,P|444:85|412:100,1,65.6250025033952,10|0,0:0|0:0,0:0:0:0:
306,279,120782,2,0,P|300:246|308:215,1,65.6250025033952,2|0,1:2|1:2,0:0:0:0:
501,312,121012,6,0,P|469:319|437:326,1,65.6250025033952,2|0,3:2|0:0,0:0:0:0:
240,354,121243,1,2,0:2:0:0:
237,367,121358,1,0,1:2:0:0:
236,381,121474,2,0,P|267:374|299:367,1,65.6250025033952,10|0,0:0|0:0,0:0:0:0:
372,200,121705,2,0,P|339:208|308:215,1,65.6250025033952,2|0,3:2|1:2,0:0:0:0:
150,263,121935,6,0,P|160:296|162:337,2,65.6250025033952,2|8|0,1:2|0:2|1:2,0:0:0:0:
46,140,122397,1,10,0:0:0:0:
271,105,122628,1,8,0:0:0:0:
234,147,122743,1,8,0:0:0:0:
177,149,122859,6,0,P|152:99|157:7,1,131.25000500679,6|0,3:2|1:2,0:0:0:0:
48,4,123205,1,0,1:2:0:0:
48,4,123320,2,0,P|64:34|71:89,1,65.6250025033952,10|0,0:0|0:0,0:0:0:0:
255,10,123551,2,0,P|245:42|211:86,1,65.6250025033952,2|0,3:2|1:2,0:0:0:0:
135,217,123782,6,0,P|95:199|65:193,1,65.6250025033952,2|0,3:2|0:0,0:0:0:0:
2,310,124012,1,0,0:0:0:0:
11,327,124128,1,0,0:0:0:0:
28,336,124243,2,0,P|69:349|94:349,1,65.6250025033952,10|0,0:0|0:0,0:0:0:0:
189,384,124474,2,0,P|227:364|244:346,1,65.6250025033952,2|0,3:0|1:2,0:0:0:0:
258,193,124705,6,0,P|269:243|273:268,1,65.6250025033952,2|0,3:2|0:0,0:0:0:0:
367,359,124936,1,0,0:0:0:0:
385,353,125051,1,0,1:2:0:0:
403,347,125166,2,0,P|397:314|389:282,1,65.6250025033952,10|0,0:0|0:0,0:0:0:0:
403,199,125397,2,0,P|370:204|338:212,1,65.6250025033952,2|0,1:2|1:2,0:0:0:0:
191,249,125628,6,0,P|167:220|160:185,1,65.6250025033952,2|0,3:2|0:0,0:0:0:0:
216,35,125859,2,0,P|240:64|247:99,1,65.6250025033952,0|0,0:0|1:2,0:0:0:0:
104,121,126089,2,0,P|155:102|191:88,1,65.6250025033952,10|0,0:0|0:0,0:0:0:0:
307,35,126320,2,0,P|358:16|394:2,1,65.6250025033952,10|0,0:0|1:2,0:0:0:0:
480,143,126551,6,0,P|406:129|335:115,1,131.25000500679,2|0,3:2|1:2,0:0:0:0:
277,213,126897,1,0,1:2:0:0:
277,213,127012,2,0,P|336:199|371:195,1,65.6250025033952,10|0,0:0|0:0,0:0:0:0:
364,307,127243,2,0,P|331:313|300:321,1,65.6250025033952,2|0,3:2|1:2,0:0:0:0:
176,276,127474,6,0,P|184:243|195:203,1,65.6250025033952,2|0,3:2|0:0,0:0:0:0:
50,326,127705,2,0,P|42:293|31:253,1,65.6250025033952,2|0,3:2|1:2,0:0:0:0:
230,140,127936,2,0,P|238:107|249:67,1,65.6250025033952,10|0,0:0|0:0,0:0:0:0:
104,190,128167,2,0,P|96:157|85:117,1,65.6250025033952,2|0,1:2|1:2,0:0:0:0:
200,14,128397,6,0,P|167:20|136:28,1,65.6250025033952,2|0,3:2|0:0,0:0:0:0:
7,69,128628,1,2,1:2:0:0:
22,56,128743,1,0,1:2:0:0:
41,51,128859,2,0,P|58:106|64:132,1,65.6250025033952,10|0,0:0|0:0,0:0:0:0:
246,76,129089,2,0,P|206:118|187:136,1,65.6250025033952,2|0,3:2|1:2,0:0:0:0:
74,294,129320,5,2,3:2:0:0:
29,262,129436,1,0,0:0:0:0:
37,209,129551,2,0,P|91:206|117:205,1,65.6250025033952,0|0,0:0|1:2,0:0:0:0:
268,199,129782,2,0,P|322:196|348:195,1,65.6250025033952,10|0,1:2|0:0,0:0:0:0:
492,68,130012,1,10,0:0:0:0:
440,38,130128,1,8,0:0:0:0:
381,40,130243,6,0,P|373:96|370:124,1,65.6250025033952,6|0,3:2|0:0,0:0:0:0:
418,250,130474,2,0,P|422:217|427:185,1,65.6250025033952,0|0,1:0|1:0,0:0:0:0:
290,102,130705,2,0,P|269:67|237:44,1,65.6250025033952,10|0,0:0|0:0,0:0:0:0:
145,104,130936,2,0,P|106:90|67:93,1,65.6250025033952,2|0,1:2|1:2,0:0:0:0:
51,280,131166,6,0,P|89:293|128:290,1,65.6250025033952,2|0,3:2|0:0,0:0:0:0:
194,365,131397,1,0,1:2:0:0:
216,366,131512,1,0,1:0:0:0:
233,362,131628,2,0,P|269:344|295:314,1,65.6250025033952,10|0,0:0|0:0,0:0:0:0:
290,102,131859,2,0,P|253:120|228:150,1,65.6250025033952,2|0,1:2|1:2,0:0:0:0:
377,296,132089,6,0,P|343:226|346:156,1,131.25000500679,2|0,3:2|0:0,0:0:0:0:
425,137,132436,1,0,1:2:0:0:
425,137,132551,2,0,P|441:88|442:54,1,65.6250025033952,10|0,0:2|0:0,0:0:0:0:
307,39,132782,2,0,P|291:88|290:122,1,65.6250025033952,2|0,1:2|1:0,0:0:0:0:
246,257,133012,6,0,P|308:244|327:241,1,65.6250025033952,2|0,0:0|0:0,0:0:0:0:
91,241,133243,2,0,P|153:228|172:225,1,65.6250025033952,0|0,3:2|1:2,0:0:0:0:
218,116,133474,2,0,P|280:129|299:132,1,65.6250025033952,10|0,1:2|0:0,0:0:0:0:
98,325,133705,2,0,P|65:318|33:311,1,65.6250025033952,2|0,1:2|1:2,0:0:0:0:
35,103,133936,6,0,P|57:136|68:178,1,65.6250025033952,2|0,3:2|0:0,0:0:0:0:
237,367,134166,1,0,0:0:0:0:
218,372,134282,1,0,1:2:0:0:
200,362,134397,2,0,P|175:314|174:287,1,65.6250025033952,10|0,0:0|0:0,0:0:0:0:
299,174,134628,2,0,P|275:196|261:226,1,65.6250025033952,2|0,3:2|1:2,0:0:0:0:
341,366,134859,6,0,P|397:355|415:353,1,65.6250025033952,2|0,3:2|0:0,0:0:0:0:
173,303,135089,2,0,P|140:307|108:315,1,65.6250025033952,2|0,1:2|1:2,0:0:0:0:
299,174,135320,2,0,P|355:163|373:161,1,65.6250025033952,10|0,0:0|0:0,0:0:0:0:
131,111,135550,2,0,P|98:115|66:123,1,65.6250025033952,2|0,1:2|1:2,0:0:0:0:
293,16,135782,6,0,P|301:63|306:94,1,65.6250025033952,2|0,3:2|0:0,0:0:0:0:
281,253,136012,1,2,0:2:0:0:
263,262,136128,1,0,1:2:0:0:
244,256,136243,2,0,P|226:218|223:194,1,65.6250025033952,10|0,0:0|0:0,0:0:0:0:
131,111,136474,2,0,P|141:70|154:50,1,65.6250025033952,2|0,3:2|1:2,0:0:0:0:
293,16,136705,6,0,P|340:7|365:6,2,65.6250025033952,2|8|0,1:2|0:2|1:2,0:0:0:0:
428,107,137166,1,10,0:0:0:0:
221,96,137397,1,8,0:0:0:0:
200,148,137512,1,8,0:0:0:0:
211,204,137628,6,0,P|257:195|275:191,1,52.4999983978272,6|0,3:2|0:0,0:0:0:0:
184,279,137859,2,0,P|158:284|132:289,1,52.4999983978272,2|0,1:2|1:2,0:0:0:0:
49,254,138089,1,14,0:0:0:0:
39,241,138205,1,0,0:0:0:0:
40,225,138320,1,2,0:0:0:0:
206,359,138551,5,2,3:2:0:0:
284,205,138782,1,2,0:2:0:0:
200,259,139012,1,10,0:0:0:0:
377,240,139243,1,2,1:2:0:0:
388,229,139359,1,2,1:2:0:0:
398,217,139474,6,0,P|392:181|379:163,1,52.4999983978272,2|2,3:2|0:0,0:0:0:0:
450,87,139705,2,0,P|422:63|400:57,1,52.4999983978272,2|2,0:0|0:0,0:0:0:0:
279,111,139936,5,10,0:0:0:0:
238,124,140051,1,2,0:0:0:0:
198,111,140166,1,2,0:0:0:0:
173,77,140282,1,2,0:0:0:0:
171,35,140397,5,2,3:2:0:0:
198,94,140512,1,2,1:2:0:0:
212,158,140627,1,2,3:2:0:0:
212,223,140743,1,2,1:2:0:0:
197,287,140858,1,10,0:0:0:0:
39,197,141089,1,0,1:2:0:0:
318,120,141320,5,2,3:2:0:0:
266,348,141551,1,2,1:2:0:0:
378,178,141782,1,10,0:0:0:0:
353,322,142012,1,2,0:0:0:0:
417,255,142243,5,2,3:2:0:0:
230,243,142474,1,2,1:2:0:0:
462,189,142705,1,10,0:0:0:0:
192,173,142936,1,2,0:0:0:0:
409,128,143166,5,2,3:2:0:0:
362,217,143397,1,2,1:2:0:0:
257,15,143628,1,10,0:0:0:0:
311,287,143859,1,2,0:0:0:0:
81,117,144089,6,0,L|149:104,1,52.4999983978272,2|0,3:2|0:0,0:0:0:0:
234,169,144320,1,8,1:2:0:0:
253,165,144436,1,8,1:2:0:0:
272,160,144551,2,0,P|267:115|258:93,1,52.4999983978272,2|0,3:2|0:0,0:0:0:0:
231,269,144782,2,0,P|236:314|248:337,1,52.4999983978272,10|8,0:0|0:0,0:0:0:0:
315,350,145012,5,2,3:2:0:0:
456,204,145243,1,2,1:2:0:0:
441,197,145359,1,2,1:2:0:0:
425,198,145474,1,14,0:2:0:0:
402,54,145705,5,2,1:2:0:0:
365,65,145821,1,2,1:2:0:0:
341,92,145936,1,2,3:2:0:0:
219,0,146166,5,2,0:0:0:0:
187,54,146282,1,2,0:0:0:0:
191,115,146397,1,10,0:0:0:0:
284,256,146628,1,0,0:0:0:0:
299,253,146743,1,2,0:0:0:0:
314,250,146859,6,0,P|309:209|299:179,1,52.4999983978272,2|2,3:2|0:0,0:0:0:0:
167,191,147089,1,2,0:0:0:0:
152,193,147204,1,2,0:0:0:0:
137,197,147320,2,0,P|142:238|152:268,1,52.4999983978272,10|0,0:0|0:0,0:0:0:0:
240,360,147551,5,2,1:2:0:0:
294,368,147666,1,0,1:2:0:0:
343,344,147782,2,0,P|319:331|287:339,1,52.4999983978272,2|2,3:2|1:2,0:0:0:0:
86,359,148012,1,2,3:2:0:0:
44,320,148128,1,2,1:2:0:0:
43,264,148243,1,10,0:0:0:0:
241,179,148474,1,0,1:2:0:0:
27,57,148705,5,2,3:2:0:0:
144,171,148936,1,0,1:2:0:0:
332,111,149166,1,10,0:0:0:0:
255,75,149397,1,2,0:0:0:0:
242,84,149512,1,0,0:0:0:0:
238,99,149628,5,2,3:2:0:0:
393,165,149859,1,2,1:2:0:0:
406,156,149974,1,2,1:2:0:0:
410,141,150090,1,10,0:0:0:0:
367,27,150320,2,0,L|338:93,1,52.4999983978272,2|0,0:0|0:0,0:0:0:0:
312,146,150551,5,2,3:2:0:0:
108,64,150782,1,2,1:2:0:0:
123,62,150897,1,2,1:2:0:0:
138,60,151012,1,10,0:0:0:0:
238,196,151243,1,2,0:0:0:0:
70,280,151474,1,2,3:2:0:0:
207,110,151705,1,10,1:2:0:0:
302,360,151936,1,2,3:2:0:0:
391,198,152166,5,10,0:0:0:0:
256,192,153089,12,0,157705,0:0:0:0:
