osu file format v14

[General]
AudioFilename: audio.mp3
AudioLeadIn: 0
PreviewTime: 107874
Countdown: 0
SampleSet: Soft
StackLeniency: 0.3
Mode: 0
LetterboxInBreaks: 0
WidescreenStoryboard: 1

[Editor]
Bookmarks: 70950
DistanceSpacing: 1.5
BeatDivisor: 4
GridSize: 16
TimelineZoom: 2.3

[Metadata]
Title:Tada Koe Hitotsu
TitleUnicode:ただ声一つ
Artist:Rokudenashi
ArtistUnicode:ロクデナシ
Creator:keevy
Version:Hard
Source:
Tags:japanese pop the voice jpop j-pop female vocal vocalist
BeatmapID:3554309
BeatmapSetID:1738898

[Difficulty]
HPDrainRate:4
CircleSize:3.6
OverallDifficulty:7
ApproachRate:8.2
SliderMultiplier:1.4
SliderTickRate:1

[Events]
//Background and Video events
0,0,"BG.png",0,0
//Break Periods
2,93520,99985
//Storyboard Layer 0 (Background)
//Storyboard Layer 1 (Fail)
//Storyboard Layer 2 (Pass)
//Storyboard Layer 3 (Foreground)
//Storyboard Layer 4 (Overlay)
//Storyboard Sound Samples

[TimingPoints]
1013,461.538461538462,4,2,1,45,1,0
13936,-100,4,2,1,55,0,0
30551,-100,4,2,1,40,0,0
32397,-100,4,2,1,45,0,0
33320,-100,4,2,1,60,0,0
34243,-66.6666666666667,4,2,1,80,0,1
49013,-80,4,2,1,65,0,0
55474,-80,4,2,1,70,0,0
63782,-80,4,2,1,55,0,0
78551,-80,4,2,1,50,0,0
92397,-133.333333333333,4,2,1,50,0,0
93205,-133.333333333333,4,2,1,5,0,0
93320,-133.333333333333,4,2,1,50,0,0
100705,-83.3333333333333,4,2,1,80,0,0
108089,-66.6666666666667,4,2,1,80,0,1
137628,-66.6666666666667,4,2,1,85,0,0
153089,-66.6666666666667,4,2,1,65,0,0
155628,-66.6666666666667,4,2,1,45,0,0
157474,-66.6666666666667,4,2,1,25,0,0
157705,-66.6666666666667,4,2,1,5,0,0

[Colours]
Combo1 : 255,255,187
Combo2 : 255,223,255

[HitObjects]
64,102,1013,6,0,L|84:187,1,70,2|2,0:0|0:0,0:0:0:0:
90,195,1359,1,2,0:0:0:0:
90,194,1474,1,2,0:0:0:0:
44,297,1705,1,2,0:0:0:0:
44,297,1820,1,2,0:0:0:0:
44,297,1936,2,0,P|97:275|138:282,1,70,2|2,0:0|0:0,0:0:0:0:
142,297,2282,1,2,0:0:0:0:
142,297,2397,1,2,0:0:0:0:
239,347,2628,5,2,0:0:0:0:
239,347,2743,1,2,0:0:0:0:
239,347,2859,2,0,L|253:268,1,70,2|2,0:0|0:0,0:0:0:0:
240,258,3205,1,2,0:0:0:0:
240,258,3320,1,2,0:0:0:0:
312,186,3551,6,0,L|360:177,2,35,2|2|2,0:0|0:0|0:0,0:0:0:0:
222,135,4013,1,2,0:0:0:0:
151,194,4243,2,0,L|128:112,1,70,2|2,0:0|0:0,0:0:0:0:
109,23,4705,6,0,P|178:12|205:23,1,70,2|2,0:0|0:0,0:0:0:0:
198,24,5051,1,2,0:0:0:0:
198,24,5166,1,2,0:0:0:0:
298,67,5397,1,2,0:0:0:0:
298,67,5513,1,2,0:0:0:0:
298,67,5628,2,0,P|364:68|392:52,1,70,2|2,0:0|0:0,0:0:0:0:
387,50,5974,1,2,0:0:0:0:
387,50,6089,1,2,0:0:0:0:
481,102,6320,5,2,0:0:0:0:
481,102,6436,1,2,0:0:0:0:
481,102,6551,2,0,L|473:189,1,70,2|2,0:0|0:0,0:0:0:0:
481,198,6897,1,2,0:0:0:0:
481,198,7013,1,2,0:0:0:0:
486,300,7243,5,2,0:0:0:0:
486,300,7359,1,2,0:0:0:0:
486,300,7474,2,0,P|457:332|414:331,1,70,2|2,0:0|0:0,0:0:0:0:
337,365,7936,2,0,L|322:279,1,70,2|2,0:0|0:0,0:0:0:0:
218,238,8397,6,0,P|187:249|156:290,1,70,2|2,0:0|0:0,0:0:0:0:
158,300,8743,1,2,0:0:0:0:
158,300,8859,1,2,0:0:0:0:
56,363,9089,1,2,0:0:0:0:
56,363,9205,1,2,0:0:0:0:
56,363,9320,2,0,P|23:315|26:285,1,70,2|2,0:0|0:0,0:0:0:0:
25,283,9666,1,2,0:0:0:0:
24,282,9782,1,2,0:0:0:0:
68,171,10013,5,2,0:0:0:0:
68,171,10128,1,2,0:0:0:0:
68,171,10243,2,0,L|51:90,1,70,2|2,0:0|0:0,0:0:0:0:
60,74,10589,1,2,0:0:0:0:
60,74,10705,1,2,0:0:0:0:
172,24,10936,6,0,L|211:-8,2,35,2|2|2,0:0|0:0|0:0,0:0:0:0:
168,114,11397,1,2,0:0:0:0:
270,146,11628,2,0,P|281:102|273:67,1,70,2|2,0:0|0:0,0:0:0:0:
409,48,12089,6,0,L|391:127,1,70,2|2,0:0|0:0,0:0:0:0:
399,132,12436,1,2,0:0:0:0:
399,132,12551,1,2,0:0:0:0:
347,207,12782,1,2,0:0:0:0:
347,207,12897,1,2,0:0:0:0:
347,207,13013,2,0,L|364:298,1,70,2|2,0:0|0:0,0:0:0:0:
361,296,13359,1,2,0:0:0:0:
361,296,13474,1,2,0:0:0:0:
468,368,13705,5,2,0:0:0:0:
468,368,13820,1,2,0:0:0:0:
468,368,13936,2,0,P|509:340|509:307,1,70,2|2,0:0|0:0,0:0:0:0:
505,298,14282,1,2,0:0:0:0:
505,298,14397,1,2,0:0:0:0:
467,218,14628,1,2,0:0:0:0:
467,218,14743,1,2,0:0:0:0:
467,218,14859,2,0,L|481:145,1,70,2|2,0:0|0:0,0:0:0:0:
461,62,15320,1,2,0:0:0:0:
366,29,15551,1,2,0:0:0:0:
286,78,15782,6,0,P|275:119|281:151,2,70,2|0|0,0:0|0:0|0:0,0:0:0:0:
216,17,16474,1,2,0:0:0:0:
145,68,16705,2,0,P|92:81|68:75,1,70,0|2,0:0|0:0,0:0:0:0:
12,185,17166,2,0,P|57:166|105:168,1,70,2|0,0:0|0:0,0:0:0:0:
164,222,17628,6,0,L|148:299,2,70,2|0|2,0:0|0:0|0:0,0:0:0:0:
242,169,18320,1,2,0:0:0:0:
253,254,18551,2,0,L|237:331,1,70,2|0,0:0|0:0,0:0:0:0:
330,378,19013,2,0,P|386:374|398:351,1,70,2|2,0:0|0:0,0:0:0:0:
449,280,19474,6,0,L|434:207,2,70,2|0|0,0:0|0:0|0:0,0:0:0:0:
512,333,20166,1,2,0:0:0:0:
512,333,20628,1,2,0:0:0:0:
449,280,20859,2,0,P|408:289|365:315,1,70,2|2,0:0|0:0,0:0:0:0:
286,303,21320,6,0,L|266:376,2,70,2|0|0,0:0|0:0|0:0,0:0:0:0:
278,184,22013,1,2,0:0:0:0:
216,248,22243,2,0,L|181:167,1,70,2|0,0:0|0:0,0:0:0:0:
180,98,22705,1,2,0:0:0:0:
260,42,22936,1,2,0:0:0:0:
343,84,23166,6,0,P|355:128|351:156,2,70,2|0|0,0:0|0:0|0:0,0:0:0:0:
401,11,23859,1,2,0:0:0:0:
483,52,24089,2,0,P|513:84|512:127,1,70,2|2,0:0|0:0,0:0:0:0:
483,182,24551,2,0,L|407:166,1,70,2|2,0:0|0:0,0:0:0:0:
330,232,25013,6,0,P|302:207|304:151,1,70,2|0,0:0|0:0,0:0:0:0:
310,66,25474,1,2,0:0:0:0:
217,107,25705,1,2,0:0:0:0:
136,57,25936,2,0,P|83:46|46:58,1,70,2|0,0:0|0:0,0:0:0:0:
16,150,26397,1,2,0:0:0:0:
88,212,26628,1,2,0:0:0:0:
69,296,26859,6,0,P|39:323|-8:329,2,70,2|0|0,0:0|0:0|0:0,0:0:0:0:
161,338,27551,1,2,0:0:0:0:
161,338,28013,1,2,0:0:0:0:
161,338,28243,2,0,L|179:264,1,70,2|2,0:0|0:0,0:0:0:0:
247,216,28705,6,0,P|296:223|319:241,2,70,2|0|0,0:0|0:0|0:0,0:0:0:0:
171,161,29397,1,2,0:0:0:0:
171,161,29628,2,0,P|154:122|155:85,1,70,2|2,0:0|0:0,0:0:0:0:
189,26,30089,1,2,0:0:0:0:
362,140,30551,6,0,P|378:195|381:295,1,140,2|2,0:0|0:0,0:0:0:0:
290,348,31243,1,2,0:0:0:0:
290,348,31474,2,0,P|264:293|298:216,1,140,2|2,0:0|0:0,0:0:0:0:
257,144,32166,1,2,0:0:0:0:
195,202,32397,2,0,P|216:242|264:255,1,70,2|0,0:0|0:0,0:0:0:0:
101,336,32859,2,0,P|138:308|169:302,1,70,2|2,0:0|0:0,0:0:0:0:
44,238,33320,6,0,P|18:168|32:84,1,140,2|0,0:0|0:0,0:0:0:0:
101,43,34013,5,0,1:2:0:0:
101,43,34128,1,0,1:2:0:0:
101,43,34243,2,0,P|167:46|239:76,1,105.000004005432,6|0,3:2|1:2,0:0:0:0:
226,54,34589,1,0,1:2:0:0:
226,54,34705,2,0,P|259:63|278:82,1,52.5000020027161,10|0,0:0|0:0,0:0:0:0:
251,194,34936,2,0,P|231:162|232:140,1,52.5000020027161,2|0,3:2|1:2,0:0:0:0:
357,55,35166,6,0,P|344:118|312:151,1,105.000004005432,2|0,3:2|0:0,0:0:0:0:
387,323,35628,2,0,P|365:294|339:270,1,52.5000020027161,10|0,0:0|0:0,0:0:0:0:
283,336,35859,2,0,P|270:301|265:275,1,52.5000020027161,2|0,3:0|1:2,0:0:0:0:
164,361,36089,6,0,P|177:297|199:240,1,105.000004005432,2|0,3:2|0:0,0:0:0:0:
0,257,36551,2,0,P|49:227|67:220,1,52.5000020027161,10|0,0:0|0:0,0:0:0:0:
47,144,36782,2,0,P|94:152|122:166,1,52.5000020027161,2|0,1:2|1:2,0:0:0:0:
139,70,37013,2,0,P|185:123|217:167,1,105.000004005432,2|0,3:2|0:0,0:0:0:0:
315,67,37474,6,0,P|345:62|376:72,1,52.5000020027161,10|0,0:0|0:0,0:0:0:0:
443,85,37705,1,10,0:0:0:0:
492,180,37936,2,0,P|464:239|456:292,1,105.000004005432,2|0,3:2|1:2,0:0:0:0:
418,342,38282,1,0,1:2:0:0:
418,342,38397,2,0,P|381:306|380:289,1,52.5000020027161,10|0,0:0|0:0,0:0:0:0:
303,263,38628,2,0,P|292:296|276:314,1,52.5000020027161,2|0,3:2|1:2,0:0:0:0:
201,353,38859,6,0,P|152:329|91:324,1,105.000004005432,2|2,3:2|3:2,0:0:0:0:
31,292,39205,1,0,1:2:0:0:
31,292,39320,2,0,L|16:233,1,52.5000020027161,10|0,0:0|0:0,0:0:0:0:
7,160,39551,2,0,L|-6:99,1,52.5000020027161,2|0,1:2|1:2,0:0:0:0:
54,23,39782,6,0,P|124:40|158:92,1,105.000004005432,2|2,3:2|1:2,0:0:0:0:
227,57,40128,1,0,1:2:0:0:
227,57,40243,2,0,P|217:104|166:142,1,105.000004005432,10|2,0:0|3:2,0:0:0:0:
199,218,40589,1,0,1:2:0:0:
199,218,40705,2,0,P|131:208|92:161,1,105.000004005432,2|0,3:2|0:0,0:0:0:0:
291,195,41166,2,0,L|315:256,1,52.5000020027161,10|0,1:2|0:0,0:0:0:0:
277,315,41397,2,0,L|303:371,1,52.5000020027161,10|8,0:0|0:0,0:0:0:0:
380,370,41628,6,0,P|444:366|457:306,1,105.000004005432,6|0,3:2|1:0,0:0:0:0:
512,283,41974,1,0,1:0:0:0:
512,283,42089,2,0,L|490:175,1,105.000004005432,10|2,0:0|1:2,0:0:0:0:
502,47,42551,2,0,P|448:81|394:78,1,105.000004005432,2|0,3:2|1:2,0:0:0:0:
351,36,42897,1,0,1:0:0:0:
351,36,43013,2,0,P|334:63|343:107,1,52.5000020027161,10|0,0:0|0:0,0:0:0:0:
269,124,43243,2,0,P|276:164|295:178,1,52.5000020027161,2|0,1:2|1:2,0:0:0:0:
371,215,43474,6,0,P|321:258|306:318,1,105.000004005432,2|0,3:2|0:0,0:0:0:0:
207,373,43936,2,0,P|195:338|209:308,1,52.5000020027161,10|0,0:2|0:0,0:0:0:0:
116,309,44166,2,0,P|119:275|138:258,1,52.5000020027161,2|0,1:2|1:0,0:0:0:0:
61,184,44397,2,0,P|116:182|172:148,1,105.000004005432,2|0,0:0|3:2,0:0:0:0:
204,33,44859,6,0,P|222:65|233:113,1,52.5000020027161,10|0,1:2|0:0,0:0:0:0:
304,135,45089,2,0,P|290:164|290:197,1,52.5000020027161,2|0,1:2|1:2,0:0:0:0:
236,259,45320,2,0,P|296:282|330:320,1,105.000004005432,2|0,3:2|0:0,0:0:0:0:
388,357,45666,1,0,1:2:0:0:
388,357,45782,2,0,P|403:328|401:300,1,52.5000020027161,10|0,0:0|0:0,0:0:0:0:
482,283,46013,2,0,P|485:249|472:228,1,52.5000020027161,2|0,3:2|1:2,0:0:0:0:
490,136,46243,2,0,P|419:161|365:155,1,105.000004005432,2|2,3:2|1:2,0:0:0:0:
330,109,46589,1,0,1:2:0:0:
330,109,46705,2,0,L|303:2,1,105.000004005432,10|2,0:0|1:2,0:0:0:0:
193,71,47166,6,0,P|163:124|154:180,1,105.000004005432,2|2,3:2|0:2,0:0:0:0:
78,181,47513,1,0,1:2:0:0:
78,181,47628,2,0,P|87:213|107:231,1,52.5000020027161,10|0,0:0|0:0,0:0:0:0:
65,298,47859,2,0,P|111:308|135:301,1,52.5000020027161,2|0,3:2|1:2,0:0:0:0:
189,261,48089,1,2,1:2:0:0:
189,261,48205,1,8,0:2:0:0:
189,261,48320,1,0,1:2:0:0:
271,352,48551,6,0,L|293:233,1,105.000004005432,10|8,0:0|0:0,0:0:0:0:
322,177,48897,1,8,0:0:0:0:
322,177,49013,2,0,P|366:230|362:274,1,87.5,6|2,3:2|1:2,0:0:0:0:
478,319,49474,1,10,0:0:0:0:
478,319,49589,1,2,0:0:0:0:
478,319,49705,2,0,P|467:267|475:255,1,43.75,2|0,0:0|0:0,0:0:0:0:
490,240,49936,1,2,3:2:0:0:
488,111,50166,5,0,1:2:0:0:
407,138,50397,1,10,0:0:0:0:
407,138,50513,1,2,0:0:0:0:
407,138,50628,2,0,P|353:134|336:121,1,43.75,2|0,0:0|0:0,0:0:0:0:
331,117,50859,1,2,3:2:0:0:
231,47,51089,1,0,1:2:0:0:
121,97,51320,2,0,P|106:149|113:199,1,87.5,10|2,0:0|1:2,0:0:0:0:
38,298,51782,2,0,P|101:268|218:299,1,175,2|10,3:2|0:0,0:0:0:0:
375,372,52705,6,0,L|356:283,1,87.5,2|2,3:2|1:2,0:0:0:0:
283,213,53166,1,10,0:0:0:0:
283,213,53282,1,2,0:0:0:0:
283,213,53397,2,0,P|282:177|287:162,1,43.75,2|0,0:0|0:0,0:0:0:0:
290,136,53628,1,2,3:2:0:0:
387,48,53859,1,2,1:2:0:0:
502,103,54089,2,0,P|452:137|437:173,1,87.5,10|2,0:0|1:2,0:0:0:0:
379,245,54551,5,2,3:2:0:0:
500,317,54782,1,0,1:2:0:0:
391,373,55013,2,0,P|329:368|284:337,1,87.5,10|2,0:0|1:2,0:0:0:0:
189,309,55474,2,0,P|197:252|199:198,1,87.5,2|10,3:2|0:0,0:0:0:0:
177,193,55820,1,8,0:0:0:0:
177,193,55936,1,2,1:2:0:0:
72,123,56166,5,10,0:0:0:0:
72,123,56282,1,0,1:2:0:0:
72,123,56397,2,0,P|102:76|159:42,1,87.5,6|2,3:2|1:2,0:0:0:0:
254,42,56859,1,14,0:0:0:0:
254,42,56974,1,2,0:0:0:0:
254,42,57089,1,2,0:0:0:0:
365,99,57320,6,0,P|371:153|362:192,1,87.5,2|2,3:2|1:2,0:0:0:0:
295,265,57782,1,10,0:0:0:0:
295,265,57897,1,2,0:0:0:0:
295,265,58013,1,2,0:0:0:0:
418,358,58243,6,0,P|446:309|446:270,1,87.5,2|0,3:2|1:2,0:0:0:0:
475,164,58705,1,10,0:0:0:0:
361,208,58936,1,2,0:0:0:0:
278,108,59166,2,0,P|229:92|167:110,1,87.5,0|0,3:2|1:2,0:0:0:0:
87,145,59628,1,8,0:0:0:0:
87,145,60089,6,0,L|110:247,1,87.5,6|2,3:2|1:2,0:0:0:0:
80,345,60551,1,14,0:0:0:0:
80,345,60666,1,2,0:0:0:0:
80,345,60782,1,2,0:0:0:0:
191,372,61013,2,0,L|289:344,1,87.5,2|2,3:2|3:2,0:0:0:0:
299,350,61359,1,0,0:2:0:0:
299,350,61474,1,10,0:0:0:0:
219,263,61705,1,0,1:2:0:0:
268,160,61936,6,0,P|317:137|372:136,1,87.5,2|0,3:2|1:2,0:0:0:0:
491,83,62397,2,0,L|469:187,1,87.5,10|0,0:0|1:2,0:0:0:0:
503,302,62859,2,0,P|452:275|397:284,1,87.5,0|0,0:0|1:2,0:0:0:0:
354,308,63205,2,0,L|344:351,1,43.75,0|2,1:2|0:0,0:0:0:0:
220,383,63551,1,0,1:2:0:0:
113,323,63782,6,0,L|85:226,1,87.5,6|2,3:2|0:0,0:0:0:0:
30,163,64243,1,2,3:2:0:0:
110,58,64474,1,2,0:0:0:0:
110,58,64936,1,2,0:2:0:0:
191,105,65166,2,0,P|207:152|206:197,1,87.5,2|2,3:2|0:2,0:0:0:0:
303,243,65628,6,0,P|315:179|330:130,1,87.5,2|2,3:2|0:0,0:0:0:0:
320,139,65974,1,2,0:0:0:0:
320,139,66090,1,2,3:2:0:0:
396,67,66320,1,2,0:0:0:0:
472,131,66551,2,0,P|476:181|461:226,1,87.5,2|2,3:2|0:0,0:0:0:0:
496,304,66897,1,2,0:0:0:0:
496,304,67013,2,0,P|442:333|394:330,1,87.5,2|2,3:2|0:0,0:0:0:0:
307,282,67474,6,0,L|284:190,2,87.5,2|0|2,3:2|0:0|3:2,0:0:0:0:
259,353,68166,1,2,0:0:0:0:
259,353,68628,1,2,0:0:0:0:
259,353,68859,2,0,P|185:345|144:354,1,87.5,2|2,3:2|0:0,0:0:0:0:
82,371,69320,6,0,P|44:330|62:274,1,87.5,2|2,3:2|0:0,0:0:0:0:
54,272,69666,1,2,0:0:0:0:
54,272,69781,1,2,3:2:0:0:
150,246,70013,1,2,0:0:0:0:
94,165,70243,2,0,P|83:112|89:66,1,87.5,2|2,3:2|0:0,0:0:0:0:
105,48,70589,1,2,0:0:0:0:
105,48,70705,1,2,3:2:0:0:
209,86,70936,1,2,0:0:0:0:
284,35,71166,6,0,P|325:10|364:7,2,87.5,2|0|2,3:2|0:0|3:2,0:0:0:0:
209,86,71859,1,2,0:0:0:0:
209,86,72320,1,2,0:0:0:0:
209,86,72551,2,0,L|239:188,1,87.5,2|2,3:2|0:0,0:0:0:0:
216,287,73013,2,0,P|270:251|320:248,1,87.5,2|2,3:2|0:0,0:0:0:0:
320,259,73359,1,2,0:0:0:0:
320,259,73474,1,2,3:2:0:0:
412,290,73705,1,2,0:0:0:0:
481,227,73936,6,0,P|493:172|485:140,1,87.5,2|2,3:2|0:0,0:0:0:0:
416,39,74397,2,0,P|396:87|367:109,1,87.5,2|2,3:2|0:0,0:0:0:0:
246,78,74859,2,0,P|251:136|336:223,1,175,2|2,3:2|3:2,0:0:0:0:
436,258,75551,1,2,0:0:0:0:
436,258,76013,5,2,0:0:0:0:
436,258,76243,2,0,P|388:280|361:311,1,87.5,2|2,3:2|0:0,0:0:0:0:
291,361,76705,2,0,P|252:328|251:276,1,87.5,2|0,3:2|0:0,0:0:0:0:
186,209,77166,1,2,3:2:0:0:
123,283,77397,1,2,0:0:0:0:
50,217,77628,2,0,P|34:156|54:44,1,175,2|0,3:2|3:2,0:0:0:0:
152,15,78551,6,0,L|269:33,1,87.5,2|2,3:2|0:0,0:0:0:0:
307,72,78897,1,2,0:0:0:0:
307,72,79013,2,0,L|300:126,1,43.75,2|2,0:0|0:0,0:0:0:0:
255,179,79243,2,0,L|273:233,1,43.75,2|2,0:0|0:0,0:0:0:0:
239,297,79474,6,0,L|262:343,3,43.75,2|2|2|2,0:0|0:0|0:0|0:0,0:0:0:0:
346,371,79936,1,2,0:0:0:0:
346,371,80051,1,2,0:0:0:0:
346,371,80166,1,2,0:0:0:0:
346,371,80282,1,2,0:0:0:0:
346,371,80397,2,0,P|406:370|440:329,1,87.5,2|2,0:0|0:0,0:0:0:0:
479,302,80743,1,2,0:0:0:0:
479,302,80859,2,0,P|468:261|456:243,1,43.75,2|2,0:0|0:0,0:0:0:0:
465,184,81089,2,0,P|435:158|404:157,1,43.75,2|2,0:0|0:0,0:0:0:0:
350,111,81320,6,0,P|305:144|241:155,1,87.5,2|2,0:0|0:0,0:0:0:0:
143,209,81782,2,0,P|208:224|255:256,1,87.5,2|2,0:0|0:0,0:0:0:0:
287,362,82243,6,0,P|221:350|181:363,1,87.5,2|2,0:0|0:0,0:0:0:0:
130,372,82589,1,2,0:0:0:0:
130,372,82705,1,2,0:0:0:0:
41,325,82936,1,2,0:0:0:0:
41,325,83051,1,2,0:0:0:0:
41,325,83166,2,0,P|28:273|31:266,1,43.75,2|2,0:0|0:0,0:0:0:0:
13,210,83397,2,0,P|16:187|27:169,1,43.75,2|2,0:0|0:0,0:0:0:0:
79,110,83628,2,0,P|103:98|123:98,3,43.75,2|2|2|2,0:0|0:0|0:0|0:0,0:0:0:0:
160,84,84089,5,2,0:0:0:0:
216,169,84320,1,2,0:0:0:0:
216,169,84436,1,2,0:0:0:0:
216,169,84551,2,0,L|205:218,3,43.75,2|2|2|2,0:0|0:0|0:0|0:0,0:0:0:0:
153,270,85013,2,0,L|170:323,1,43.75,2|2,0:0|0:0,0:0:0:0:
226,358,85243,2,0,L|275:366,1,43.75,2|2,0:0|0:0,0:0:0:0:
339,332,85474,1,2,0:0:0:0:
464,282,85705,6,0,L|445:229,1,43.75,2|2,0:0|0:0,0:0:0:0:
464,166,85936,1,2,0:0:0:0:
393,84,86166,1,2,0:0:0:0:
294,107,86397,1,2,0:0:0:0:
294,107,86513,1,2,0:0:0:0:
294,107,86628,2,0,P|250:106|237:100,1,43.75,2|2,0:0|0:0,0:0:0:0:
185,64,86859,6,0,L|173:14,2,43.75,2|2|2,0:0|0:0|0:0,0:0:0:0:
125,113,87205,1,2,0:0:0:0:
125,113,87320,2,0,P|117:135|117:161,1,43.75,2|2,0:0|0:0,0:0:0:0:
71,219,87551,2,0,P|77:238|96:263,1,43.75,2|2,0:0|0:0,0:0:0:0:
105,346,87782,2,0,P|154:318|213:314,1,87.5,2|2,0:0|0:0,0:0:0:0:
312,359,88243,2,0,P|319:305|298:254,1,87.5,2|2,0:0|0:0,0:0:0:0:
280,167,88705,5,2,0:0:0:0:
280,167,88820,1,2,0:0:0:0:
280,167,88936,2,0,P|268:132|265:110,1,43.75,2|2,0:0|0:0,0:0:0:0:
305,56,89166,2,0,P|342:47|403:34,1,87.5,2|2,0:0|0:0,0:0:0:0:
464,70,89513,5,2,0:0:0:0:
464,70,89628,1,2,0:0:0:0:
492,156,89859,2,0,P|475:179|478:207,1,43.75,2|2,0:0|0:0,0:0:0:0:
475,277,90089,1,2,0:0:0:0:
475,277,90205,1,2,0:0:0:0:
475,277,90320,2,0,P|459:312|439:321,1,43.75,2|2,0:0|0:0,0:0:0:0:
394,364,90551,2,0,P|360:372|341:366,3,43.75,2|2|2|2,0:0|0:0|0:0|0:0,0:0:0:0:
277,353,91013,6,0,P|254:326|252:256,1,87.5,2|2,0:0|0:0,0:0:0:0:
291,114,91474,2,0,P|250:169|217:175,1,87.5,2|2,0:0|0:0,0:0:0:0:
161,150,91820,1,2,0:0:0:0:
161,150,91936,2,0,L|145:101,3,43.75,2|2|2|2,0:0|0:0|0:0|0:0,0:0:0:0:
88,33,92397,6,0,B|32:155|103:121|55:249,1,210.000008010865,2|2,0:0|0:0,0:0:0:0:
10,16,100705,6,0,L|34:125,1,83.9999974365235,0|0,3:2|1:2,0:0:0:0:
33,174,101051,1,0,1:2:0:0:
33,174,101166,2,0,L|59:278,1,83.9999974365235,0|0,3:2|1:2,0:0:0:0:
141,341,101628,6,0,P|182:313|234:311,1,83.9999974365235,0|0,3:2|1:2,0:0:0:0:
288,340,101974,1,0,1:2:0:0:
288,340,102089,2,0,P|335:351|381:341,1,83.9999974365235,0|0,3:2|1:2,0:0:0:0:
427,195,102551,6,0,L|331:220,1,83.9999974365235,0|0,3:2|1:2,0:0:0:0:
271,228,102897,1,0,1:2:0:0:
271,228,103013,2,0,L|161:218,1,83.9999974365235,0|0,3:2|1:2,0:0:0:0:
67,157,103474,6,0,P|88:112|129:94,1,83.9999974365235,0|0,3:2|1:2,0:0:0:0:
173,44,103820,1,0,0:0:0:0:
173,44,103936,2,0,P|226:55|256:77,1,83.9999974365235,0|0,3:2|1:2,0:0:0:0:
419,20,104397,6,0,P|375:65|363:165,1,167.999994873047,0|0,3:2|3:2,0:0:0:0:
443,215,105089,1,0,1:2:0:0:
397,296,105320,2,0,P|345:313|302:303,1,83.9999974365235,0|0,3:2|1:2,0:0:0:0:
265,375,105782,2,0,P|222:344|219:302,1,83.9999974365235,0|0,3:2|1:2,0:0:0:0:
85,244,106243,6,0,P|92:184|137:154,1,83.9999974365235,0|0,3:2|1:2,0:0:0:0:
182,137,106589,1,0,0:0:0:0:
182,137,106705,1,0,3:2:0:0:
104,36,106936,2,0,L|94:10,2,27.9999991455078,0|0|0,3:2|3:2|3:2,0:0:0:0:
93,51,107166,5,12,1:2:0:0:
291,62,108089,6,0,P|357:65|429:95,1,105.000004005432,2|0,3:2|1:2,0:0:0:0:
416,73,108435,1,0,1:2:0:0:
416,73,108551,2,0,P|449:82|468:101,1,52.5000020027161,14|0,0:0|0:0,0:0:0:0:
453,169,108782,2,0,P|473:201|472:223,1,52.5000020027161,2|0,3:2|1:2,0:0:0:0:
506,289,109013,6,0,P|474:328|416:339,1,105.000004005432,2|0,3:2|0:0,0:0:0:0:
301,293,109474,2,0,P|279:264|253:240,1,52.5000020027161,10|0,0:0|0:0,0:0:0:0:
186,271,109705,2,0,P|173:236|168:210,1,52.5000020027161,2|0,3:0|1:2,0:0:0:0:
88,211,109935,6,0,P|101:147|123:90,1,105.000004005432,2|0,3:2|0:0,0:0:0:0:
185,4,110397,2,0,P|215:53|222:71,1,52.5000020027161,10|0,0:0|0:0,0:0:0:0:
300,26,110628,2,0,P|292:73|278:101,1,52.5000020027161,2|0,1:2|1:2,0:0:0:0:
408,87,110859,2,0,P|353:128|314:172,1,105.000004005432,2|0,3:2|0:0,0:0:0:0:
347,316,111320,6,0,P|342:286|352:255,1,52.5000020027161,10|0,0:0|0:0,0:0:0:0:
410,218,111551,1,10,0:0:0:0:
495,147,111782,2,0,P|492:85|474:46,1,105.000004005432,2|0,3:2|1:2,0:0:0:0:
396,29,112128,1,0,1:2:0:0:
396,29,112243,2,0,P|359:65|358:82,1,52.5000020027161,10|0,0:0|0:0,0:0:0:0:
307,132,112474,2,0,P|279:105|269:71,1,52.5000020027161,2|0,3:2|1:2,0:0:0:0:
214,34,112705,6,0,P|165:58|104:63,1,105.000004005432,2|2,3:2|3:2,0:0:0:0:
35,71,113051,1,0,1:2:0:0:
35,71,113166,2,0,L|50:130,1,52.5000020027161,10|0,0:0|0:0,0:0:0:0:
67,198,113397,2,0,L|80:259,1,52.5000020027161,2|0,1:2|1:2,0:0:0:0:
142,317,113628,6,0,P|212:300|246:248,1,105.000004005432,2|2,3:2|1:2,0:0:0:0:
315,283,113974,1,0,1:2:0:0:
315,283,114089,2,0,P|305:236|254:198,1,105.000004005432,10|2,0:0|3:2,0:0:0:0:
193,166,114436,1,0,1:2:0:0:
193,166,114551,2,0,L|174:104,2,52.5000020027161,2|0|0,3:2|0:0|0:0,0:0:0:0:
310,197,115013,2,0,P|346:203|387:192,1,52.5000020027161,10|0,1:2|0:0,0:0:0:0:
409,137,115243,2,0,P|441:132|473:142,1,52.5000020027161,10|8,0:0|0:0,0:0:0:0:
502,204,115474,6,0,L|477:319,1,105.000004005432,6|0,3:2|1:0,0:0:0:0:
420,358,115820,1,0,1:0:0:0:
420,358,115936,2,0,P|366:319|311:330,1,105.000004005432,10|2,0:0|1:2,0:0:0:0:
211,377,116397,2,0,L|191:252,1,105.000004005432,2|0,3:2|1:2,0:0:0:0:
255,227,116743,1,0,1:0:0:0:
255,227,116859,2,0,P|272:200|263:156,1,52.5000020027161,10|0,0:0|0:0,0:0:0:0:
312,113,117089,2,0,P|305:73|286:59,1,52.5000020027161,2|0,1:2|1:2,0:0:0:0:
220,60,117320,6,0,P|141:36|84:40,1,105.000004005432,2|0,3:2|0:0,0:0:0:0:
29,112,117782,2,0,P|45:145|76:156,1,52.5000020027161,10|0,0:2|0:0,0:0:0:0:
13,221,118012,2,0,P|39:242|64:241,1,52.5000020027161,2|0,1:2|1:0,0:0:0:0:
70,342,118243,2,0,P|110:304|173:288,1,105.000004005432,2|0,0:0|3:2,0:0:0:0:
295,350,118705,2,0,P|277:318|266:270,1,52.5000020027161,10|0,1:2|0:0,0:0:0:0:
221,237,118935,2,0,P|235:208|235:175,1,52.5000020027161,2|0,1:2|1:2,0:0:0:0:
177,115,119166,6,0,P|237:92|271:54,1,105.000004005432,2|0,3:2|0:0,0:0:0:0:
333,20,119512,1,0,1:2:0:0:
333,20,119628,2,0,P|348:49|346:77,1,52.5000020027161,10|0,0:0|0:0,0:0:0:0:
424,88,119859,2,0,P|427:122|414:143,1,52.5000020027161,2|0,3:2|1:2,0:0:0:0:
478,248,120089,2,0,P|407:223|353:229,1,105.000004005432,2|2,3:2|1:2,0:0:0:0:
303,272,120435,1,0,1:2:0:0:
303,272,120551,2,0,L|330:379,1,105.000004005432,10|2,0:0|1:2,0:0:0:0:
191,224,121012,6,0,P|178:176|180:115,1,105.000004005432,2|2,3:2|0:2,0:0:0:0:
164,50,121359,1,0,1:2:0:0:
164,50,121474,2,0,P|132:59|114:79,1,52.5000020027161,10|0,0:0|0:0,0:0:0:0:
47,37,121705,2,0,P|37:83|44:107,1,52.5000020027161,2|0,3:2|1:2,0:0:0:0:
98,154,121935,1,2,1:2:0:0:
98,154,122051,1,8,0:2:0:0:
98,154,122166,1,0,1:2:0:0:
191,224,122397,2,0,L|310:202,1,105.000004005432,10|8,0:0|0:0,0:0:0:0:
366,173,122743,5,8,0:0:0:0:
366,173,122859,2,0,P|314:128|259:136,1,105.000004005432,6|0,3:2|1:2,0:0:0:0:
220,36,123320,2,0,P|281:42|363:19,1,105.000004005432,10|2,0:0|3:2,0:0:0:0:
406,13,123666,1,0,1:2:0:0:
406,13,123782,2,0,P|461:29|498:64,1,105.000004005432,2|0,3:2|0:0,0:0:0:0:
512,204,124243,5,10,0:0:0:0:
451,285,124474,1,2,3:0:0:0:
451,285,124589,1,0,1:2:0:0:
451,285,124705,2,0,P|418:253|415:181,1,105.000004005432,2|0,3:2|0:0,0:0:0:0:
355,51,125166,5,10,0:0:0:0:
270,111,125397,1,2,1:2:0:0:
270,111,125513,1,0,1:2:0:0:
270,111,125628,2,0,P|279:172|318:198,1,105.000004005432,2|0,3:2|0:0,0:0:0:0:
162,327,126089,2,0,P|170:271|213:240,1,105.000004005432,10|10,0:0|0:0,0:0:0:0:
61,72,126551,6,0,P|38:137|50:186,1,105.000004005432,2|0,3:2|1:2,0:0:0:0:
9,248,126897,1,0,1:2:0:0:
9,248,127013,2,0,P|22:285|44:299,1,52.5000020027161,10|0,0:0|0:0,0:0:0:0:
62,364,127243,1,2,3:2:0:0:
164,320,127474,2,0,P|221:305|286:319,1,105.000004005432,2|2,3:2|3:2,0:0:0:0:
375,370,127936,2,0,P|400:315|387:260,1,105.000004005432,10|2,0:0|1:2,0:0:0:0:
468,139,128397,2,0,P|393:171|330:157,1,105.000004005432,2|2,3:2|1:2,0:0:0:0:
300,197,128743,1,0,1:2:0:0:
300,197,128859,2,0,P|267:184|253:166,2,52.5000020027161,10|0|2,0:0|0:0|3:2,0:0:0:0:
373,103,129320,5,2,3:2:0:0:
286,16,129551,1,0,0:0:0:0:
184,78,129782,1,10,1:2:0:0:
80,24,130013,5,10,0:0:0:0:
80,24,130128,1,8,0:0:0:0:
80,24,130243,2,0,P|55:86|56:151,1,105.000004005432,6|0,3:2|1:0,0:0:0:0:
22,200,130589,1,0,1:0:0:0:
22,200,130705,2,0,P|39:257|73:299,1,105.000004005432,10|2,0:0|1:2,0:0:0:0:
192,381,131166,2,0,P|205:319|199:239,1,105.000004005432,2|0,3:2|1:2,0:0:0:0:
281,238,131513,1,0,1:0:0:0:
281,238,131628,2,0,P|339:218|399:213,1,105.000004005432,10|2,0:0|1:2,0:0:0:0:
502,258,132089,5,2,3:2:0:0:
484,140,132320,1,0,0:0:0:0:
484,140,132436,1,0,1:2:0:0:
484,140,132551,2,0,P|430:102|367:100,1,105.000004005432,10|2,0:2|1:2,0:0:0:0:
295,37,133013,5,2,0:0:0:0:
254,141,133244,1,0,3:2:0:0:
254,141,133360,1,0,1:2:0:0:
254,141,133475,2,0,P|200:179|137:181,1,105.000004005432,10|2,1:2|1:2,0:0:0:0:
37,86,133936,6,0,P|101:46|171:37,1,105.000004005432,2|0,3:2|0:0,0:0:0:0:
203,9,134282,1,0,1:2:0:0:
203,9,134397,2,0,P|244:24|271:40,1,52.5000020027161,10|0,0:0|0:0,0:0:0:0:
330,38,134628,2,0,P|344:64|356:101,1,52.5000020027161,2|0,3:2|1:2,0:0:0:0:
433,119,134859,2,0,P|417:180|421:236,1,105.000004005432,2|2,3:2|1:2,0:0:0:0:
478,285,135205,1,0,1:2:0:0:
478,285,135320,1,10,0:0:0:0:
375,378,135551,1,2,1:2:0:0:
280,293,135782,6,0,P|242:269|178:277,1,105.000004005432,2|2,3:2|0:2,0:0:0:0:
123,328,136127,1,0,1:2:0:0:
123,328,136243,2,0,P|66:296|57:243,1,105.000004005432,10|2,0:0|3:2,0:0:0:0:
61,142,136705,1,2,1:2:0:0:
61,142,136820,1,8,0:2:0:0:
61,142,136936,1,0,1:2:0:0:
169,186,137166,1,10,0:0:0:0:
241,91,137397,5,8,0:0:0:0:
241,91,137513,1,8,0:0:0:0:
241,91,137628,2,0,L|311:104,1,52.5000020027161,6|0,3:2|0:0,0:0:0:0:
332,118,137859,1,2,1:2:0:0:
453,88,138089,2,0,L|473:28,2,52.5000020027161,14|0|2,0:0|0:0|0:0,0:0:0:0:
432,165,138436,5,2,0:0:0:0:
432,165,138551,1,2,3:2:0:0:
512,275,138782,1,2,0:2:0:0:
445,371,139013,1,10,0:0:0:0:
342,313,139243,2,0,P|287:311|268:319,1,52.5000020027161,2|2,1:2|1:2,0:0:0:0:
231,363,139474,2,0,P|210:321|218:287,1,52.5000020027161,2|2,3:2|0:0,0:0:0:0:
141,296,139705,2,0,P|148:262|169:243,1,52.5000020027161,2|2,0:0|0:0,0:0:0:0:
125,180,139936,2,0,P|154:164|183:162,2,52.5000020027161,10|2|2,0:0|0:0|0:0,0:0:0:0:
55,135,140282,5,2,0:0:0:0:
55,135,140397,2,0,L|31:76,1,52.5000020027161,2|2,3:2|1:2,0:0:0:0:
128,86,140628,2,0,L|129:23,1,52.5000020027161,2|2,3:2|1:2,0:0:0:0:
210,64,140859,1,10,0:0:0:0:
308,172,141089,1,0,1:2:0:0:
478,219,141320,6,0,P|493:148|479:105,1,105.000004005432,2|2,3:2|1:2,0:0:0:0:
494,22,141782,1,10,0:0:0:0:
392,80,142013,1,2,0:0:0:0:
296,25,142243,2,0,P|243:13|174:26,1,105.000004005432,2|2,3:2|1:2,0:0:0:0:
86,95,142705,2,0,P|55:52|61:-9,1,105.000004005432,10|2,0:0|0:0,0:0:0:0:
219,133,143166,5,2,3:2:0:0:
113,216,143397,1,2,1:2:0:0:
131,340,143628,2,0,P|180:362|258:347,1,105.000004005432,10|2,0:0|0:0,0:0:0:0:
297,285,144089,1,2,3:2:0:0:
436,350,144320,1,8,1:2:0:0:
436,350,144436,1,8,1:2:0:0:
436,350,144551,1,2,3:2:0:0:
488,263,144782,5,10,0:0:0:0:
488,263,144897,1,8,0:0:0:0:
488,263,145013,2,0,P|479:194|451:135,1,105.000004005432,2|2,3:2|1:2,0:0:0:0:
456,85,145359,1,2,1:2:0:0:
456,85,145474,2,0,P|427:58|362:49,1,105.000004005432,14|2,0:2|1:2,0:0:0:0:
291,20,145820,5,2,1:2:0:0:
291,20,145936,2,0,P|257:37|243:57,1,52.5000020027161,2|0,3:2|0:0,0:0:0:0:
180,88,146166,2,0,P|171:117|173:144,1,52.5000020027161,2|2,0:0|0:0,0:0:0:0:
141,212,146397,1,10,0:0:0:0:
141,212,146513,2,0,P|167:273|216:294,1,105.000004005432,2|2,1:2|0:0,0:0:0:0:
255,347,146859,2,0,P|210:369|190:370,1,52.5000020027161,2|2,3:2|0:0,0:0:0:0:
133,382,147089,2,0,P|94:363|80:347,1,52.5000020027161,2|2,0:0|0:0,0:0:0:0:
27,309,147320,1,10,0:0:0:0:
51,193,147551,5,2,1:2:0:0:
51,193,147666,1,0,1:2:0:0:
51,193,147782,2,0,P|59:160|54:133,1,52.5000020027161,2|2,3:2|1:2,0:0:0:0:
131,108,148013,2,0,P|123:77|101:57,1,52.5000020027161,2|2,3:2|1:2,0:0:0:0:
33,14,148243,2,0,P|29:75|56:130,1,105.000004005432,10|0,0:0|1:2,0:0:0:0:
168,193,148705,6,0,P|222:166|284:162,1,105.000004005432,2|0,3:2|1:2,0:0:0:0:
345,188,149051,1,0,1:2:0:0:
345,188,149166,1,10,0:0:0:0:
416,88,149397,1,2,0:0:0:0:
469,175,149628,2,0,P|483:232|478:292,1,105.000004005432,2|2,3:2|1:2,0:0:0:0:
438,343,149974,1,2,1:2:0:0:
438,343,150089,1,10,0:0:0:0:
339,305,150320,1,2,0:0:0:0:
251,366,150551,6,0,P|230:309|238:259,1,105.000004005432,2|2,3:2|1:2,0:0:0:0:
308,149,151013,1,10,0:0:0:0:
214,186,151243,1,2,0:0:0:0:
145,116,151474,2,0,P|86:88|30:94,1,105.000004005432,2|10,3:2|1:2,0:0:0:0:
0,145,151820,1,8,1:2:0:0:
0,145,151936,1,2,3:2:0:0:
49,252,152166,5,10,1:2:0:0:
49,252,152282,1,0,1:2:0:0:
49,252,152397,1,2,3:2:0:0:
256,192,153089,12,0,157705,0:0:0:0:
