osu file format v14

[General]
AudioFilename: audio.mp3
AudioLeadIn: 0
PreviewTime: 107874
Countdown: 0
SampleSet: Soft
StackLeniency: 0.3
Mode: 0
LetterboxInBreaks: 0
WidescreenStoryboard: 1

[Editor]
Bookmarks: 152181
DistanceSpacing: 1.8
BeatDivisor: 4
GridSize: 32
TimelineZoom: 3.599999

[Metadata]
Title:Tada Koe Hitotsu
TitleUnicode:ただ声一つ
Artist:Rokudenashi
ArtistUnicode:ロクデナシ
Creator:keevy
Version:Expert
Source:
Tags:japanese pop the voice jpop j-pop female vocal vocalist
BeatmapID:3554006
BeatmapSetID:1738898

[Difficulty]
HPDrainRate:5
CircleSize:4.3
OverallDifficulty:8.5
ApproachRate:9.2
SliderMultiplier:2.2
SliderTickRate:1

[Events]
//Background and Video events
0,0,"BG.png",0,0
//Break Periods
//Storyboard Layer 0 (Background)
//Storyboard Layer 1 (Fail)
//Storyboard Layer 2 (Pass)
//Storyboard Layer 3 (Foreground)
//Storyboard Layer 4 (Overlay)
//Storyboard Sound Samples

[TimingPoints]
1013,461.538461538462,4,2,1,45,1,0
13935,-100,4,2,1,55,0,0
15782,-100,4,2,1,55,0,0
30551,-200,4,2,1,40,0,0
32396,-200,4,2,1,45,0,0
33320,-133.333333333333,4,2,1,60,0,0
34243,-66.6666666666667,4,2,1,80,0,1
37474,-50,4,2,1,80,0,1
37936,-66.6666666666667,4,2,1,80,0,1
39320,-50,4,2,1,80,0,1
39782,-66.6666666666667,4,2,1,80,0,1
44859,-50,4,2,1,80,0,1
45320,-66.6666666666667,4,2,1,80,0,1
49013,-100,4,2,1,65,0,0
55473,-100,4,2,1,70,0,0
63782,-100,4,2,1,55,0,0
78551,-83.3333333333333,4,2,1,50,0,0
92397,-500,4,2,1,50,0,0
93204,-500,4,2,1,5,0,0
93320,-133.333333333333,4,2,1,50,0,0
100705,-100,4,2,1,80,0,0
107166,-500,4,2,1,80,0,0
108089,-66.6666666666667,4,2,1,80,0,1
111320,-50,4,2,1,80,0,1
111782,-66.6666666666667,4,2,1,80,0,1
113166,-50,4,2,1,80,0,1
113628,-66.6666666666667,4,2,1,80,0,1
118705,-50,4,2,1,80,0,1
119166,-66.6666666666667,4,2,1,80,0,1
126089,-50,4,2,1,80,0,1
126551,-66.6666666666667,4,2,1,80,0,1
128859,-66.6666666666667,4,2,1,80,0,1
129089,-58.8235294117647,4,2,1,80,0,1
129782,-52.6315789473684,4,2,1,80,0,1
130243,-66.6666666666667,4,2,1,80,0,1
137628,-83.3333333333333,4,2,1,85,0,0
144089,-83.3333333333333,4,2,1,85,0,0
152396,-83.3333333333333,4,2,1,5,0,0
153088,-83.3333333333333,4,2,1,65,0,0
155627,-83.3333333333333,4,2,1,45,0,0
157473,-83.3333333333333,4,2,1,25,0,0
157704,-83.3333333333333,4,2,1,5,0,0

[Colours]
Combo1 : 255,255,187
Combo2 : 255,223,255

[HitObjects]
55,198,1012,5,2,0:0:0:0:
96,118,1243,1,2,0:0:0:0:
111,124,1359,1,2,0:0:0:0:
121,136,1474,1,2,0:0:0:0:
202,66,1705,1,2,0:0:0:0:
212,87,1821,1,2,0:0:0:0:
212,109,1936,1,2,0:0:0:0:
350,78,2166,1,2,0:0:0:0:
341,111,2282,1,2,0:0:0:0:
320,136,2397,1,2,0:0:0:0:
178,197,2628,5,2,0:0:0:0:
192,192,2744,1,2,0:0:0:0:
208,195,2859,1,2,0:0:0:0:
333,288,3089,1,2,0:0:0:0:
321,278,3205,1,2,0:0:0:0:
316,263,3320,1,2,0:0:0:0:
151,116,3551,1,2,0:0:0:0:
172,106,3667,1,2,0:0:0:0:
196,111,3782,5,2,0:0:0:0:
352,183,4012,1,2,0:0:0:0:
476,71,4243,1,2,0:0:0:0:
476,71,4474,1,2,0:0:0:0:
456,252,4705,5,2,0:0:0:0:
415,332,4936,1,2,0:0:0:0:
400,326,5052,1,2,0:0:0:0:
390,314,5167,1,2,0:0:0:0:
309,384,5398,1,2,0:0:0:0:
299,363,5514,1,2,0:0:0:0:
299,341,5629,1,2,0:0:0:0:
161,372,5859,1,2,0:0:0:0:
170,339,5975,1,2,0:0:0:0:
191,314,6090,1,2,0:0:0:0:
333,253,6321,5,2,0:0:0:0:
319,258,6437,1,2,0:0:0:0:
303,255,6552,1,2,0:0:0:0:
178,162,6782,1,2,0:0:0:0:
190,172,6898,1,2,0:0:0:0:
195,187,7013,1,2,0:0:0:0:
360,334,7244,1,2,0:0:0:0:
339,344,7360,1,2,0:0:0:0:
315,339,7475,5,2,0:0:0:0:
159,267,7705,1,2,0:0:0:0:
35,379,7936,1,2,0:0:0:0:
35,379,8167,1,2,0:0:0:0:
232,202,8397,5,2,0:0:0:0:
131,119,8628,1,2,0:0:0:0:
146,125,8744,1,2,0:0:0:0:
156,137,8859,1,2,0:0:0:0:
86,222,9090,1,2,0:0:0:0:
64,212,9206,1,2,0:0:0:0:
50,195,9321,1,2,0:0:0:0:
180,41,9551,1,2,0:0:0:0:
210,55,9667,1,2,0:0:0:0:
231,80,9782,1,2,0:0:0:0:
76,81,10013,5,2,0:0:0:0:
90,76,10129,1,2,0:0:0:0:
106,79,10244,1,2,0:0:0:0:
50,195,10474,1,2,0:0:0:0:
38,185,10590,1,2,0:0:0:0:
33,170,10705,1,2,0:0:0:0:
148,231,10936,1,2,0:0:0:0:
169,221,11052,1,2,0:0:0:0:
193,226,11167,5,2,0:0:0:0:
235,359,11397,1,2,0:0:0:0:
361,283,11628,1,2,0:0:0:0:
361,283,11859,1,2,0:0:0:0:
241,162,12089,5,2,0:0:0:0:
381,119,12320,1,2,0:0:0:0:
366,125,12436,1,2,0:0:0:0:
356,137,12551,1,2,0:0:0:0:
426,222,12782,1,2,0:0:0:0:
448,212,12898,1,2,0:0:0:0:
462,195,13013,1,2,0:0:0:0:
332,41,13243,1,2,0:0:0:0:
302,55,13359,1,2,0:0:0:0:
281,80,13474,1,2,0:0:0:0:
436,81,13705,5,2,0:0:0:0:
422,76,13821,1,2,0:0:0:0:
406,79,13936,1,2,0:0:0:0:
462,195,14166,1,2,0:0:0:0:
474,185,14282,1,2,0:0:0:0:
479,170,14397,1,2,0:0:0:0:
364,231,14628,1,2,0:0:0:0:
343,221,14744,1,2,0:0:0:0:
319,226,14859,5,2,0:0:0:0:
277,359,15089,1,2,0:0:0:0:
73,323,15320,6,0,P|60:276|58:254,1,55,2|0,0:0|0:0,0:0:0:0:
153,307,15551,2,0,P|148:280|140:254,1,55,2|0,0:0|0:0,0:0:0:0:
82,198,15782,5,2,0:0:0:0:
230,212,16012,1,0,0:0:0:0:
85,178,16243,1,0,0:0:0:0:
232,194,16474,1,2,0:0:0:0:
28,116,16705,5,0,0:0:0:0:
153,8,16936,2,0,P|178:45|184:74,1,55,2|0,0:0|0:0,0:0:0:0:
292,51,17166,2,0,P|291:78|283:104,1,55,2|0,0:0|0:0,0:0:0:0:
80,44,17397,2,0,P|90:69|108:90,1,55
6,221,17628,6,0,P|60:196|125:198,1,110,2|0,0:0|0:0,0:0:0:0:
187,365,18089,2,0,P|167:331|164:306,1,55,2|0,0:0|0:0,0:0:0:0:
266,339,18320,2,0,P|258:312|243:290,1,55,2|0,0:0|0:0,0:0:0:0:
182,244,18551,5,2,0:0:0:0:
45,272,18782,1,0,0:0:0:0:
349,147,19012,2,0,P|339:194|334:219,1,55,2|0,0:0|0:0,0:0:0:0:
259,188,19243,2,0,P|269:141|274:116,1,55,2|0,0:0|0:0,0:0:0:0:
311,68,19474,5,2,0:0:0:0:
494,117,19705,1,0,0:0:0:0:
375,16,19936,5,0,0:0:0:0:
140,78,20167,1,2,0:0:0:0:
140,78,20628,6,0,P|122:37|119:13,1,55,2|0,0:0|0:0,0:0:0:0:
197,0,20859,2,0,P|215:41|218:65,1,55,2|0,0:0|0:0,0:0:0:0:
316,104,21089,2,0,P|303:146|290:167,1,55,2|0,0:0|0:0,0:0:0:0:
246,213,21320,5,2,0:0:0:0:
153,158,21551,1,0,0:0:0:0:
34,158,21782,1,0,0:0:0:0:
58,263,22012,2,0,P|85:226|92:203,1,55,2|0,0:0|0:0,0:0:0:0:
153,158,22243,2,0,P|153:104|130:47,1,110,2|0,0:0|0:0,0:0:0:0:
36,14,22705,6,0,P|58:56|65:76,1,55,2|0,0:0|0:0,0:0:0:0:
235,0,22936,2,0,P|224:46|217:66,1,55,2|0,0:0|0:0,0:0:0:0:
184,122,23166,5,2,0:0:0:0:
328,163,23397,1,0,0:0:0:0:
178,143,23628,1,0,0:0:0:0:
319,186,23859,1,2,0:0:0:0:
126,240,24089,5,2,0:0:0:0:
204,318,24320,2,0,P|214:273|220:255,1,55,2|0,0:0|0:0,0:0:0:0:
48,258,24551,2,0,P|42:230|35:204,1,55,2|0,0:0|0:0,0:0:0:0:
207,172,24782,2,0,P|170:167|141:158,1,55,2|0,0:0|0:0,0:0:0:0:
82,121,25012,5,2,0:0:0:0:
206,28,25243,1,0,0:0:0:0:
7,11,25474,2,0,P|28:45|34:71,1,55,2|0,0:0|0:0,0:0:0:0:
152,85,25705,2,0,P|131:51|125:25,1,55,2|0,0:0|0:0,0:0:0:0:
206,28,25936,5,2,0:0:0:0:
342,154,26166,1,0,0:0:0:0:
453,33,26397,2,0,P|417:28|388:23,1,55,2|0,0:0|0:0,0:0:0:0:
285,65,26628,2,0,P|321:70|350:75,1,55,2|0,0:0|0:0,0:0:0:0:
427,116,26859,5,2,0:0:0:0:
240,180,27089,1,0,0:0:0:0:
420,226,27320,1,0,0:0:0:0:
193,358,27551,1,2,0:0:0:0:
193,358,28012,6,0,P|179:313|179:291,1,55,2|0,0:0|0:0,0:0:0:0:
258,291,28243,2,0,P|271:336|271:358,1,55,2|0,0:0|0:0,0:0:0:0:
110,260,28474,2,0,P|128:216|142:199,1,55,2|0,0:0|0:0,0:0:0:0:
188,154,28705,5,2,0:0:0:0:
324,209,28936,1,0,0:0:0:0:
444,131,29166,1,0,0:0:0:0:
356,61,29397,2,0,P|364:104|370:131,1,55,2|0,0:0|0:0,0:0:0:0:
324,209,29628,6,0,P|276:168|197:162,1,110,2|2,0:0|0:0,0:0:0:0:
102,138,30089,2,0,L|100:159,2,18.3333333333333,2|2|2,0:0|0:0|0:0,0:0:0:0:
102,138,30551,6,0,P|116:182|109:254,1,110,2|2,0:0|0:0,0:0:0:0:
271,315,31243,1,2,0:0:0:0:
209,378,31474,2,0,P|195:334|202:262,1,110,2|2,0:0|0:0,0:0:0:0:
276,142,32166,1,2,0:0:0:0:
408,250,32397,6,0,P|358:243|294:235,1,110,2|2,0:0|0:0,0:0:0:0:
217,116,33089,1,2,0:0:0:0:
31,131,33320,6,0,B|55:33|171:48|171:48|130:74|138:136,1,247.500009441376,2|0,0:0|1:2,0:0:0:0:
175,194,34243,6,0,P|84:134|-11:140,1,165.000006294251,6|0,3:2|1:2,0:0:0:0:
174,281,34589,1,0,1:2:0:0:
174,281,34705,2,0,P|221:264|250:224,1,82.5000031471254,10|0,0:0|0:0,0:0:0:0:
285,75,34936,2,0,P|237:92|208:132,1,82.5000031471254,2|0,3:2|1:2,0:0:0:0:
339,347,35166,6,0,P|317:309|322:248,1,82.5000031471254,2|0,3:2|0:0,0:0:0:0:
370,43,35397,1,0,0:0:0:0:
393,35,35512,1,0,0:0:0:0:
417,34,35628,2,0,P|439:72|434:133,1,82.5000031471254,10|0,0:0|0:0,0:0:0:0:
240,1,35859,2,0,P|206:24|187:60,1,82.5000031471254,2|0,3:0|1:2,0:0:0:0:
385,187,36089,6,0,P|313:123|236:117,1,165.000006294251,2|0,3:2|0:0,0:0:0:0:
196,233,36436,1,0,1:2:0:0:
196,233,36551,2,0,P|259:203|277:168,1,82.5000031471254,10|0,0:0|0:0,0:0:0:0:
186,60,36782,2,0,P|123:90|105:125,1,82.5000031471254,2|0,1:2|1:2,0:0:0:0:
26,72,37012,6,0,P|46:131|55:165,1,82.5000031471254,2|0,3:2|0:0,0:0:0:0:
41,360,37243,2,0,P|29:320|15:281,1,82.5000031471254,0|0,0:0|1:2,0:0:0:0:
148,167,37474,6,0,P|116:203|96:296,1,110,10|0,0:0|0:0,0:0:0:0:
268,360,37705,2,0,P|300:324|320:231,1,110,10|0,0:0|1:2,0:0:0:0:
488,155,37936,6,0,P|413:188|331:186,1,165.000006294251,2|0,3:2|1:2,0:0:0:0:
231,244,38282,1,0,1:2:0:0:
231,244,38397,2,0,P|185:219|160:186,1,82.5000031471254,10|0,0:0|0:0,0:0:0:0:
370,69,38628,2,0,P|324:94|299:127,1,82.5000031471254,2|0,3:2|1:2,0:0:0:0:
421,297,38859,6,0,P|467:272|492:239,1,82.5000031471254,2|0,3:2|0:0,0:0:0:0:
315,377,39089,2,0,P|275:368|242:345,1,82.5000031471254,2|0,3:2|1:2,0:0:0:0:
431,191,39320,6,0,P|450:142|448:82,1,110,10|0,0:0|0:0,0:0:0:0:
221,60,39551,2,0,P|201:108|204:169,1,110,2|0,1:2|1:2,0:0:0:0:
315,272,39782,6,0,P|322:225|320:176,1,82.5000031471254,2|0,3:2|0:0,0:0:0:0:
113,43,40012,1,2,1:2:0:0:
88,43,40128,1,0,1:2:0:0:
65,52,40243,2,0,P|58:98|60:148,1,82.5000031471254,10|0,0:0|0:0,0:0:0:0:
21,296,40474,2,0,P|88:281|110:278,1,82.5000031471254,2|0,3:2|1:2,0:0:0:0:
299,53,40705,5,2,3:2:0:0:
276,42,40820,1,0,0:0:0:0:
251,46,40936,2,0,P|265:117|271:153,1,82.5000031471254,0|0,0:0|1:2,0:0:0:0:
217,363,41166,2,0,P|199:325|201:282,1,82.5000031471254,10|0,1:2|0:0,0:0:0:0:
386,135,41397,1,10,0:0:0:0:
431,199,41512,1,8,0:0:0:0:
422,279,41628,6,0,P|334:242|238:240,1,165.000006294251,6|0,3:2|1:0,0:0:0:0:
201,157,41974,1,0,1:0:0:0:
201,157,42089,2,0,P|160:169|120:198,1,82.5000031471254,10|0,0:0|0:0,0:0:0:0:
356,39,42320,2,0,P|321:61|282:72,1,82.5000031471254,2|0,1:2|1:2,0:0:0:0:
0,191,42551,5,2,3:2:0:0:
0,110,42666,1,0,0:0:0:0:
39,44,42781,1,0,1:2:0:0:
117,24,42897,1,0,1:0:0:0:
190,59,43012,2,0,P|208:132|217:157,1,82.5000031471254,10|0,0:0|0:0,0:0:0:0:
176,343,43243,2,0,P|158:270|149:245,1,82.5000031471254,2|0,1:2|1:2,0:0:0:0:
341,106,43474,6,0,P|308:131|289:167,1,82.5000031471254,2|0,3:2|0:0,0:0:0:0:
290,332,43705,1,0,0:0:0:0:
302,353,43820,1,0,1:2:0:0:
324,363,43936,2,0,P|356:337|375:301,1,82.5000031471254,10|0,0:2|0:0,0:0:0:0:
495,231,44166,2,0,P|499:189|487:151,1,82.5000031471254,2|0,1:2|1:0,0:0:0:0:
218,13,44397,6,0,P|251:37|291:46,1,82.5000031471254,2|0,0:0|0:0,0:0:0:0:
341,106,44628,2,0,P|378:89|406:59,1,82.5000031471254,0|0,3:2|1:2,0:0:0:0:
497,1,44859,6,0,P|439:26|396:72,1,110,10|0,1:2|0:0,0:0:0:0:
218,13,45089,2,0,P|190:69|187:132,1,110,2|0,1:2|1:2,0:0:0:0:
270,340,45320,6,0,P|289:279|286:242,1,82.5000031471254,2|0,3:2|0:0,0:0:0:0:
109,183,45551,1,0,0:0:0:0:
85,190,45666,1,0,1:2:0:0:
70,209,45782,2,0,P|50:270|53:307,1,82.5000031471254,10|0,0:0|0:0,0:0:0:0:
346,189,46012,2,0,P|286:178|243:172,1,82.5000031471254,2|0,3:2|1:2,0:0:0:0:
0,72,46243,6,0,P|48:92|71:115,1,82.5000031471254,2|0,3:2|0:0,0:0:0:0:
199,0,46474,2,0,P|205:51|197:82,1,82.5000031471254,2|0,1:2|1:2,0:0:0:0:
219,301,46705,2,0,P|267:281|290:258,1,82.5000031471254,10|0,0:0|0:0,0:0:0:0:
418,373,46936,2,0,P|424:321|416:290,1,82.5000031471254,2|0,1:2|1:2,0:0:0:0:
481,56,47166,6,0,P|423:67|387:75,1,82.5000031471254,2|0,3:2|0:0,0:0:0:0:
190,212,47397,1,2,0:2:0:0:
166,217,47512,1,0,1:2:0:0:
141,221,47628,2,0,P|128:157|121:134,1,82.5000031471254,10|0,0:0|0:0,0:0:0:0:
245,14,47859,2,0,P|258:78|265:101,1,82.5000031471254,2|0,3:2|1:2,0:0:0:0:
427,204,48089,5,2,1:2:0:0:
427,204,48205,2,0,P|363:174|260:178,1,165.000006294251,8|0,0:2|0:0,0:0:0:0:
467,136,48551,2,0,P|496:166|509:205,1,82.5000031471254,10|8,0:0|0:0,0:0:0:0:
400,370,48782,1,8,0:0:0:0:
325,380,48897,1,8,0:0:0:0:
261,338,49012,5,6,3:2:0:0:
430,252,49243,1,2,1:2:0:0:
384,177,49474,1,10,0:0:0:0:
368,181,49589,1,2,0:0:0:0:
355,191,49705,2,0,P|347:239|344:258,1,55,2|0,0:0|0:0,0:0:0:0:
155,354,49936,6,0,P|192:333|203:318,1,55,2|0,3:2|0:0,0:0:0:0:
259,242,50166,2,0,P|273:202|272:183,1,55,0|0,1:2|0:0,0:0:0:0:
179,39,50397,1,10,0:0:0:0:
195,43,50512,1,2,0:0:0:0:
208,53,50628,2,0,P|216:101|219:120,1,55,2|0,0:0|0:0,0:0:0:0:
103,183,50859,6,0,P|130:175|156:170,1,55,2|0,3:2|0:0,0:0:0:0:
345,61,51089,2,0,P|318:68|291:74,1,55,0|0,1:2|0:0,0:0:0:0:
76,26,51320,2,0,P|97:58|105:80,1,55,10|0,0:0|0:0,0:0:0:0:
48,246,51551,2,0,P|26:214|18:192,1,55,2|0,1:2|1:2,0:0:0:0:
291,74,51782,6,0,P|249:156|242:262,1,165,2|0,3:2|0:0,0:0:0:0:
325,258,52243,2,0,P|366:175|373:69,1,165,10|0,0:0|0:0,0:0:0:0:
354,24,52705,5,2,3:2:0:0:
512,115,52936,1,2,1:2:0:0:
466,190,53167,1,10,0:0:0:0:
450,186,53282,1,2,0:0:0:0:
437,176,53398,2,0,P|429:128|426:109,1,55,2|0,0:0|0:0,0:0:0:0:
237,13,53629,6,0,P|274:34|285:49,1,55,2|0,3:2|0:0,0:0:0:0:
341,125,53859,2,0,P|355:164|354:183,1,55,2|0,1:2|0:0,0:0:0:0:
225,368,54090,1,10,0:0:0:0:
298,259,54321,2,0,P|294:286|290:314,1,55,2|0,1:2|0:0,0:0:0:0:
185,183,54552,6,0,P|211:190|238:196,1,55,2|0,3:2|0:0,0:0:0:0:
427,306,54782,2,0,P|400:298|373:292,1,55,0|0,1:2|0:0,0:0:0:0:
158,341,55013,2,0,P|179:309|187:287,1,55,10|0,0:0|0:0,0:0:0:0:
130,121,55244,2,0,P|108:153|100:175,1,55,2|0,1:2|0:0,0:0:0:0:
20,196,55474,6,0,P|36:218|48:244,1,55,2|0,3:2|0:0,0:0:0:0:
271,223,55705,1,10,0:0:0:0:
255,229,55820,1,8,0:0:0:0:
240,236,55936,2,0,P|223:213|212:188,1,55,2|0,1:2|0:0,0:0:0:0:
40,117,56166,2,0,P|41:89|49:63,1,55,10|0,0:0|1:2,0:0:0:0:
110,7,56397,5,6,3:2:0:0:
325,86,56628,1,2,1:2:0:0:
204,23,56859,1,14,0:0:0:0:
197,38,56974,1,2,0:0:0:0:
192,53,57089,2,0,P|236:67|249:74,1,55,2|0,0:0|0:0,0:0:0:0:
389,29,57320,6,0,P|363:17|337:11,1,55,2|0,3:2|0:0,0:0:0:0:
273,168,57551,2,0,P|299:174|325:186,1,55,2|0,1:2|0:0,0:0:0:0:
468,124,57782,1,10,0:0:0:0:
452,117,57897,1,2,0:0:0:0:
437,112,58012,2,0,P|423:156|416:169,1,55,2|0,0:0|0:0,0:0:0:0:
439,370,58243,6,0,P|467:318|482:199,1,165,2|0,3:2|0:0,0:0:0:0:
368,319,58705,2,0,P|350:278|321:250,1,55,10|0,0:0|0:0,0:0:0:0:
291,372,58936,2,0,P|250:352|210:349,1,55,2|0,0:0|0:0,0:0:0:0:
50,357,59166,6,0,B|122:375|175:318|175:318|145:296,1,165,0|0,3:2|0:0,0:0:0:0:
35,159,59628,2,0,B|-16:212|6:286|6:286|40:271,1,165,8|0,0:0|0:0,0:0:0:0:
93,226,60089,5,6,3:2:0:0:
214,68,60320,1,2,1:2:0:0:
296,250,60551,1,14,0:0:0:0:
280,256,60666,1,2,0:0:0:0:
263,256,60782,2,0,P|244:214|241:198,1,55,2|0,0:0|0:0,0:0:0:0:
276,19,61012,6,0,P|295:61|298:77,1,55,2|2,3:2|1:2,0:0:0:0:
396,136,61243,2,0,P|347:157|326:162,1,55,2|0,3:2|0:2,0:0:0:0:
144,210,61474,6,0,L|131:182,3,18.3333333333333,10|2|2|2,0:0|0:0|0:0|0:0,0:0:0:0:
81,137,61705,2,0,P|109:122|146:118,1,55,0|0,1:2|0:0,0:0:0:0:
184,7,61936,6,0,P|192:33|201:59,1,55,2|0,3:2|0:0,0:0:0:0:
453,73,62166,2,0,P|434:93|416:114,1,55,0|0,1:2|0:0,0:0:0:0:
251,210,62397,2,0,P|260:184|269:158,1,55,10|0,0:0|0:0,0:0:0:0:
37,265,62627,2,0,P|19:244|1:224,1,55,0|0,1:2|0:0,0:0:0:0:
103,112,62859,6,0,P|121:152|128:173,1,55
193,349,63089,2,0,P|175:309|168:288,1,55,0|0,1:2|1:2,0:0:0:0:
202,62,63320,5,2,0:0:0:0:
362,366,63551,1,0,1:2:0:0:
502,120,63782,6,0,P|463:113|442:113,1,55,6|0,3:2|0:0,0:0:0:0:
359,178,64012,1,2,0:0:0:0:
371,189,64128,1,0,0:0:0:0:
385,196,64243,2,0,P|424:203|445:203,1,55,2|0,3:2|0:0,0:0:0:0:
375,47,64474,2,0,P|373:74|367:101,1,55,2|0,0:0|0:0,0:0:0:0:
258,220,64705,5,0,3:2:0:0:
258,220,64936,2,0,P|259:192|265:165,1,55,2|0,0:2|0:0,0:0:0:0:
119,59,65166,2,0,P|143:46|169:38,1,55,2|0,3:2|0:0,0:0:0:0:
205,118,65397,2,0,P|180:130|154:138,1,55,2|0,0:2|0:0,0:0:0:0:
50,119,65628,6,0,P|29:90|26:51,1,55,2|0,3:2|0:0,0:0:0:0:
281,10,65859,1,2,0:0:0:0:
323,53,65974,1,2,0:0:0:0:
331,112,66089,1,2,3:2:0:0:
220,237,66320,1,2,0:0:0:0:
346,364,66551,5,2,3:2:0:0:
407,303,66782,1,2,0:0:0:0:
352,281,66897,1,2,0:0:0:0:
294,296,67012,1,2,3:2:0:0:
128,379,67243,1,2,0:0:0:0:
80,166,67474,6,0,P|99:230|104:279,1,110,2|0,3:2|0:0,0:0:0:0:
47,369,67820,1,2,0:0:0:0:
47,369,67936,2,0,P|33:328|34:307,1,55,2|0,3:2|0:0,0:0:0:0:
194,298,68166,2,0,P|191:270|180:246,1,55,2|0,0:0|0:0,0:0:0:0:
80,166,68397,5,0,3:2:0:0:
250,62,68628,2,0,P|234:85|216:106,1,55,2|0,0:0|0:0,0:0:0:0:
101,42,68859,2,0,P|129:76|148:92,1,55,2|0,3:2|0:0,0:0:0:0:
318,180,69090,2,0,P|290:177|263:171,1,55,2|0,0:0|0:0,0:0:0:0:
311,8,69320,6,0,P|338:10|365:16,1,55,2|0,3:2|0:0,0:0:0:0:
512,172,69551,1,2,0:0:0:0:
455,151,69666,1,2,0:0:0:0:
401,168,69782,2,0,P|393:211|391:229,1,55,2|0,3:2|0:0,0:0:0:0:
443,342,70012,2,0,P|446:314|452:287,1,55,2|0,0:0|0:0,0:0:0:0:
309,292,70243,6,0,P|357:299|383:307,1,55,2|0,3:2|0:0,0:0:0:0:
144,134,70474,1,2,0:0:0:0:
123,191,70589,1,2,0:0:0:0:
140,245,70705,2,0,P|183:253|201:255,1,55,2|0,3:2|0:0,0:0:0:0:
314,203,70935,2,0,P|286:199|259:193,1,55,2|0,0:0|0:0,0:0:0:0:
228,25,71166,6,0,P|220:73|214:110,1,55,2|0,3:2|0:0,0:0:0:0:
59,141,71397,1,0,0:0:0:0:
42,144,71512,1,2,0:0:0:0:
25,141,71628,2,0,P|29:106|33:74,1,55,2|0,3:2|0:0,0:0:0:0:
138,20,71859,2,0,P|134:55|130:87,1,55,2|0,0:0|0:0,0:0:0:0:
259,193,72089,5,0,3:2:0:0:
16,254,72320,2,0,P|31:255|70:258,1,55,2|0,0:0|0:0,0:0:0:0:
155,370,72551,2,0,P|147:327|149:298,1,55,2|0,3:2|0:0,0:0:0:0:
333,149,72782,2,0,P|341:192|339:221,1,55,2|0,0:0|0:0,0:0:0:0:
366,286,73012,6,0,P|327:287|301:287,1,55,2|0,3:2|0:0,0:0:0:0:
195,35,73243,1,2,0:0:0:0:
137,42,73359,1,2,0:0:0:0:
88,74,73474,2,0,P|95:122|97:135,1,55,2|0,3:2|0:0,0:0:0:0:
280,12,73705,2,0,P|287:60|289:73,1,55,2|0,0:0|0:0,0:0:0:0:
224,272,73936,6,0,P|217:224|215:211,1,55,2|0,3:2|0:0,0:0:0:0:
401,169,74166,1,2,0:0:0:0:
459,176,74282,1,2,0:0:0:0:
508,208,74397,2,0,P|501:256|499:269,1,55,2|0,3:2|0:0,0:0:0:0:
316,146,74628,2,0,P|309:194|307:207,1,55,2|0,0:0|0:0,0:0:0:0:
449,360,74859,6,0,P|373:330|300:333,1,110,2|0,3:2|0:0,0:0:0:0:
274,358,75205,1,2,0:0:0:0:
274,358,75320,2,0,P|265:310|269:293,1,55,2|0,3:2|0:0,0:0:0:0:
184,173,75551,2,0,P|193:221|189:238,1,55,2|0,0:0|0:0,0:0:0:0:
145,291,75782,5,0,3:2:0:0:
321,183,76012,2,0,P|293:187|266:192,1,55,2|0,0:0|0:0,0:0:0:0:
52,134,76243,2,0,P|81:133|110:142,1,55,2|0,3:2|0:0,0:0:0:0:
173,38,76474,2,0,P|165:64|166:92,1,55,2|0,0:0|0:0,0:0:0:0:
266,192,76705,6,0,P|291:156|291:127,1,55,2|0,3:2|0:0,0:0:0:0:
235,84,76936,1,0,0:0:0:0:
261,359,77166,1,2,3:2:0:0:
82,206,77397,1,2,0:0:0:0:
322,226,77628,5,2,3:2:0:0:
44,284,77859,1,0,1:2:0:0:
125,10,78089,1,0,3:2:0:0:
253,360,78320,1,0,3:2:0:0:
331,63,78551,5,2,3:2:0:0:
465,298,78782,1,2,0:0:0:0:
410,320,78897,1,2,0:0:0:0:
352,316,79013,2,0,P|334:277|337:236,1,65.9999979858399,2|2,0:0|0:0,0:0:0:0:
395,111,79243,2,0,P|412:149|409:190,1,65.9999979858399,2|2,0:0|0:0,0:0:0:0:
259,296,79474,5,2,0:0:0:0:
181,296,79589,1,2,0:0:0:0:
122,244,79704,1,2,0:0:0:0:
113,168,79820,1,2,0:0:0:0:
157,104,79935,1,2,0:0:0:0:
187,102,80051,1,2,0:0:0:0:
205,111,80166,1,2,0:0:0:0:
215,122,80282,1,2,0:0:0:0:
222,132,80397,6,0,L|139:128,1,65.9999979858399,2|0,0:0|0:0,0:0:0:0:
7,165,80628,1,2,0:0:0:0:
0,147,80743,1,2,0:0:0:0:
19,102,80859,5,2,0:0:0:0:
88,66,80974,1,2,0:0:0:0:
163,85,81089,1,2,0:0:0:0:
209,147,81205,1,2,0:0:0:0:
202,225,81320,1,2,0:0:0:0:
251,282,81435,1,2,0:0:0:0:
329,288,81550,1,2,0:0:0:0:
386,237,81666,1,2,0:0:0:0:
389,159,81781,5,2,0:0:0:0:
373,161,81897,1,2,0:0:0:0:
346,71,82013,1,2,0:0:0:0:
334,82,82129,1,2,0:0:0:0:
248,36,82243,6,0,P|238:84|249:126,1,65.9999979858399,2|2,0:0|0:0,0:0:0:0:
33,202,82474,1,2,0:0:0:0:
39,143,82589,1,2,0:0:0:0:
74,96,82705,2,0,P|112:109|138:134,1,65.9999979858399,2|0,0:0|0:0,0:0:0:0:
157,320,82936,5,2,0:0:0:0:
151,307,83051,1,2,0:0:0:0:
119,294,83166,5,2,0:0:0:0:
141,222,83281,1,2,0:0:0:0:
206,187,83396,1,2,0:0:0:0:
276,207,83512,1,2,0:0:0:0:
316,269,83628,1,2,0:0:0:0:
384,300,83743,1,2,0:0:0:0:
447,259,83858,1,2,0:0:0:0:
442,183,83974,1,2,0:0:0:0:
385,130,84089,6,0,P|367:174|373:242,1,65.9999979858399,2|0,0:0|0:0,0:0:0:0:
338,371,84320,1,2,0:0:0:0:
340,360,84436,1,2,0:0:0:0:
387,348,84551,5,2,0:0:0:0:
362,279,84666,1,2,0:0:0:0:
302,241,84781,1,2,0:0:0:0:
229,249,84897,1,2,0:0:0:0:
179,300,85012,5,2,0:0:0:0:
171,289,85128,1,2,0:0:0:0:
103,338,85243,1,2,0:0:0:0:
101,325,85359,1,2,0:0:0:0:
23,338,85474,2,0,P|25:294|41:262,1,65.9999979858399,2|0,0:0|0:0,0:0:0:0:
209,128,85705,1,2,0:0:0:0:
157,99,85820,1,2,0:0:0:0:
103,115,85936,6,0,P|91:149|88:211,1,65.9999979858399,2|0,0:0|0:0,0:0:0:0:
234,384,86166,2,0,P|246:350|249:288,1,65.9999979858399,2|0,0:0|0:0,0:0:0:0:
484,304,86397,5,2,0:0:0:0:
455,238,86513,1,2,0:0:0:0:
388,215,86629,1,2,0:0:0:0:
326,251,86744,1,2,0:0:0:0:
310,319,86859,5,2,0:0:0:0:
325,235,86974,1,2,0:0:0:0:
272,169,87089,1,2,0:0:0:0:
187,163,87205,1,2,0:0:0:0:
127,223,87320,5,2,0:0:0:0:
145,225,87436,1,2,0:0:0:0:
142,317,87551,1,2,0:0:0:0:
155,306,87667,1,2,0:0:0:0:
209,374,87782,5,2,0:0:0:0:
208,302,87897,1,2,0:0:0:0:
261,256,88012,1,2,0:0:0:0:
330,264,88128,1,2,0:0:0:0:
371,321,88243,1,2,0:0:0:0:
303,305,88358,1,2,0:0:0:0:
270,242,88473,1,2,0:0:0:0:
296,177,88589,1,2,0:0:0:0:
362,153,88705,5,2,0:0:0:0:
423,96,88820,1,2,0:0:0:0:
395,19,88935,1,2,0:0:0:0:
313,15,89051,1,2,0:0:0:0:
274,86,89166,5,2,0:0:0:0:
253,105,89282,1,2,0:0:0:0:
233,105,89397,1,2,0:0:0:0:
223,98,89513,1,2,0:0:0:0:
219,87,89628,6,0,P|230:137|233:177,1,65.9999979858399,2|0,0:0|0:0,0:0:0:0:
186,360,89859,1,2,0:0:0:0:
181,347,89974,1,2,0:0:0:0:
144,335,90089,5,2,0:0:0:0:
71,330,90204,1,2,0:0:0:0:
34,269,90319,1,2,0:0:0:0:
62,203,90435,1,2,0:0:0:0:
132,189,90551,5,2,0:0:0:0:
191,126,90666,1,2,0:0:0:0:
174,41,90781,1,2,0:0:0:0:
95,15,90897,1,2,0:0:0:0:
21,54,91012,5,2,0:0:0:0:
34,61,91128,1,2,0:0:0:0:
10,150,91243,1,2,0:0:0:0:
21,147,91359,1,2,0:0:0:0:
60,227,91474,5,2,0:0:0:0:
105,169,91589,1,2,0:0:0:0:
176,149,91704,1,2,0:0:0:0:
245,173,91820,1,2,0:0:0:0:
289,233,91936,5,2,0:0:0:0:
384,263,92051,1,2,0:0:0:0:
458,198,92166,1,2,0:0:0:0:
439,99,92282,1,2,0:0:0:0:
342,62,92397,6,0,P|340:105|338:145,1,77,2|0,0:0|0:0,0:0:0:0:
289,233,93320,6,0,P|246:194|154:185,1,123.750004720688,2|0,0:0|0:0,0:0:0:0:
105,189,93782,2,0,L|115:249,1,41.2500015735627
39,242,94013,2,0,L|29:182,1,41.2500015735627
2,98,94243,6,0,P|64:85|135:80,1,123.750004720688,2|0,0:0|0:0,0:0:0:0:
215,11,94705,2,0,P|201:29|190:66,1,41.2500015735627
252,101,94936,2,0,P|265:82|277:46,1,41.2500015735627
335,19,95166,6,0,P|395:27|448:58,1,123.750004720688,2|0,0:0|0:0,0:0:0:0:
388,144,95628,2,0,P|378:131|365:85,1,41.2500015735627
461,170,95859,2,0,P|471:183|484:229,1,41.2500015735627
393,274,96089,6,0,P|341:265|262:262,1,123.750004720688,2|0,0:0|0:0,0:0:0:0:
197,294,96551,2,0,P|189:262|183:245,1,41.2500015735627,2|0,0:0|0:0,0:0:0:0:
143,384,96782,2,0,P|135:352|129:335,1,41.2500015735627
26,331,97013,6,0,P|71:289|83:211,1,123.750004720688,2|0,0:0|0:0,0:0:0:0:
193,178,97474,2,0,P|176:166|163:150,1,41.2500015735627
93,113,97705,2,0,P|87:93|87:72,1,41.2500015735627
252,9,97936,6,0,L|243:58,1,41.2500015735627,2|0,0:0|0:0,0:0:0:0:
326,24,98166,2,0,L|317:73,1,41.2500015735627
295,213,98397,2,0,L|286:164,1,41.2500015735627
367,203,98627,2,0,L|358:154,1,41.2500015735627
260,314,98859,6,0,P|277:302|297:298,1,41.2500015735627,2|0,0:0|0:0,0:0:0:0:
200,268,99089,2,0,P|205:248|217:231,1,41.2500015735627
322,73,99320,2,0,P|305:61|285:56,1,41.2500015735627
388,40,99550,2,0,P|382:20|370:3,1,41.2500015735627
187,10,99782,6,0,P|214:86|213:138,1,123.750004720688,2|0,0:0|0:0,0:0:0:0:
101,98,100243,2,0,P|126:114|144:145,1,41.2500015735627,2|0,0:0|0:0,0:0:0:0:
300,80,100474,2,0,P|298:109|280:140,1,41.2500015735627
168,232,100705,6,0,P|125:223|107:220,1,55,0|0,3:2|0:0,0:0:0:0:
0,312,100936,1,0,1:2:0:0:
3,333,101051,1,0,1:2:0:0:
6,354,101166,2,0,L|80:347,1,55,0|0,3:2|0:0,0:0:0:0:
174,376,101397,2,0,P|159:339|159:312,1,55,0|0,1:2|0:2,0:0:0:0:
234,183,101628,6,0,P|248:214|251:250,1,55,0|0,3:2|0:0,0:0:0:0:
182,71,101859,2,0,P|212:85|238:111,1,55,0|0,1:2|1:2,0:0:0:0:
360,113,102089,2,0,L|307:128,1,55,0|0,3:2|0:0,0:0:0:0:
101,160,102320,2,0,L|153:144,1,55,0|0,1:2|0:2,0:0:0:0:
444,142,102551,6,0,P|415:171|403:194,1,55,0|0,3:2|0:0,0:0:0:0:
349,303,102782,1,0,1:2:0:0:
354,324,102897,1,0,1:2:0:0:
359,345,103013,2,0,P|392:337|430:331,1,55,0|0,3:2|0:0,0:0:0:0:
268,213,103243,2,0,P|258:238|251:265,1,55,0|0,1:2|0:2,0:0:0:0:
160,349,103474,6,0,P|133:353|106:358,1,55,0|0,3:2|0:0,0:0:0:0:
6,303,103705,2,0,P|33:298|60:294,1,55,0|0,1:2|0:0,0:0:0:0:
171,236,103936,2,0,P|188:202|189:162,1,55,0|0,3:2|0:0,0:0:0:0:
42,24,104166,2,0,P|25:58|24:98,1,55,0|0,1:2|0:0,0:0:0:0:
7,193,104397,6,0,P|69:164|126:155,1,110,0|0,3:2|1:2,0:0:0:0:
198,99,104743,1,0,1:2:0:0:
198,99,104859,2,0,P|156:84|130:65,1,55,0|0,3:2|0:0,0:0:0:0:
343,154,105089,2,0,P|301:169|275:188,1,55,0|0,1:2|0:0,0:0:0:0:
338,300,105320,6,0,P|380:285|406:266,1,55,0|0,3:2|0:0,0:0:0:0:
430,384,105551,2,0,P|452:345|460:314,1,55,0|0,1:2|1:2,0:0:0:0:
326,288,105782,2,0,P|345:247|350:215,1,55,0|0,3:2|0:0,0:0:0:0:
512,280,106013,2,0,P|500:236|484:209,1,55,0|0,1:2|0:2,0:0:0:0:
382,32,106243,6,0,P|388:58|393:85,1,55,0|0,3:2|0:0,0:0:0:0:
241,231,106474,1,0,1:2:0:0:
219,234,106589,1,0,0:0:0:0:
196,234,106705,2,0,P|189:207|184:180,1,55,0|0,3:2|0:0,0:0:0:0:
268,61,106936,5,0,3:2:0:0:
268,61,107013,5,0,3:2:0:0:
268,61,107089,5,0,3:2:0:0:
268,61,107166,6,0,L|196:66,1,66,12|0,1:2|1:2,0:0:0:0:
14,303,108089,6,0,P|57:235|136:218,1,165.000006294251,2|0,3:2|1:2,0:0:0:0:
217,178,108435,1,0,1:2:0:0:
217,178,108551,2,0,P|215:220|210:288,1,82.5000031471254,14|0,0:0|0:0,0:0:0:0:
63,249,108782,2,0,P|65:207|67:166,1,82.5000031471254,2|0,3:2|1:2,0:0:0:0:
270,95,109012,6,0,P|229:90|187:89,1,82.5000031471254,2|0,3:2|0:0,0:0:0:0:
27,25,109243,1,0,0:0:0:0:
50,17,109358,1,0,0:0:0:0:
74,16,109474,2,0,P|96:54|91:115,1,82.5000031471254,10|0,0:0|0:0,0:0:0:0:
305,179,109705,2,0,P|339:156|359:121,1,82.5000031471254,2|0,3:0|1:2,0:0:0:0:
288,24,109935,6,0,P|231:76|200:195,1,165.000006294251,2|0,3:2|0:0,0:0:0:0:
29,156,110282,1,0,1:2:0:0:
29,156,110397,2,0,P|66:177|106:198,1,82.5000031471254,10|0,0:0|0:0,0:0:0:0:
85,364,110628,2,0,P|105:327|126:287,1,82.5000031471254,2|0,1:2|1:2,0:0:0:0:
305,179,110858,6,0,P|287:216|270:253,1,82.5000031471254,2|0,3:2|0:0,0:0:0:0:
436,79,111089,2,0,P|418:116|401:153,1,82.5000031471254,0|0,0:0|1:2,0:0:0:0:
450,327,111320,6,0,P|412:287|361:270,1,110,10|0,0:0|0:0,0:0:0:0:
334,86,111551,2,0,P|279:79|229:99,1,110,10|0,0:0|1:2,0:0:0:0:
161,384,111782,6,0,P|234:347|316:345,1,165.000006294251,2|0,3:2|1:2,0:0:0:0:
227,324,112128,1,0,1:2:0:0:
227,324,112243,2,0,P|182:300|152:258,1,82.5000031471254,10|0,0:0|0:0,0:0:0:0:
29,285,112474,2,0,P|10:238|13:186,1,82.5000031471254,2|0,3:2|1:2,0:0:0:0:
128,27,112705,6,0,P|143:93|151:129,1,82.5000031471254,2|0,3:2|0:0,0:0:0:0:
294,273,112936,2,0,P|285:233|276:193,1,82.5000031471254,2|0,3:2|1:2,0:0:0:0:
313,27,113166,6,0,P|267:37|220:106,1,110,10|0,0:0|0:0,0:0:0:0:
85,227,113397,2,0,P|187:203|208:199,1,110,2|0,1:2|1:2,0:0:0:0:
401,360,113628,6,0,P|381:324|377:284,1,82.5000031471254,2|0,3:2|0:0,0:0:0:0:
424,123,113858,1,2,1:2:0:0:
449,123,113974,1,0,1:2:0:0:
472,132,114089,2,0,P|479:178|477:228,1,82.5000031471254,10|0,0:0|0:0,0:0:0:0:
220,320,114320,2,0,P|287:335|309:338,1,82.5000031471254,2|0,3:2|1:2,0:0:0:0:
381,205,114551,5,2,3:2:0:0:
391,227,114666,1,0,0:0:0:0:
387,252,114782,2,0,P|316:238|280:232,1,82.5000031471254,0|0,0:0|1:2,0:0:0:0:
211,14,115013,2,0,P|203:54|195:94,1,82.5000031471254,10|0,1:2|0:0,0:0:0:0:
478,180,115243,1,10,0:0:0:0:
479,107,115358,1,8,0:0:0:0:
436,48,115474,6,0,P|348:85|280:153,1,165.000006294251,6|0,3:2|1:0,0:0:0:0:
197,180,115820,1,0,1:0:0:0:
197,180,115935,2,0,P|156:168|116:139,1,82.5000031471254,10|0,0:0|0:0,0:0:0:0:
39,308,116166,2,0,P|78:319|113:341,1,82.5000031471254,2|0,1:2|1:2,0:0:0:0:
17,213,116397,5,2,3:2:0:0:
27,133,116512,1,0,0:0:0:0:
74,72,116627,1,0,1:2:0:0:
153,63,116743,1,0,1:0:0:0:
222,105,116858,2,0,P|230:179|236:205,1,82.5000031471254,10|0,0:0|0:0,0:0:0:0:
199,383,117089,2,0,P|190:308|184:282,1,82.5000031471254,2|0,1:2|1:2,0:0:0:0:
345,340,117320,6,0,P|312:315|293:279,1,82.5000031471254,2|0,3:2|0:0,0:0:0:0:
350,123,117551,1,0,0:0:0:0:
362,102,117666,1,0,1:2:0:0:
384,92,117782,2,0,P|416:118|435:154,1,82.5000031471254,10|0,0:2|0:0,0:0:0:0:
455,282,118012,2,0,P|413:273|351:262,1,82.5000031471254,2|0,1:2|1:0,0:0:0:0:
222,105,118243,6,0,P|228:64|239:9,1,82.5000031471254,2|0,0:0|0:0,0:0:0:0:
24,176,118474,2,0,P|65:182|120:193,1,82.5000031471254,0|0,3:2|1:2,0:0:0:0:
222,105,118705,6,0,P|168:96|99:87,1,110,10|0,1:2|0:0,0:0:0:0:
61,313,118936,2,0,P|115:320|169:329,1,110,2|0,1:2|1:2,0:0:0:0:
265,290,119166,6,0,P|246:228|249:192,1,82.5000031471254,2|0,3:2|0:0,0:0:0:0:
334,14,119397,1,0,0:0:0:0:
358,21,119512,1,0,1:2:0:0:
372,40,119628,2,0,P|392:101|389:137,1,82.5000031471254,10|0,0:0|0:0,0:0:0:0:
433,280,119858,2,0,P|373:291|331:299,1,82.5000031471254,2|0,3:2|1:2,0:0:0:0:
182,161,120089,6,0,P|212:193|270:215,1,82.5000031471254,2|0,3:2|0:0,0:0:0:0:
193,380,120320,2,0,P|199:329|191:298,1,82.5000031471254,2|0,1:2|1:2,0:0:0:0:
0,281,120551,6,0,P|43:270|91:231,1,82.5000031471254,10|0,0:0|0:0,0:0:0:0:
195,380,120782,2,0,P|153:349|122:340,1,82.5000031471254,2|0,1:2|1:2,0:0:0:0:
35,95,121012,6,0,P|46:134|56:174,1,82.5000031471254,2|0,3:2|0:0,0:0:0:0:
295,201,121243,1,2,0:2:0:0:
271,206,121358,1,0,1:2:0:0:
246,210,121474,2,0,P|233:146|226:123,1,82.5000031471254,10|0,0:0|0:0,0:0:0:0:
439,29,121705,2,0,P|378:38|352:42,1,82.5000031471254,2|0,3:2|1:2,0:0:0:0:
127,202,121935,5,2,1:2:0:0:
154,199,122051,2,0,P|219:225|277:326,1,165.000006294251,8|0,0:2|0:0,0:0:0:0:
444,239,122397,2,0,P|431:278|403:308,1,82.5000031471254,10|8,0:0|0:0,0:0:0:0:
78,382,122628,1,8,0:0:0:0:
37,318,122743,1,8,0:0:0:0:
48,242,122859,6,0,P|118:180|213:179,1,165.000006294251,6|0,3:2|1:2,0:0:0:0:
81,101,123205,1,0,1:2:0:0:
81,101,123320,2,0,P|35:76|12:22,1,82.5000031471254,10|0,0:0|0:0,0:0:0:0:
216,14,123551,2,0,P|183:38|166:76,1,82.5000031471254,2|0,3:2|1:2,0:0:0:0:
255,229,123782,6,0,P|262:188|269:147,1,82.5000031471254,2|0,3:2|0:0,0:0:0:0:
86,285,124013,2,0,P|126:292|167:299,1,82.5000031471254
435,227,124243,2,0,P|394:219|353:212,1,82.5000031471254,10|0,0:0|0:0,0:0:0:0:
387,19,124474,2,0,P|427:26|468:33,1,82.5000031471254,2|0,3:0|1:2,0:0:0:0:
503,146,124705,6,0,P|411:125|330:114,1,165.000006294251,2|0,3:2|0:0,0:0:0:0:
219,30,125051,1,0,1:2:0:0:
219,30,125166,2,0,P|241:62|256:116,1,82.5000031471254,10|0,0:0|0:0,0:0:0:0:
131,131,125397,2,0,P|127:169|104:220,1,82.5000031471254,2|0,1:2|1:2,0:0:0:0:
8,113,125628,6,0,P|11:74|34:23,1,82.5000031471254,2|0,3:2|0:0,0:0:0:0:
268,247,125859,2,0,P|201:232|160:222,1,82.5000031471254,0|0,0:0|1:2,0:0:0:0:
0,310,126089,6,0,P|67:324|108:335,1,110,10|0,0:0|0:0,0:0:0:0:
326,64,126320,2,0,P|311:131|301:172,1,110,10|0,0:0|1:2,0:0:0:0:
372,354,126551,6,0,P|382:310|382:267,1,82.5000031471254,2|0,3:2|0:0,0:0:0:0:
223,282,126782,1,0,1:2:0:0:
197,304,126897,1,0,1:2:0:0:
186,335,127013,2,0,P|219:365|256:387,1,82.5000031471254,10|0,0:0|0:0,0:0:0:0:
458,230,127243,2,0,P|424:199|387:177,1,82.5000031471254,2|0,3:2|1:2,0:0:0:0:
491,25,127474,6,0,P|468:83|453:122,1,82.5000031471254,2|0,3:2|0:0,0:0:0:0:
204,59,127705,2,0,P|242:107|269:140,1,82.5000031471254,2|0,3:2|1:2,0:0:0:0:
352,7,127936,2,0,P|361:68|367:110,1,82.5000031471254,10|0,0:0|0:0,0:0:0:0:
120,179,128167,2,0,P|178:201|217:217,1,82.5000031471254,2|0,1:2|1:2,0:0:0:0:
360,328,128397,6,0,P|279:278|192:297,1,165.000006294251,2|2,3:2|1:2,0:0:0:0:
94,365,128743,1,0,1:2:0:0:
94,365,128859,2,0,P|127:324|133:264,1,82.5000031471254,10|0,0:0|0:0,0:0:0:0:
22,144,129089,6,0,P|43:188|52:241,1,93.500001783371,2|0,3:2|1:2,0:0:0:0:
313,354,129320,1,2,3:2:0:0:
277,366,129436,1,0,0:0:0:0:
242,373,129551,2,0,P|221:329|212:276,1,93.500001783371,0|0,0:0|1:2,0:0:0:0:
256,102,129782,6,0,P|173:123|135:123,1,104.499997209549,10|0,1:2|0:0,0:0:0:0:
54,171,130013,1,10,0:0:0:0:
71,248,130128,1,8,0:0:0:0:
134,295,130243,6,0,P|232:247|316:240,1,165.000006294251,6|0,3:2|1:0,0:0:0:0:
389,206,130589,1,0,1:0:0:0:
389,206,130705,2,0,P|358:183|321:140,1,82.5000031471254,10|0,0:0|0:0,0:0:0:0:
437,55,130936,2,0,P|468:77|505:120,1,82.5000031471254,2|0,1:2|1:2,0:0:0:0:
350,353,131166,6,0,P|340:311|333:269,1,82.5000031471254,2|0,3:2|0:0,0:0:0:0:
164,208,131397,2,0,P|204:198|244:191,1,82.5000031471254,0|0,1:2|1:0,0:0:0:0:
138,379,131628,1,10,0:0:0:0:
58,364,131743,1,0,0:0:0:0:
6,302,131858,1,2,1:2:0:0:
4,221,131974,1,0,1:2:0:0:
54,157,132089,6,0,P|105:198|133:307,1,165.000006294251,2|0,3:2|0:0,0:0:0:0:
125,100,132436,1,0,1:2:0:0:
125,100,132551,2,0,P|172:73|231:72,1,82.5000031471254,10|0,0:2|0:0,0:0:0:0:
328,216,132782,2,0,P|368:207|402:184,1,82.5000031471254,2|0,1:2|1:0,0:0:0:0:
261,6,133013,6,0,P|283:68|293:100,1,82.5000031471254,2|0,0:0|0:0,0:0:0:0:
243,234,133243,2,0,P|181:256|149:266,1,82.5000031471254,0|0,3:2|1:2,0:0:0:0:
195,341,133474,2,0,P|256:319|288:309,1,82.5000031471254,10|0,1:2|0:0,0:0:0:0:
99,176,133705,1,2,1:2:0:0:
68,187,133820,1,0,1:2:0:0:
37,199,133936,6,0,P|55:237|101:352,1,165.000006294251,2|0,3:2|0:0,0:0:0:0:
203,381,134282,1,0,1:2:0:0:
203,381,134397,2,0,P|177:332|163:291,1,82.5000031471254,10|0,0:0|0:0,0:0:0:0:
301,155,134628,2,0,P|262:170|226:190,1,82.5000031471254,2|0,3:2|1:2,0:0:0:0:
271,274,134859,6,0,P|309:258|345:238,1,82.5000031471254,2|0,3:2|0:0,0:0:0:0:
144,222,135089,2,0,P|144:180|150:139,1,82.5000031471254,2|0,1:2|1:2,0:0:0:0:
301,155,135320,2,0,P|306:114|307:72,1,82.5000031471254,10|0,0:0|0:0,0:0:0:0:
144,222,135550,2,0,P|108:200|76:175,1,82.5000031471254,2|0,1:2|1:2,0:0:0:0:
231,28,135782,6,0,P|155:60|74:60,1,165.000006294251,2|2,3:2|0:2,0:0:0:0:
307,72,136128,1,0,1:2:0:0:
307,72,136243,2,0,P|342:52|400:42,1,82.5000031471254,10|0,0:0|0:0,0:0:0:0:
225,184,136474,2,0,P|265:174|300:154,1,82.5000031471254,2|0,3:2|1:2,0:0:0:0:
472,223,136705,5,2,1:2:0:0:
461,242,136820,1,8,0:2:0:0:
449,261,136936,2,0,P|408:245|331:248,1,82.5000031471254,0|0,1:2|0:0,0:0:0:0:
204,101,137166,2,0,P|162:115|105:166,1,82.5000031471254,10|0,0:0|0:0,0:0:0:0:
39,189,137397,1,8,0:0:0:0:
82,255,137513,1,8,0:0:0:0:
86,339,137628,5,6,3:2:0:0:
10,300,137743,1,0,0:0:0:0:
82,255,137859,2,0,P|115:253|148:256,1,65.9999979858399,2|0,1:2|1:2,0:0:0:0:
361,266,138089,2,0,P|328:262|295:265,1,65.9999979858399,14|0,0:0|0:0,0:0:0:0:
235,223,138320,2,0,P|222:266|225:308,1,65.9999979858399,2|2,0:0|0:0,0:0:0:0:
255,358,138551,5,2,3:2:0:0:
479,251,138782,1,2,0:2:0:0:
286,129,139013,1,10,0:0:0:0:
265,136,139243,5,2,1:2:0:0:
182,116,139359,1,2,1:2:0:0:
220,198,139474,6,0,P|218:164|214:132,1,65.9999979858399,2|2,3:2|0:0,0:0:0:0:
114,44,139705,1,2,0:0:0:0:
185,10,139820,1,2,0:0:0:0:
102,55,139936,2,0,P|68:51|27:38,1,65.9999979858399,10|2,0:0|0:0,0:0:0:0:
21,144,140166,2,0,P|55:148|96:161,1,65.9999979858399,2|2,0:0|0:0,0:0:0:0:
221,302,140397,5,2,3:2:0:0:
141,286,140513,1,2,1:2:0:0:
156,209,140628,1,2,3:2:0:0:
236,225,140744,1,2,1:2:0:0:
141,286,140859,2,0,P|87:274|44:266,1,65.9999979858399,10|0,0:0|0:0,0:0:0:0:
225,81,141089,2,0,P|218:113|210:145,1,65.9999979858399,0|0,1:2|1:2,0:0:0:0:
293,280,141320,5,2,3:2:0:0:
131,101,141551,1,2,1:2:0:0:
356,59,141782,1,10,0:0:0:0:
356,59,142013,1,2,0:0:0:0:
261,155,142243,5,2,3:2:0:0:
495,218,142474,1,2,1:2:0:0:
283,374,142705,1,10,0:0:0:0:
435,165,142936,1,2,0:0:0:0:
180,85,143166,5,2,3:2:0:0:
363,218,143397,1,2,1:2:0:0:
150,329,143628,1,10,0:0:0:0:
241,141,143859,1,2,0:0:0:0:
247,221,144089,5,2,3:2:0:0:
250,239,144320,1,8,1:2:0:0:
172,189,144436,1,8,1:2:0:0:
164,284,144551,2,0,P|216:269|251:264,1,65.9999979858399,2|0,3:2|0:0,0:0:0:0:
182,103,144782,2,0,P|149:109|118:120,1,65.9999979858399,10|8,0:0|0:0,0:0:0:0:
30,165,145013,6,0,P|62:182|94:220,1,65.9999979858399,2|0,3:2|0:0,0:0:0:0:
49,292,145243,1,2,1:2:0:0:
119,333,145359,1,2,1:2:0:0:
21,377,145474,2,0,P|79:364|103:361,1,65.9999979858399,14|0,0:2|0:0,0:0:0:0:
280,259,145705,1,2,1:2:0:0:
210,300,145821,1,2,1:2:0:0:
308,344,145936,6,0,P|250:331|226:328,1,65.9999979858399,2|0,3:2|0:0,0:0:0:0:
140,240,146166,1,2,0:0:0:0:
175,161,146282,1,2,0:0:0:0:
94,93,146397,2,0,P|92:65|97:25,1,65.9999979858399,10|2,0:0|1:2,0:0:0:0:
254,36,146628,2,0,P|256:64|251:104,1,65.9999979858399,0|2,0:0|0:0,0:0:0:0:
411,123,146859,6,0,P|366:137|286:200,1,131.99999597168,2|2,3:2|0:0,0:0:0:0:
229,341,147205,1,2,0:0:0:0:
222,261,147320,2,0,P|273:277|306:300,1,65.9999979858399,10|0,0:0|0:0,0:0:0:0:
486,310,147551,1,2,1:2:0:0:
420,256,147666,1,0,1:2:0:0:
406,349,147782,6,0,P|457:333|490:310,1,65.9999979858399,2|2,3:2|1:2,0:0:0:0:
487,200,148013,1,2,3:2:0:0:
405,144,148128,1,2,1:2:0:0:
506,109,148243,2,0,P|493:166|486:197,1,65.9999979858399,10|0,0:0|0:0,0:0:0:0:
319,141,148474,2,0,P|332:83|339:52,1,65.9999979858399,0|0,1:2|1:2,0:0:0:0:
511,16,148705,6,0,P|450:53|400:144,1,131.99999597168,2|0,3:2|1:2,0:0:0:0:
350,217,149051,1,0,1:2:0:0:
319,141,149166,2,0,P|277:127|234:123,1,65.9999979858399,10|0,0:0|0:0,0:0:0:0:
94,153,149397,1,2,0:0:0:0:
164,95,149513,1,0,0:0:0:0:
79,143,149628,6,0,P|46:137|15:125,1,65.9999979858399,2|0,3:2|0:0,0:0:0:0:
191,195,149859,1,2,1:2:0:0:
146,255,149974,1,2,1:2:0:0:
198,336,150089,2,0,P|245:325|275:319,1,65.9999979858399,10|0,0:0|0:0,0:0:0:0:
352,179,150320,2,0,P|341:210|332:241,1,65.9999979858399,2|0,0:0|0:0,0:0:0:0:
467,365,150551,6,0,P|431:304|426:231,1,131.99999597168,2|2,3:2|1:2,0:0:0:0:
435,119,150897,1,2,1:2:0:0:
436,39,151013,2,0,P|396:48|372:70,1,65.9999979858399,10|0,0:0|0:0,0:0:0:0:
223,139,151243,2,0,P|274:122|304:115,1,65.9999979858399,2|0,0:0|0:0,0:0:0:0:
167,73,151474,5,2,3:2:0:0:
101,349,151705,1,10,1:2:0:0:
458,219,151936,5,2,3:2:0:0:
70,50,152166,1,10,0:0:0:0:
256,192,153089,12,0,157705,0:0:0:0:
