osu file format v14

[General]
AudioFilename: audio.mp3
AudioLeadIn: 0
PreviewTime: 107863
Countdown: 0
SampleSet: Soft
StackLeniency: 0.7
Mode: 3
LetterboxInBreaks: 0
SpecialStyle: 0
WidescreenStoryboard: 1

[Editor]
Bookmarks: 15789,63789,67459,71151,74844,78558,93327,122866,145020
DistanceSpacing: 1.5
BeatDivisor: 4
GridSize: 16
TimelineZoom: 2.699998

[Metadata]
Title:Tada Koe Hitotsu
TitleUnicode:ただ声一つ
Artist:Rokudenashi
ArtistUnicode:ロクデナシ
Creator:A04360436
Version:7K HD
Source:
Tags:Ihram-San One Voice japanese pop jpop j-pop female vocal vocalist Vocaloid piano instrumental Ninzin faPka MIMI にんじん 邦楽 ほうがく
BeatmapID:3871029
BeatmapSetID:1784295

[Difficulty]
HPDrainRate:7
CircleSize:7
OverallDifficulty:7
ApproachRate:5
SliderMultiplier:1.4
SliderTickRate:1

[Events]
//Background and Video events
0,0,"BG.jpg",0,0
//Break Periods
//Storyboard Layer 0 (Background)
//Storyboard Layer 1 (Fail)
//Storyboard Layer 2 (Pass)
//Storyboard Layer 3 (Foreground)
//Storyboard Layer 4 (Overlay)
//Storyboard Sound Samples
Sample,998,0,"m_40.ogg",50
Sample,1228,0,"m_47.ogg",50
Sample,1459,0,"m_52.ogg",50
Sample,1921,0,"m_36.ogg",50
Sample,2151,0,"m_43.ogg",50
Sample,2382,0,"m_52.ogg",50
Sample,2844,0,"m_38.ogg",50
Sample,3074,0,"m_45.ogg",50
Sample,3305,0,"m_50.ogg",50
Sample,3767,0,"m_43.ogg",50
Sample,4228,0,"m_42.ogg",50
Sample,4690,0,"m_40.ogg",50
Sample,4921,0,"m_47.ogg",50
Sample,5151,0,"m_52.ogg",50
Sample,5613,0,"m_36.ogg",50
Sample,5844,0,"m_43.ogg",50
Sample,6074,0,"m_52.ogg",50
Sample,6536,0,"m_38.ogg",50
Sample,6767,0,"m_45.ogg",50
Sample,6998,0,"m_50.ogg",50
Sample,7459,0,"m_43.ogg",50
Sample,7921,0,"m_42.ogg",50
Sample,8382,0,"m_40.ogg",50
Sample,8613,0,"m_47.ogg",50
Sample,8844,0,"m_52.ogg",50
Sample,9305,0,"m_36.ogg",50
Sample,9536,0,"m_43.ogg",50
Sample,9767,0,"m_52.ogg",50
Sample,10228,0,"m_38.ogg",50
Sample,10459,0,"m_45.ogg",50
Sample,10690,0,"m_50.ogg",50
Sample,11151,0,"m_43.ogg",50
Sample,11613,0,"m_42.ogg",50
Sample,12074,0,"m_40.ogg",50
Sample,12305,0,"m_47.ogg",50
Sample,12536,0,"m_52.ogg",50
Sample,12998,0,"m_36.ogg",50
Sample,13228,0,"m_43.ogg",50
Sample,13459,0,"m_52.ogg",50
Sample,13921,0,"m_38.ogg",50
Sample,14151,0,"m_45.ogg",50
Sample,14382,0,"m_50.ogg",50
Sample,14844,0,"m_43.ogg",50
Sample,15305,0,"m_42.ogg",50
Sample,15305,0,"57F5.ogg",100
Sample,15536,0,"52C5.ogg",70
Sample,15767,0,"m_36.ogg",50
Sample,15767,0,"55D#5.ogg",50
Sample,15767,0,"50A#4.ogg",70
Sample,16690,0,"57F5.ogg",50
Sample,16921,0,"55D#5.ogg",50
Sample,17151,0,"m_38.ogg",50
Sample,17151,0,"Clap Normal.wav",30
Sample,17151,0,"50A#4.ogg",50
Sample,17382,0,"54D5.ogg",70
Sample,17613,0,"52C5.ogg",50
Sample,18074,0,"59G5.ogg",70
Sample,18305,0,"55D#5.ogg",50
Sample,18767,0,"55D#5.ogg",50
Sample,18998,0,"54D5.ogg",50
Sample,18998,0,"59G5.ogg",70
Sample,19228,0,"54D5.ogg",50
Sample,19228,0,"57F5.ogg",70
Sample,19459,0,"m_36.ogg",50
Sample,19459,0,"52C5.ogg",50
Sample,20613,0,"59G5.ogg",70
Sample,20844,0,"Clap Normal.wav",30
Sample,20844,0,"50A#4.ogg",50
Sample,20844,0,"57F5.ogg",70
Sample,21074,0,"57F5.ogg",50
Sample,21305,0,"m_52.ogg",50
Sample,21767,0,"Clap Normal.wav",30
Sample,21767,0,"57F5.ogg",50
Sample,21998,0,"55D#5.ogg",50
Sample,21998,0,"52C5.ogg",70
Sample,22228,0,"m_54.ogg",50
Sample,22228,0,"m_50.ogg",70
Sample,23151,0,"36G#3.ogg",50
Sample,23151,0,"m_62.ogg",50
Sample,23151,0,"m_55.ogg",50
Sample,24305,0,"59G5.ogg",70
Sample,24536,0,"Clap Normal.wav",30
Sample,24536,0,"55D#5.ogg",50
Sample,24536,0,"50A#4.ogg",50
Sample,24536,0,"57F5.ogg",70
Sample,24767,0,"54D5.ogg",70
Sample,24998,0,"59G5.ogg",50
Sample,24998,0,"m_55.ogg",70
Sample,25459,0,"55D#5.ogg",50
Sample,25459,0,"59G5.ogg",70
Sample,25690,0,"55D#5.ogg",50
Sample,25921,0,"m_35.ogg",50
Sample,25921,0,"m_62.ogg",70
Sample,26151,0,"64C6.ogg",50
Sample,26382,0,"54D5.ogg",50
Sample,26382,0,"59G5.ogg",70
Sample,26613,0,"54D5.ogg",50
Sample,26613,0,"57F5.ogg",70
Sample,26844,0,"52C5.ogg",50
Sample,26844,0,"m_55.ogg",70
Sample,27074,0,"50A#4.ogg",50
Sample,27305,0,"55D#5.ogg",50
Sample,27305,0,"52C5.ogg",50
Sample,27536,0,"55D#5.ogg",50
Sample,27998,0,"54D5.ogg",50
Sample,27998,0,"59G5.ogg",70
Sample,28228,0,"Clap Normal.wav",30
Sample,28228,0,"59G5.ogg",50
Sample,28228,0,"55D#5.ogg",50
Sample,28228,0,"57F5.ogg",70
Sample,28459,0,"54D5.ogg",70
Sample,28690,0,"m_55.ogg",70
Sample,29613,0,"m_55.ogg",70
Sample,30046,0,"67D#6.ogg",70
Sample,30074,0,"71G6.ogg",70
Sample,30103,0,"74A#6.ogg",70
Sample,30536,0,"m_36.ogg",50
Sample,30536,0,"m_40.ogg",50
Sample,30536,0,"m_50.ogg",50
Sample,30536,0,"m_55.ogg",100
Sample,31459,0,"SVF_A#5.ogg",25
Sample,31459,0,"m_50.ogg",50
Sample,31459,0,"m_55.ogg",50
Sample,31459,0,"m_43.ogg",50
Sample,31459,0,"m_59.ogg",100
Sample,32382,0,"m_54.ogg",50
Sample,32382,0,"m_42.ogg",50
Sample,32382,0,"m_50.ogg",50
Sample,32382,0,"62A#5.ogg",100
Sample,33305,0,"m_35.ogg",50
Sample,33305,0,"m_27.ogg",50
Sample,33305,0,"m_57.ogg",50
Sample,33305,0,"m_42.ogg",50
Sample,33305,0,"m_59.ogg",100
Sample,34228,0,"m_57.ogg",50
Sample,34228,0,"m_55.ogg",50
Sample,34228,0,"m_50.ogg",50
Sample,34228,0,"40C4.ogg",50
Sample,34228,0,"m_62.ogg",100
Sample,34459,0,"LR_Drum Rpd x2.wav",70
Sample,34574,0,"57F5.ogg",50
Sample,34574,0,"50A#4.ogg",50
Sample,34690,0,"LR_Drum Hit Drop High.wav",50
Sample,34690,0,"55D#5.ogg",100
Sample,34805,0,"57F5.ogg",50
Sample,34805,0,"50A#4.ogg",50
Sample,34921,0,"LR_Drum Rpd x2.wav",70
Sample,34921,0,"55D#5.ogg",50
Sample,34921,0,"50A#4.ogg",50
Sample,34921,0,"54D5.ogg",100
Sample,35151,0,"m_59.ogg",50
Sample,35151,0,"m_50.ogg",50
Sample,35151,0,"36G#3.ogg",50
Sample,35151,0,"LR_Drum Rpd x2.wav",70
Sample,35151,0,"m_55.ogg",100
Sample,35382,0,"LR_Drum Rpd x2.wav",70
Sample,35498,0,"57F5.ogg",50
Sample,35498,0,"50A#4.ogg",50
Sample,35613,0,"LR_Drum Hit Drop High.wav",50
Sample,35613,0,"59G5.ogg",100
Sample,35728,0,"57F5.ogg",50
Sample,35728,0,"50A#4.ogg",50
Sample,35844,0,"LR_Drum Rpd x2.wav",70
Sample,35844,0,"55D#5.ogg",50
Sample,35844,0,"50A#4.ogg",50
Sample,35844,0,"64C6.ogg",100
Sample,36074,0,"LR_Drum Rpd x2.wav",70
Sample,36074,0,"m_57.ogg",50
Sample,36074,0,"m_50.ogg",50
Sample,36074,0,"m_55.ogg",50
Sample,36074,0,"m_62.ogg",100
Sample,36305,0,"LR_Drum Rpd x2.wav",70
Sample,36421,0,"55D#5.ogg",50
Sample,36421,0,"50A#4.ogg",50
Sample,36536,0,"LR_Drum Hit Drop High.wav",50
Sample,36536,0,"55D#5.ogg",100
Sample,36651,0,"LR_Drum Rpd x2.wav",70
Sample,36651,0,"55D#5.ogg",50
Sample,36651,0,"50A#4.ogg",50
Sample,36767,0,"LR_Drum Rpd x2.wav",70
Sample,36767,0,"57F5.ogg",50
Sample,36767,0,"50A#4.ogg",50
Sample,36767,0,"60G#5.ogg",100
Sample,36998,0,"LR_Drum Rpd x2.wav",70
Sample,36998,0,"m_50.ogg",50
Sample,36998,0,"m_55.ogg",50
Sample,36998,0,"m_59.ogg",100
Sample,37228,0,"LR_Drum Rpd x2.wav",70
Sample,37459,0,"LR_Drum Hit Drop High.wav",50
Sample,37459,0,"55D#5.ogg",50
Sample,37459,0,"59G5.ogg",100
Sample,37574,0,"LR_Drum Rpd x2.wav",70
Sample,37690,0,"60G#5.ogg",50
Sample,37690,0,"57F5.ogg",100
Sample,37805,0,"LR_Drum Rpd x2.wav",70
Sample,37921,0,"LR_Drum Rpd x2.wav",70
Sample,37921,0,"m_59.ogg",50
Sample,37921,0,"m_62.ogg",50
Sample,37921,0,"m_55.ogg",100
Sample,38151,0,"LR_Drum Rpd x2.wav",70
Sample,38382,0,"LR_Drum Hit Drop High.wav",50
Sample,38382,0,"55D#5.ogg",50
Sample,38382,0,"52C5.ogg",50
Sample,38382,0,"59G5.ogg",100
Sample,38613,0,"50A#4.ogg",50
Sample,38613,0,"57F5.ogg",50
Sample,38613,0,"64C6.ogg",100
Sample,38844,0,"LR_Drum Rpd x2.wav",70
Sample,38844,0,"55D#5.ogg",50
Sample,38844,0,"52C5.ogg",50
Sample,38844,0,"62A#5.ogg",100
Sample,39074,0,"LR_Drum Rpd x2.wav",70
Sample,39074,0,"55D#5.ogg",100
Sample,39305,0,"LR_Drum Hit Drop High.wav",50
Sample,39305,0,"m_64.ogg",50
Sample,39305,0,"m_60.ogg",50
Sample,39305,0,"55D#5.ogg",100
Sample,39536,0,"LR_Drum Rpd x2.wav",70
Sample,39536,0,"57F5.ogg",100
Sample,39767,0,"LR_Drum Rpd x2.wav",70
Sample,39767,0,"m_62.ogg",50
Sample,39767,0,"m_57.ogg",50
Sample,39767,0,"m_54.ogg",50
Sample,39767,0,"59G5.ogg",100
Sample,39998,0,"LR_Drum Rpd x2.wav",70
Sample,39998,0,"62A#5.ogg",100
Sample,40228,0,"LR_Drum Hit Drop High.wav",50
Sample,40228,0,"55D#5.ogg",50
Sample,40228,0,"50A#4.ogg",50
Sample,40228,0,"57F5.ogg",100
Sample,40459,0,"57F5.ogg",50
Sample,40459,0,"48G#4.ogg",50
Sample,40459,0,"55D#5.ogg",100
Sample,40690,0,"LR_Drum Rpd x2.wav",70
Sample,40690,0,"47G4.ogg",50
Sample,40690,0,"m_55.ogg",100
Sample,40921,0,"LR_Drum Hit Drop High.wav",50
Sample,41151,0,"18D2.ogg",50
Sample,41151,0,"50A#4.ogg",50
Sample,41151,0,"55D#5.ogg",50
Sample,41151,0,"59G5.ogg",100
Sample,41382,0,"57F5.ogg",50
Sample,41382,0,"60G#5.ogg",100
Sample,41498,0,"LR_Drum Rpd x2.wav",70
Sample,41613,0,"m_57.ogg",50
Sample,41613,0,"m_55.ogg",50
Sample,41613,0,"m_50.ogg",50
Sample,41613,0,"m_62.ogg",100
Sample,41613,0,"LR_Drum Finish.wav",30
Sample,41844,0,"LR_Drum Rpd x2.wav",70
Sample,41959,0,"57F5.ogg",50
Sample,41959,0,"50A#4.ogg",50
Sample,42074,0,"LR_Drum Hit Drop High.wav",50
Sample,42074,0,"55D#5.ogg",100
Sample,42190,0,"57F5.ogg",50
Sample,42190,0,"50A#4.ogg",50
Sample,42305,0,"28C3.ogg",50
Sample,42305,0,"LR_Drum Rpd x2.wav",70
Sample,42305,0,"55D#5.ogg",50
Sample,42305,0,"50A#4.ogg",50
Sample,42305,0,"54D5.ogg",100
Sample,42536,0,"LR_Drum Rpd x2.wav",70
Sample,42536,0,"m_62.ogg",50
Sample,42536,0,"m_59.ogg",50
Sample,42536,0,"m_50.ogg",50
Sample,42536,0,"m_55.ogg",100
Sample,42767,0,"LR_Drum Rpd x2.wav",70
Sample,42882,0,"57F5.ogg",50
Sample,42882,0,"50A#4.ogg",50
Sample,42998,0,"LR_Drum Hit Drop High.wav",50
Sample,42998,0,"59G5.ogg",100
Sample,43113,0,"57F5.ogg",50
Sample,43113,0,"50A#4.ogg",50
Sample,43228,0,"LR_Drum Rpd x2.wav",70
Sample,43228,0,"55D#5.ogg",50
Sample,43228,0,"50A#4.ogg",50
Sample,43228,0,"64C6.ogg",100
Sample,43459,0,"LR_Drum Rpd x2.wav",70
Sample,43459,0,"m_50.ogg",50
Sample,43459,0,"m_57.ogg",50
Sample,43459,0,"m_55.ogg",50
Sample,43459,0,"m_62.ogg",100
Sample,43690,0,"LR_Drum Rpd x2.wav",70
Sample,43805,0,"50A#4.ogg",50
Sample,43805,0,"55D#5.ogg",50
Sample,43921,0,"LR_Drum Hit Drop High.wav",50
Sample,43921,0,"55D#5.ogg",100
Sample,44036,0,"LR_Drum Rpd x2.wav",70
Sample,44036,0,"55D#5.ogg",50
Sample,44036,0,"50A#4.ogg",50
Sample,44151,0,"LR_Drum Rpd x2.wav",70
Sample,44151,0,"50A#4.ogg",50
Sample,44151,0,"57F5.ogg",50
Sample,44151,0,"60G#5.ogg",100
Sample,44382,0,"m_55.ogg",50
Sample,44382,0,"m_50.ogg",50
Sample,44382,0,"m_59.ogg",100
Sample,44613,0,"LR_Drum Rpd x2.wav",70
Sample,44844,0,"LR_Drum Hit Drop High.wav",50
Sample,44844,0,"55D#5.ogg",50
Sample,44844,0,"59G5.ogg",50
Sample,44844,0,"64C6.ogg",100
Sample,45074,0,"57F5.ogg",50
Sample,45074,0,"60G#5.ogg",50
Sample,45074,0,"66D6.ogg",100
Sample,45305,0,"LR_Drum Rpd x2.wav",70
Sample,45305,0,"m_55.ogg",50
Sample,45305,0,"m_62.ogg",50
Sample,45305,0,"m_59.ogg",50
Sample,45305,0,"m_67.ogg",100
Sample,45536,0,"LR_Drum Rpd x2.wav",70
Sample,45767,0,"LR_Drum Hit Drop High.wav",50
Sample,45767,0,"52C5.ogg",50
Sample,45767,0,"55D#5.ogg",50
Sample,45767,0,"66D6.ogg",100
Sample,45998,0,"50A#4.ogg",50
Sample,45998,0,"57F5.ogg",50
Sample,45998,0,"64C6.ogg",100
Sample,46228,0,"LR_Drum Rpd x2.wav",70
Sample,46228,0,"52C5.ogg",50
Sample,46228,0,"55D#5.ogg",50
Sample,46228,0,"62A#5.ogg",100
Sample,46459,0,"LR_Drum Rpd x2.wav",70
Sample,46459,0,"55D#5.ogg",100
Sample,46690,0,"LR_Drum Hit Drop High.wav",50
Sample,46690,0,"m_60.ogg",50
Sample,46690,0,"m_64.ogg",50
Sample,46690,0,"55D#5.ogg",100
Sample,46921,0,"LR_Drum Rpd x2.wav",70
Sample,46921,0,"59G5.ogg",100
Sample,47151,0,"LR_Drum Rpd x2.wav",70
Sample,47151,0,"m_62.ogg",50
Sample,47151,0,"m_54.ogg",50
Sample,47151,0,"57F5.ogg",100
Sample,47382,0,"59G5.ogg",100
Sample,47498,0,"LR_Drum Rpd x2.wav",70
Sample,47613,0,"LR_Drum Hit Drop High.wav",50
Sample,47613,0,"55D#5.ogg",50
Sample,47613,0,"50A#4.ogg",50
Sample,47613,0,"57F5.ogg",100
Sample,47844,0,"57F5.ogg",50
Sample,47844,0,"50A#4.ogg",50
Sample,47844,0,"55D#5.ogg",100
Sample,48074,0,"LR_Drum Hit Drop High.wav",50
Sample,48074,0,"m_59.ogg",50
Sample,48074,0,"m_50.ogg",50
Sample,48074,0,"m_55.ogg",100
Sample,48305,0,"LR_Drum Hit Drop High.wav",50
Sample,48536,0,"LR_Drum Hit Drop High.wav",50
Sample,48536,0,"m_54.ogg",50
Sample,48536,0,"m_50.ogg",50
Sample,48536,0,"m_57.ogg",100
Sample,48651,0,"LR_Drum Rpd x2.wav",70
Sample,48767,0,"38A#3.ogg",50
Sample,48767,0,"LR_Drum Rpd x2.wav",70
Sample,48882,0,"LR_Drum Rpd x2.wav",70
Sample,48998,0,"28C3.ogg",50
Sample,48998,0,"16C2.ogg",50
Sample,48998,0,"m_55.ogg",100
Sample,48998,0,"LR_Drum Rpd x2.wav",30
Sample,48998,0,"LR_Drum Finish.wav",25
Sample,49228,0,"35G3.ogg",50
Sample,49459,0,"LR_Drum Hit Echo.wav",30
Sample,49690,0,"LR_Drum Hit Open.wav",30
Sample,49921,0,"24G#2.ogg",50
Sample,49921,0,"LR_Drum Rpd x2.wav",30
Sample,50151,0,"31D#3.ogg",50
Sample,50382,0,"LR_Drum Hit Echo.wav",30
Sample,50613,0,"LR_Drum Hit Open.wav",30
Sample,50844,0,"26A#2.ogg",50
Sample,50844,0,"LR_Drum Rpd x2.wav",30
Sample,51074,0,"33F3.ogg",50
Sample,51305,0,"m_42.ogg",50
Sample,51305,0,"LR_Drum Hit Echo.wav",30
Sample,51536,0,"LR_Drum Hit Open.wav",30
Sample,51767,0,"m_50.ogg",100
Sample,51767,0,"m_38.ogg",50
Sample,51767,0,"m_31.ogg",50
Sample,51767,0,"LR_Drum Rpd x2.wav",30
Sample,51998,0,"LR_Drum Hit Open.wav",30
Sample,52228,0,"m_30.ogg",50
Sample,52228,0,"m_38.ogg",50
Sample,52228,0,"m_54.ogg",50
Sample,52228,0,"LR_Drum Hit Echo.wav",30
Sample,52459,0,"LR_Drum Hit Open.wav",30
Sample,52690,0,"m_55.ogg",100
Sample,52690,0,"28C3.ogg",50
Sample,52690,0,"LR_Drum Rpd x2.wav",30
Sample,52921,0,"35G3.ogg",50
Sample,53151,0,"m_43.ogg",50
Sample,53151,0,"LR_Drum Hit Echo.wav",30
Sample,53382,0,"LR_Drum Hit Open.wav",30
Sample,53613,0,"24G#2.ogg",50
Sample,53613,0,"LR_Drum Rpd x2.wav",30
Sample,53844,0,"31D#3.ogg",50
Sample,54017,0,"62A#5.ogg",100
Sample,54074,0,"m_40.ogg",50
Sample,54074,0,"LR_Drum Hit Echo.wav",30
Sample,54305,0,"LR_Drum Hit Open.wav",30
Sample,54536,0,"m_54.ogg",100
Sample,54536,0,"26A#2.ogg",50
Sample,54536,0,"LR_Drum Rpd x2.wav",30
Sample,54767,0,"33F3.ogg",50
Sample,54998,0,"m_42.ogg",50
Sample,54998,0,"m_38.ogg",50
Sample,54998,0,"LR_Drum Hit Echo.wav",30
Sample,55228,0,"LR_Drum Hit Open.wav",30
Sample,55459,0,"m_50.ogg",50
Sample,55459,0,"m_47.ogg",50
Sample,55459,0,"38A#3.ogg",50
Sample,55459,0,"31D#3.ogg",50
Sample,55690,0,"35G3.ogg",50
Sample,55690,0,"59G5.ogg",100
Sample,55921,0,"33F3.ogg",50
Sample,55921,0,"m_57.ogg",100
Sample,56151,0,"30D3.ogg",50
Sample,56151,0,"55D#5.ogg",100
Sample,56382,0,"LR_Drum Hit Echo.wav",30
Sample,56382,0,"28C3.ogg",50
Sample,56382,0,"m_55.ogg",100
Sample,56613,0,"35G3.ogg",50
Sample,56844,0,"m_40.ogg",50
Sample,56844,0,"m_43.ogg",50
Sample,56844,0,"LR_Drum Hit Echo.wav",30
Sample,57074,0,"LR_Drum Hit Open.wav",30
Sample,57305,0,"24G#2.ogg",50
Sample,57305,0,"LR_Drum Rpd x2.wav",30
Sample,57536,0,"31D#3.ogg",50
Sample,57767,0,"m_40.ogg",50
Sample,57767,0,"LR_Drum Hit Echo.wav",30
Sample,57998,0,"LR_Drum Hit Open.wav",30
Sample,58228,0,"m_50.ogg",100
Sample,58228,0,"m_54.ogg",100
Sample,58228,0,"26A#2.ogg",50
Sample,58228,0,"LR_Drum Rpd x2.wav",30
Sample,58459,0,"33F3.ogg",50
Sample,58690,0,"m_42.ogg",50
Sample,58690,0,"m_38.ogg",50
Sample,58690,0,"LR_Drum Hit Echo.wav",30
Sample,58921,0,"LR_Drum Hit Open.wav",30
Sample,59151,0,"m_50.ogg",100
Sample,59151,0,"SVF_D#5ss.ogg",30
Sample,59151,0,"31D#3.ogg",50
Sample,59151,0,"38A#3.ogg",50
Sample,59151,0,"LR_Drum Rpd x2.wav",30
Sample,59382,0,"LR_Drum Hit Open.wav",30
Sample,59382,0,"35G3.ogg",50
Sample,59613,0,"SVF_F5ss.ogg",30
Sample,59613,0,"38A#3.ogg",50
Sample,59613,0,"33F3.ogg",50
Sample,59613,0,"LR_Drum Hit Echo.wav",30
Sample,59844,0,"LR_Drum Hit Open.wav",30
Sample,59844,0,"30D3.ogg",50
Sample,60074,0,"m_55.ogg",100
Sample,60074,0,"SVF_D#5s.ogg",30
Sample,60074,0,"28C3.ogg",50
Sample,60074,0,"LR_Drum Rpd x2.wav",30
Sample,60305,0,"35G3.ogg",50
Sample,60536,0,"m_40.ogg",50
Sample,60536,0,"LR_Drum Hit Echo.wav",30
Sample,60767,0,"LR_Drum Hit Open.wav",30
Sample,60767,0,"SVF_D#5s.ogg",30
Sample,60998,0,"24G#2.ogg",50
Sample,60998,0,"LR_Drum Rpd x2.wav",30
Sample,61228,0,"LR_Drum Hit Open.wav",30
Sample,61228,0,"31D#3.ogg",50
Sample,61459,0,"m_36.ogg",50
Sample,61459,0,"LR_Drum Hit Echo.wav",30
Sample,61690,0,"LR_Drum Hit Open.wav",30
Sample,61690,0,"SVF_C6ss.ogg",20
Sample,61921,0,"m_57.ogg",100
Sample,61921,0,"SVF_A#5s.ogg",30
Sample,61921,0,"26A#2.ogg",50
Sample,61921,0,"LR_Drum Rpd x2.wav",30
Sample,62151,0,"33F3.ogg",50
Sample,62382,0,"m_38.ogg",50
Sample,62382,0,"m_42.ogg",50
Sample,62382,0,"LR_Drum Hit Echo.wav",30
Sample,62613,0,"LR_Drum Hit Open.wav",30
Sample,62613,0,"SVF_A#5s.ogg",30
Sample,62844,0,"m_50.ogg",100
Sample,62844,0,"31D#3.ogg",50
Sample,62844,0,"38A#3.ogg",50
Sample,62844,0,"LR_Drum Rpd x2.wav",30
Sample,63248,0,"62A#5.ogg",70
Sample,63276,0,"67D#6.ogg",70
Sample,63305,0,"LR_Drum Rpd x2.wav",30
Sample,63305,0,"69F6.ogg",70
Sample,63305,0,"33F3.ogg",50
Sample,63334,0,"74A#6.ogg",70
Sample,63536,0,"30D3.ogg",50
Sample,63536,0,"52C5.ogg",100
Sample,63767,0,"m_50.ogg",100
Sample,64228,0,"48G#4.ogg",50
Sample,64459,0,"62A#5.ogg",50
Sample,64921,0,"36G#3.ogg",50
Sample,64921,0,"59G5.ogg",100
Sample,65151,0,"m_38.ogg",50
Sample,65151,0,"m_48.ogg",50
Sample,65151,0,"m_42.ogg",50
Sample,65151,0,"57F5.ogg",100
Sample,65613,0,"LR4_GreatDrumBS2.wav",50
Sample,65613,0,"40C4.ogg",50
Sample,65613,0,"m_55.ogg",100
Sample,65844,0,"69F6.ogg",60
Sample,65844,0,"47G4.ogg",50
Sample,65959,0,"71G6.ogg",60
Sample,66074,0,"69F6.ogg",60
Sample,66074,0,"LR4_GreatDrumBS2.wav",50
Sample,66074,0,"52C5.ogg",50
Sample,66074,0,"59G5.ogg",100
Sample,66305,0,"66D6.ogg",60
Sample,66305,0,"47G4.ogg",50
Sample,66305,0,"64C6.ogg",100
Sample,66536,0,"LR4_GreatDrumBS2.wav",50
Sample,66536,0,"35G3.ogg",50
Sample,66536,0,"m_62.ogg",100
Sample,66767,0,"71G6.ogg",60
Sample,66767,0,"42D4.ogg",50
Sample,66882,0,"74A#6.ogg",60
Sample,66998,0,"66D6.ogg",60
Sample,66998,0,"62A#5.ogg",60
Sample,66998,0,"LR4_GreatDrumBS2.wav",50
Sample,66998,0,"50A#4.ogg",50
Sample,66998,0,"59G5.ogg",100
Sample,67228,0,"62A#5.ogg",60
Sample,67228,0,"42D4.ogg",50
Sample,67228,0,"57F5.ogg",100
Sample,67459,0,"LR4_GreatDrumBS2.wav",50
Sample,67459,0,"36G#3.ogg",50
Sample,67459,0,"m_55.ogg",100
Sample,67863,0,"67D#6.ogg",70
Sample,67892,0,"71G6.ogg",70
Sample,67921,0,"LR4_GreatDrumBS2.wav",50
Sample,67921,0,"48G#4.ogg",50
Sample,67949,0,"79D#7.ogg",70
Sample,68151,0,"55D#5.ogg",50
Sample,68613,0,"36G#3.ogg",50
Sample,68613,0,"59G5.ogg",100
Sample,68844,0,"m_38.ogg",50
Sample,68844,0,"m_48.ogg",50
Sample,68844,0,"m_42.ogg",50
Sample,68844,0,"57F5.ogg",100
Sample,69305,0,"40C4.ogg",50
Sample,69305,0,"52C5.ogg",60
Sample,69305,0,"m_55.ogg",100
Sample,69536,0,"64C6.ogg",60
Sample,69536,0,"47G4.ogg",50
Sample,69651,0,"66D6.ogg",60
Sample,69767,0,"64C6.ogg",60
Sample,69767,0,"LR4_GreatDrumBS2.wav",50
Sample,69767,0,"55D#5.ogg",50
Sample,69767,0,"54D5.ogg",100
Sample,69998,0,"60G#5.ogg",60
Sample,69998,0,"47G4.ogg",50
Sample,69998,0,"52C5.ogg",100
Sample,70228,0,"59G5.ogg",60
Sample,70228,0,"57F5.ogg",60
Sample,70228,0,"LR4_GreatDrumBS2.wav",50
Sample,70228,0,"35G3.ogg",50
Sample,70228,0,"m_50.ogg",100
Sample,70459,0,"57F5.ogg",60
Sample,70459,0,"42D4.ogg",50
Sample,70574,0,"59G5.ogg",60
Sample,70690,0,"57F5.ogg",60
Sample,70690,0,"LR4_GreatDrumBS2.wav",50
Sample,70690,0,"50A#4.ogg",100
Sample,70921,0,"54D5.ogg",60
Sample,70921,0,"42D4.ogg",50
Sample,70921,0,"52C5.ogg",100
Sample,71151,0,"LR_Drum Rpd x2.wav",30
Sample,71151,0,"36G#3.ogg",50
Sample,71151,0,"m_50.ogg",100
Sample,71382,0,"43D#4.ogg",50
Sample,71555,0,"79D#7.ogg",70
Sample,71613,0,"LR_Drum Rpd x2.wav",30
Sample,71613,0,"48G#4.ogg",50
Sample,71844,0,"62A#5.ogg",50
Sample,71844,0,"55D#5.ogg",50
Sample,72305,0,"43D#4.ogg",50
Sample,72305,0,"36G#3.ogg",50
Sample,72305,0,"59G5.ogg",100
Sample,72536,0,"m_38.ogg",50
Sample,72536,0,"m_48.ogg",50
Sample,72536,0,"m_42.ogg",50
Sample,72536,0,"57F5.ogg",100
Sample,72767,0,"54D5.ogg",100
Sample,72998,0,"40C4.ogg",50
Sample,72998,0,"52C5.ogg",60
Sample,72998,0,"m_55.ogg",100
Sample,73228,0,"69F6.ogg",60
Sample,73228,0,"LR_Drum Hit HAT.wav",30
Sample,73228,0,"47G4.ogg",50
Sample,73344,0,"71G6.ogg",60
Sample,73459,0,"69F6.ogg",60
Sample,73459,0,"LR_Drum Rpd x2.wav",30
Sample,73459,0,"55D#5.ogg",50
Sample,73459,0,"59G5.ogg",100
Sample,73690,0,"66D6.ogg",60
Sample,73690,0,"LR_Drum Hit HAT.wav",30
Sample,73690,0,"47G4.ogg",50
Sample,73690,0,"64C6.ogg",100
Sample,73921,0,"LR_Drum Rpd x2.wav",30
Sample,73921,0,"35G3.ogg",50
Sample,73921,0,"62A#5.ogg",100
Sample,74151,0,"71G6.ogg",60
Sample,74151,0,"LR_Drum Hit HAT.wav",30
Sample,74151,0,"42D4.ogg",50
Sample,74151,0,"62A#5.ogg",100
Sample,74267,0,"74A#6.ogg",60
Sample,74267,0,"LR_Drum Hit HAT.wav",30
Sample,74382,0,"66D6.ogg",60
Sample,74382,0,"62A#5.ogg",60
Sample,74382,0,"LR_Drum Rpd x2.wav",30
Sample,74382,0,"50A#4.ogg",50
Sample,74382,0,"59G5.ogg",100
Sample,74613,0,"62A#5.ogg",60
Sample,74613,0,"LR_Drum Hit HAT.wav",30
Sample,74613,0,"42D4.ogg",50
Sample,74613,0,"57F5.ogg",100
Sample,74844,0,"LR_Drum Rpd x2.wav",30
Sample,74844,0,"36G#3.ogg",50
Sample,74844,0,"m_55.ogg",100
Sample,75074,0,"43D#4.ogg",50
Sample,75190,0,"LR_Drum Hit HAT.wav",30
Sample,75248,0,"67D#6.ogg",70
Sample,75276,0,"71G6.ogg",70
Sample,75305,0,"LR_Drum Rpd x2.wav",30
Sample,75305,0,"48G#4.ogg",50
Sample,75334,0,"79D#7.ogg",70
Sample,75536,0,"62A#5.ogg",50
Sample,75536,0,"55D#5.ogg",50
Sample,75998,0,"LR_Drum Hit HAT.wav",30
Sample,76228,0,"m_42.ogg",50
Sample,76228,0,"m_47.ogg",50
Sample,76228,0,"LR_Drum Rpd x2.wav",30
Sample,76459,0,"LR_Drum Hit HAT.wav",30
Sample,76690,0,"m_55.ogg",100
Sample,76921,0,"m_40.ogg",50
Sample,76921,0,"64C6.ogg",70
Sample,76921,0,"LR_Drum Hit HAT.wav",30
Sample,77151,0,"66D6.ogg",70
Sample,77151,0,"LR_Drum Rpd x2.wav",30
Sample,77151,0,"m_59.ogg",100
Sample,77382,0,"67D#6.ogg",70
Sample,77382,0,"LR_Drum Hit HAT.wav",30
Sample,77613,0,"66D6.ogg",70
Sample,77613,0,"LR_Drum Hit HAT.wav",30
Sample,77613,0,"m_57.ogg",100
Sample,77613,0,"LR_Drum Rpd x2.wav",30
Sample,77844,0,"57F5.ogg",70
Sample,77959,0,"LR_Drum Hit HAT.wav",30
Sample,77959,0,"LR_Drum Rpd x2.wav",30
Sample,78074,0,"69F6.ogg",70
Sample,78074,0,"m_66.ogg",100
Sample,78305,0,"66D6.ogg",70
Sample,78305,0,"LR_Drum Hit HAT.wav",30
Sample,78305,0,"LR_Drum Rpd x2.wav",30
Sample,78536,0,"74A#6.ogg",100
Sample,78536,0,"LR_Drum Finish.wav",50
Sample,78536,0,"m_67.ogg",100
Sample,78767,0,"71G6.ogg",100
Sample,78998,0,"m_55.ogg",70
Sample,79459,0,"m_48.ogg",70
Sample,79690,0,"78D7.ogg",100
Sample,79921,0,"m_60.ogg",70
Sample,79921,0,"m_64.ogg",70
Sample,80382,0,"m_74.ogg",100
Sample,80613,0,"m_57.ogg",70
Sample,80844,0,"m_66.ogg",70
Sample,81421,0,"62A#5.ogg",100
Sample,81651,0,"71G6.ogg",100
Sample,81882,0,"62A#5.ogg",100
Sample,82113,0,"66D6.ogg",100
Sample,82228,0,"m_40.ogg",70
Sample,82459,0,"m_47.ogg",70
Sample,82690,0,"m_55.ogg",70
Sample,83151,0,"74A#6.ogg",100
Sample,83382,0,"m_55.ogg",70
Sample,83613,0,"m_60.ogg",70
Sample,84074,0,"m_38.ogg",70
Sample,84074,0,"m_69.ogg",100
Sample,84305,0,"69F6.ogg",100
Sample,84536,0,"m_50.ogg",70
Sample,84998,0,"SVF_G5ss.ogg",20
Sample,85113,0,"67D#6.ogg",100
Sample,85344,0,"66D6.ogg",100
Sample,85459,0,"SVF_F5ss.ogg",20
Sample,85863,0,"62A#5.ogg",100
Sample,85921,0,"70F#6.ogg",100
Sample,85921,0,"m_43.ogg",70
Sample,85921,0,"67D#6.ogg",100
Sample,85921,0,"SVF_F#5s.ogg",20
Sample,86151,0,"m_62.ogg",100
Sample,86382,0,"m_58.ogg",70
Sample,86844,0,"77C#7.ogg",100
Sample,86844,0,"SVF_D#5s.ogg",20
Sample,87074,0,"m_58.ogg",70
Sample,87305,0,"m_67.ogg",70
Sample,87767,0,"72G#6.ogg",100
Sample,87767,0,"SVF_F5s.ogg",20
Sample,87998,0,"75B6.ogg",100
Sample,88228,0,"m_65.ogg",70
Sample,88690,0,"SVF_A#5ss.ogg",20
Sample,88805,0,"84G#7.ogg",100
Sample,89036,0,"77C#7.ogg",100
Sample,89151,0,"SVF_G#5ss.ogg",20
Sample,89267,0,"70F#6.ogg",100
Sample,89498,0,"72G#6.ogg",100
Sample,89613,0,"SVF_F#5s.ogg",20
Sample,89844,0,"70F#6.ogg",100
Sample,90074,0,"74A#6.ogg",100
Sample,90536,0,"77C#7.ogg",100
Sample,90536,0,"SVF_D#5s.ogg",20
Sample,90767,0,"69F6.ogg",100
Sample,90998,0,"m_63.ogg",70
Sample,91459,0,"72G#6.ogg",100
Sample,91459,0,"SVF_F5s.ogg",20
Sample,91690,0,"70F#6.ogg",100
Sample,91921,0,"m_65.ogg",70
Sample,92382,0,"m_62.ogg",100
Sample,92382,0,"m_72.ogg",100
Sample,92382,0,"SVF_F5s.ogg",20
Sample,93305,0,"m_65.ogg",100
Sample,93305,0,"m_43.ogg",50
Sample,93305,0,"m_50.ogg",50
Sample,93305,0,"m_62.ogg",70
Sample,93305,0,"m_58.ogg",70
Sample,94228,0,"m_46.ogg",50
Sample,94228,0,"m_53.ogg",70
Sample,94228,0,"m_58.ogg",100
Sample,95151,0,"m_58.ogg",70
Sample,95151,0,"m_41.ogg",50
Sample,95151,0,"m_48.ogg",50
Sample,95151,0,"m_60.ogg",70
Sample,95151,0,"m_65.ogg",100
Sample,96074,0,"m_65.ogg",50
Sample,96074,0,"m_46.ogg",50
Sample,96074,0,"m_62.ogg",100
Sample,96074,0,"m_58.ogg",50
Sample,96536,0,"m_57.ogg",70
Sample,96536,0,"m_45.ogg",50
Sample,96536,0,"62A#5.ogg",100
Sample,96998,0,"m_43.ogg",50
Sample,96998,0,"m_50.ogg",50
Sample,96998,0,"m_58.ogg",100
Sample,97921,0,"m_65.ogg",100
Sample,97921,0,"m_58.ogg",70
Sample,97921,0,"m_62.ogg",70
Sample,97921,0,"m_39.ogg",50
Sample,97921,0,"m_46.ogg",50
Sample,98844,0,"m_41.ogg",50
Sample,98844,0,"m_58.ogg",70
Sample,98844,0,"m_60.ogg",70
Sample,98844,0,"m_48.ogg",50
Sample,98844,0,"62A#5.ogg",100
Sample,99767,0,"m_65.ogg",50
Sample,99767,0,"m_34.ogg",50
Sample,99767,0,"m_46.ogg",50
Sample,99767,0,"m_58.ogg",100
Sample,100228,0,"LR4_GreatDrumBS2.wav",70
Sample,100228,0,"m_33.ogg",50
Sample,100228,0,"m_45.ogg",50
Sample,100228,0,"62A#5.ogg",100
Sample,100690,0,"LR_Drum Kick Low.wav",40
Sample,100690,0,"m_31.ogg",50
Sample,100690,0,"m_65.ogg",100
Sample,100921,0,"LR_Drum Fast Hit Click.wav",40
Sample,100921,0,"m_38.ogg",50
Sample,101036,0,"Kalimba_A#3.ogg",70
Sample,101151,0,"LR_Drum Kick Low.wav",40
Sample,101151,0,"m_43.ogg",50
Sample,101151,0,"58F#5.ogg",100
Sample,101267,0,"Kalimba_F#4.ogg",70
Sample,101382,0,"57F5.ogg",100
Sample,101382,0,"LR_Drum Fast Hit Click.wav",40
Sample,101613,0,"LR_Drum Kick Low.wav",40
Sample,101613,0,"m_27.ogg",50
Sample,101613,0,"m_58.ogg",100
Sample,101844,0,"m_34.ogg",50
Sample,101844,0,"LR_Drum Fast Hit Click.wav",40
Sample,102074,0,"m_43.ogg",50
Sample,102074,0,"62A#5.ogg",100
Sample,102305,0,"67D#6.ogg",100
Sample,102536,0,"LR_Drum Kick Low.wav",40
Sample,102536,0,"m_29.ogg",50
Sample,102536,0,"m_65.ogg",100
Sample,102767,0,"LR_Drum Fast Hit Click.wav",40
Sample,102767,0,"m_36.ogg",50
Sample,102882,0,"Kalimba_C#3.ogg",70
Sample,102998,0,"LR_Drum Kick Low.wav",40
Sample,102998,0,"m_41.ogg",50
Sample,102998,0,"58F#5.ogg",100
Sample,103113,0,"Kalimba_F#4.ogg",70
Sample,103228,0,"63B5.ogg",100
Sample,103228,0,"LR_Drum Fast Hit Click.wav",40
Sample,103459,0,"m_46.ogg",50
Sample,103459,0,"m_34.ogg",50
Sample,103459,0,"m_62.ogg",100
Sample,103690,0,"Kalimba_C#4.ogg",70
Sample,103690,0,"LR_Drum Fast Hit Click.wav",40
Sample,103805,0,"LR_Drum Fast Hit Click.wav",40
Sample,103921,0,"m_45.ogg",50
Sample,103921,0,"m_33.ogg",50
Sample,103921,0,"67D#6.ogg",100
Sample,104151,0,"69F6.ogg",100
Sample,104382,0,"LR_Drum Kick Low.wav",40
Sample,104382,0,"m_31.ogg",50
Sample,104382,0,"m_43.ogg",50
Sample,104382,0,"m_70.ogg",100
Sample,104613,0,"LR_Drum Fast Hit Click.wav",40
Sample,104613,0,"m_38.ogg",50
Sample,104728,0,"Kalimba_A#3.ogg",70
Sample,104844,0,"LR_Drum Kick Low.wav",40
Sample,104844,0,"m_43.ogg",50
Sample,104844,0,"69F6.ogg",100
Sample,104959,0,"Kalimba_F#4.ogg",70
Sample,105074,0,"67D#6.ogg",100
Sample,105074,0,"LR_Drum Fast Hit Click.wav",40
Sample,105305,0,"m_27.ogg",50
Sample,105305,0,"65C#6.ogg",100
Sample,105536,0,"m_34.ogg",50
Sample,105536,0,"58F#5.ogg",100
Sample,105536,0,"LR_Drum Fast Hit Click.wav",40
Sample,105767,0,"LR_Drum Kick Low.wav",40
Sample,105767,0,"m_43.ogg",50
Sample,105767,0,"58F#5.ogg",100
Sample,105998,0,"62A#5.ogg",100
Sample,106228,0,"m_29.ogg",50
Sample,106228,0,"60G#5.ogg",100
Sample,106459,0,"LR_Drum Fast Hit Click.wav",40
Sample,106459,0,"m_36.ogg",50
Sample,106459,0,"62A#5.ogg",100
Sample,106574,0,"Kalimba_G#3.ogg",70
Sample,106690,0,"LR_Drum Kick Low.wav",40
Sample,106690,0,"m_41.ogg",50
Sample,106690,0,"60G#5.ogg",100
Sample,106921,0,"58F#5.ogg",100
Sample,106998,0,"LR_Tom Hit 2.wav",50
Sample,107074,0,"LR_Tom Hit 3.wav",50
Sample,107151,0,"m_42.ogg",50
Sample,107151,0,"m_33.ogg",50
Sample,107151,0,"m_62.ogg",50
Sample,107151,0,"m_57.ogg",50
Sample,107151,0,"m_54.ogg",50
Sample,107151,0,"m_50.ogg",50
Sample,107151,0,"m_60.ogg",100
Sample,108074,0,"m_58.ogg",50
Sample,108074,0,"m_53.ogg",50
Sample,108074,0,"19D#2.ogg",50
Sample,108074,0,"31D#3.ogg",50
Sample,108074,0,"m_65.ogg",100
Sample,108305,0,"31D#3.ogg",50
Sample,108421,0,"60G#5.ogg",50
Sample,108421,0,"53C#5.ogg",50
Sample,108536,0,"58F#5.ogg",100
Sample,108536,0,"LR_Drum Finish.wav",25
Sample,108651,0,"60G#5.ogg",50
Sample,108651,0,"53C#5.ogg",50
Sample,108767,0,"58F#5.ogg",50
Sample,108767,0,"31D#3.ogg",50
Sample,108767,0,"53C#5.ogg",50
Sample,108767,0,"57F5.ogg",100
Sample,108998,0,"m_53.ogg",50
Sample,108998,0,"39B3.ogg",50
Sample,108998,0,"27B2.ogg",50
Sample,108998,0,"m_62.ogg",50
Sample,108998,0,"m_58.ogg",100
Sample,109228,0,"34F#3.ogg",50
Sample,109344,0,"60G#5.ogg",50
Sample,109344,0,"53C#5.ogg",50
Sample,109459,0,"39B3.ogg",50
Sample,109459,0,"62A#5.ogg",100
Sample,109574,0,"60G#5.ogg",50
Sample,109574,0,"53C#5.ogg",50
Sample,109690,0,"58F#5.ogg",50
Sample,109690,0,"34F#3.ogg",50
Sample,109690,0,"53C#5.ogg",50
Sample,109690,0,"67D#6.ogg",100
Sample,109921,0,"41C#4.ogg",50
Sample,109921,0,"29C#3.ogg",50
Sample,109921,0,"m_58.ogg",50
Sample,109921,0,"m_53.ogg",50
Sample,109921,0,"m_65.ogg",100
Sample,110151,0,"36G#3.ogg",50
Sample,110267,0,"58F#5.ogg",50
Sample,110267,0,"53C#5.ogg",50
Sample,110382,0,"46F#4.ogg",50
Sample,110382,0,"58F#5.ogg",100
Sample,110498,0,"LR_Drum Rpd x2.wav",70
Sample,110498,0,"58F#5.ogg",50
Sample,110498,0,"53C#5.ogg",50
Sample,110613,0,"36G#3.ogg",50
Sample,110613,0,"60G#5.ogg",50
Sample,110613,0,"53C#5.ogg",50
Sample,110613,0,"63B5.ogg",100
Sample,110844,0,"22F#2.ogg",50
Sample,110844,0,"m_53.ogg",50
Sample,110844,0,"m_58.ogg",50
Sample,110844,0,"m_62.ogg",100
Sample,111074,0,"29C#3.ogg",50
Sample,111305,0,"33F3.ogg",50
Sample,111305,0,"62A#5.ogg",100
Sample,111305,0,"58F#5.ogg",50
Sample,111421,0,"LR_Drum Rpd x2.wav",70
Sample,111536,0,"60G#5.ogg",100
Sample,111536,0,"63B5.ogg",50
Sample,111651,0,"LR_Drum Rpd x2.wav",70
Sample,111767,0,"19D#2.ogg",50
Sample,111767,0,"m_58.ogg",100
Sample,111767,0,"m_65.ogg",50
Sample,111767,0,"m_62.ogg",50
Sample,111998,0,"31D#3.ogg",50
Sample,112113,0,"LR_Drum Rpd x2.wav",70
Sample,112228,0,"34F#3.ogg",50
Sample,112228,0,"58F#5.ogg",50
Sample,112228,0,"55D#5.ogg",50
Sample,112228,0,"62A#5.ogg",100
Sample,112459,0,"60G#5.ogg",50
Sample,112459,0,"57F5.ogg",50
Sample,112459,0,"67D#6.ogg",100
Sample,112690,0,"39B3.ogg",50
Sample,112690,0,"58F#5.ogg",50
Sample,112690,0,"55D#5.ogg",50
Sample,112690,0,"65C#6.ogg",100
Sample,112921,0,"34F#3.ogg",50
Sample,112921,0,"58F#5.ogg",100
Sample,113151,0,"39B3.ogg",50
Sample,113151,0,"43D#4.ogg",50
Sample,113151,0,"m_63.ogg",50
Sample,113151,0,"m_67.ogg",50
Sample,113382,0,"34F#3.ogg",50
Sample,113382,0,"60G#5.ogg",100
Sample,113613,0,"41C#4.ogg",50
Sample,113613,0,"m_65.ogg",50
Sample,113613,0,"m_60.ogg",50
Sample,113613,0,"m_57.ogg",50
Sample,113613,0,"62A#5.ogg",100
Sample,113844,0,"36G#3.ogg",50
Sample,113844,0,"65C#6.ogg",100
Sample,114074,0,"41C#4.ogg",50
Sample,114074,0,"53C#5.ogg",50
Sample,114074,0,"58F#5.ogg",50
Sample,114074,0,"60G#5.ogg",100
Sample,114305,0,"51B4.ogg",50
Sample,114305,0,"60G#5.ogg",50
Sample,114305,0,"58F#5.ogg",100
Sample,114536,0,"34F#3.ogg",50
Sample,114536,0,"m_50.ogg",50
Sample,114536,0,"m_58.ogg",100
Sample,114767,0,"LR_Drum Hit Drop High.wav",50
Sample,114998,0,"53C#5.ogg",50
Sample,114998,0,"58F#5.ogg",50
Sample,114998,0,"62A#5.ogg",100
Sample,114998,0,"LR_Drum Rpd x2.wav",70
Sample,115228,0,"60G#5.ogg",50
Sample,115228,0,"63B5.ogg",100
Sample,115344,0,"LR_Drum Rpd x2.wav",70
Sample,115459,0,"m_58.ogg",50
Sample,115459,0,"m_53.ogg",50
Sample,115459,0,"m_65.ogg",100
Sample,115459,0,"LR_Drum Finish.wav",30
Sample,115690,0,"31D#3.ogg",50
Sample,115805,0,"60G#5.ogg",50
Sample,115805,0,"53C#5.ogg",50
Sample,115921,0,"34F#3.ogg",50
Sample,115921,0,"58F#5.ogg",100
Sample,116036,0,"60G#5.ogg",50
Sample,116036,0,"53C#5.ogg",50
Sample,116151,0,"31D#3.ogg",50
Sample,116151,0,"58F#5.ogg",50
Sample,116151,0,"53C#5.ogg",50
Sample,116151,0,"57F5.ogg",100
Sample,116382,0,"27B2.ogg",50
Sample,116382,0,"m_65.ogg",50
Sample,116382,0,"m_53.ogg",50
Sample,116382,0,"m_62.ogg",50
Sample,116382,0,"m_58.ogg",100
Sample,116613,0,"34F#3.ogg",50
Sample,116728,0,"60G#5.ogg",50
Sample,116728,0,"53C#5.ogg",50
Sample,116844,0,"39B3.ogg",50
Sample,116844,0,"62A#5.ogg",100
Sample,116959,0,"60G#5.ogg",50
Sample,116959,0,"53C#5.ogg",50
Sample,117074,0,"34F#3.ogg",50
Sample,117074,0,"58F#5.ogg",50
Sample,117074,0,"53C#5.ogg",50
Sample,117074,0,"67D#6.ogg",100
Sample,117305,0,"29C#3.ogg",50
Sample,117305,0,"m_60.ogg",50
Sample,117305,0,"m_58.ogg",50
Sample,117305,0,"m_53.ogg",50
Sample,117305,0,"m_65.ogg",100
Sample,117536,0,"36G#3.ogg",50
Sample,117651,0,"58F#5.ogg",50
Sample,117651,0,"53C#5.ogg",50
Sample,117767,0,"46F#4.ogg",50
Sample,117767,0,"58F#5.ogg",100
Sample,117882,0,"LR_Drum Rpd x2.wav",70
Sample,117882,0,"58F#5.ogg",50
Sample,117882,0,"53C#5.ogg",50
Sample,117998,0,"29C#3.ogg",50
Sample,117998,0,"60G#5.ogg",50
Sample,117998,0,"53C#5.ogg",50
Sample,117998,0,"63B5.ogg",100
Sample,118228,0,"22F#2.ogg",50
Sample,118228,0,"m_53.ogg",50
Sample,118228,0,"m_58.ogg",50
Sample,118228,0,"m_62.ogg",100
Sample,118459,0,"29C#3.ogg",50
Sample,118690,0,"21F2.ogg",50
Sample,118690,0,"62A#5.ogg",50
Sample,118690,0,"58F#5.ogg",50
Sample,118690,0,"67D#6.ogg",100
Sample,118921,0,"63B5.ogg",50
Sample,118921,0,"60G#5.ogg",50
Sample,118921,0,"69F6.ogg",100
Sample,119151,0,"31D#3.ogg",50
Sample,119151,0,"m_65.ogg",50
Sample,119151,0,"m_62.ogg",50
Sample,119151,0,"m_58.ogg",50
Sample,119151,0,"m_70.ogg",100
Sample,119382,0,"31D#3.ogg",50
Sample,119613,0,"34F#3.ogg",50
Sample,119613,0,"58F#5.ogg",50
Sample,119613,0,"55D#5.ogg",50
Sample,119613,0,"69F6.ogg",100
Sample,119844,0,"60G#5.ogg",50
Sample,119844,0,"57F5.ogg",50
Sample,119844,0,"67D#6.ogg",100
Sample,120074,0,"27B2.ogg",50
Sample,120074,0,"58F#5.ogg",50
Sample,120074,0,"55D#5.ogg",50
Sample,120074,0,"65C#6.ogg",100
Sample,120305,0,"34F#3.ogg",50
Sample,120305,0,"58F#5.ogg",100
Sample,120536,0,"39B3.ogg",50
Sample,120536,0,"m_63.ogg",50
Sample,120536,0,"m_67.ogg",50
Sample,120536,0,"58F#5.ogg",100
Sample,120767,0,"34F#3.ogg",50
Sample,120767,0,"62A#5.ogg",100
Sample,120998,0,"29C#3.ogg",50
Sample,120998,0,"m_65.ogg",50
Sample,120998,0,"m_57.ogg",50
Sample,120998,0,"60G#5.ogg",100
Sample,121228,0,"62A#5.ogg",100
Sample,121344,0,"LR_Drum Rpd x2.wav",70
Sample,121459,0,"46F#4.ogg",50
Sample,121459,0,"53C#5.ogg",50
Sample,121459,0,"58F#5.ogg",50
Sample,121459,0,"60G#5.ogg",100
Sample,121690,0,"51B4.ogg",50
Sample,121690,0,"60G#5.ogg",50
Sample,121690,0,"58F#5.ogg",100
Sample,121921,0,"34F#3.ogg",50
Sample,121921,0,"m_53.ogg",50
Sample,121921,0,"m_62.ogg",50
Sample,121921,0,"m_58.ogg",100
Sample,122151,0,"29C#3.ogg",50
Sample,122382,0,"21F2.ogg",50
Sample,122382,0,"33F3.ogg",50
Sample,122382,0,"m_53.ogg",50
Sample,122382,0,"m_60.ogg",50
Sample,122498,0,"60G#5.ogg",100
Sample,122613,0,"62A#5.ogg",120
Sample,122728,0,"63B5.ogg",120
Sample,122844,0,"19D#2.ogg",50
Sample,122844,0,"m_58.ogg",50
Sample,122844,0,"m_53.ogg",50
Sample,122844,0,"m_60.ogg",50
Sample,122844,0,"m_65.ogg",100
Sample,122844,0,"LR_Drum Finish.wav",30
Sample,123074,0,"31D#3.ogg",50
Sample,123190,0,"60G#5.ogg",50
Sample,123190,0,"53C#5.ogg",50
Sample,123305,0,"38A#3.ogg",50
Sample,123305,0,"58F#5.ogg",100
Sample,123421,0,"60G#5.ogg",50
Sample,123421,0,"53C#5.ogg",50
Sample,123536,0,"31D#3.ogg",50
Sample,123536,0,"58F#5.ogg",50
Sample,123536,0,"53C#5.ogg",50
Sample,123536,0,"57F5.ogg",100
Sample,123767,0,"39B3.ogg",50
Sample,123767,0,"m_65.ogg",50
Sample,123767,0,"m_53.ogg",50
Sample,123767,0,"m_62.ogg",50
Sample,123767,0,"m_58.ogg",100
Sample,123998,0,"34F#3.ogg",50
Sample,124113,0,"60G#5.ogg",50
Sample,124113,0,"53C#5.ogg",50
Sample,124228,0,"39B3.ogg",50
Sample,124228,0,"62A#5.ogg",100
Sample,124344,0,"60G#5.ogg",50
Sample,124344,0,"53C#5.ogg",50
Sample,124459,0,"34F#3.ogg",50
Sample,124459,0,"58F#5.ogg",50
Sample,124459,0,"53C#5.ogg",50
Sample,124459,0,"67D#6.ogg",100
Sample,124690,0,"29C#3.ogg",50
Sample,124690,0,"m_60.ogg",50
Sample,124690,0,"m_58.ogg",50
Sample,124690,0,"m_53.ogg",50
Sample,124690,0,"m_65.ogg",100
Sample,124921,0,"36G#3.ogg",50
Sample,125036,0,"58F#5.ogg",50
Sample,125036,0,"53C#5.ogg",50
Sample,125151,0,"41C#4.ogg",50
Sample,125151,0,"58F#5.ogg",100
Sample,125267,0,"LR_Drum Rpd x2.wav",70
Sample,125267,0,"58F#5.ogg",50
Sample,125267,0,"53C#5.ogg",50
Sample,125382,0,"36G#3.ogg",50
Sample,125382,0,"60G#5.ogg",50
Sample,125382,0,"53C#5.ogg",50
Sample,125382,0,"63B5.ogg",100
Sample,125613,0,"22F#2.ogg",50
Sample,125613,0,"m_53.ogg",50
Sample,125613,0,"m_58.ogg",50
Sample,125613,0,"m_62.ogg",100
Sample,125844,0,"LR_Drum Rpd x2.wav",70
Sample,125844,0,"29C#3.ogg",50
Sample,126074,0,"21F2.ogg",50
Sample,126074,0,"33F3.ogg",50
Sample,126074,0,"62A#5.ogg",50
Sample,126074,0,"58F#5.ogg",100
Sample,126190,0,"LR_Drum Rpd x2.wav",70
Sample,126305,0,"29C#3.ogg",50
Sample,126305,0,"63B5.ogg",50
Sample,126305,0,"60G#5.ogg",100
Sample,126421,0,"LR_Drum Rpd x2.wav",70
Sample,126536,0,"19D#2.ogg",50
Sample,126536,0,"31D#3.ogg",50
Sample,126536,0,"m_65.ogg",50
Sample,126536,0,"m_62.ogg",50
Sample,126536,0,"m_58.ogg",100
Sample,126767,0,"LR_Drum Rpd x2.wav",70
Sample,126767,0,"31D#3.ogg",50
Sample,126824,0,"Koto_G#4.ogg",50
Sample,126882,0,"LR_Drum Rpd x2.wav",70
Sample,126998,0,"38A#3.ogg",50
Sample,126998,0,"34F#3.ogg",50
Sample,126998,0,"58F#5.ogg",50
Sample,126998,0,"55D#5.ogg",50
Sample,127228,0,"LR_Drum Rpd x2.wav",70
Sample,127228,0,"31D#3.ogg",50
Sample,127228,0,"60G#5.ogg",50
Sample,127228,0,"57F5.ogg",50
Sample,127459,0,"27B2.ogg",50
Sample,127459,0,"39B3.ogg",50
Sample,127459,0,"58F#5.ogg",50
Sample,127459,0,"55D#5.ogg",50
Sample,127690,0,"LR_Drum Rpd x2.wav",70
Sample,127690,0,"34F#3.ogg",50
Sample,127921,0,"39B3.ogg",50
Sample,127921,0,"43D#4.ogg",50
Sample,127921,0,"m_58.ogg",50
Sample,127921,0,"m_63.ogg",50
Sample,127921,0,"m_67.ogg",50
Sample,128151,0,"LR_Drum Rpd x2.wav",70
Sample,128151,0,"34F#3.ogg",50
Sample,128382,0,"29C#3.ogg",50
Sample,128382,0,"41C#4.ogg",50
Sample,128382,0,"m_65.ogg",50
Sample,128382,0,"m_60.ogg",50
Sample,128382,0,"m_57.ogg",50
Sample,128613,0,"LR_Drum Rpd x2.wav",70
Sample,128613,0,"36G#3.ogg",50
Sample,128844,0,"41C#4.ogg",50
Sample,128844,0,"46F#4.ogg",50
Sample,128844,0,"53C#5.ogg",50
Sample,128844,0,"58F#5.ogg",50
Sample,129074,0,"LR_Drum Rpd x2.wav",70
Sample,129074,0,"36G#3.ogg",50
Sample,129074,0,"51B4.ogg",50
Sample,129074,0,"60G#5.ogg",50
Sample,129305,0,"34F#3.ogg",50
Sample,129305,0,"22F#2.ogg",50
Sample,129305,0,"m_50.ogg",50
Sample,129305,0,"m_58.ogg",50
Sample,129536,0,"29C#3.ogg",50
Sample,129536,0,"LR_Drum Hit Drop High.wav",50
Sample,129767,0,"33F3.ogg",50
Sample,129767,0,"21F2.ogg",50
Sample,129767,0,"62A#5.ogg",50
Sample,129767,0,"53C#5.ogg",50
Sample,129767,0,"58F#5.ogg",50
Sample,129998,0,"29C#3.ogg",50
Sample,129998,0,"63B5.ogg",50
Sample,129998,0,"60G#5.ogg",50
Sample,130113,0,"LR_Drum Hit Drop High.wav",50
Sample,130228,0,"m_60.ogg",50
Sample,130228,0,"m_58.ogg",50
Sample,130228,0,"m_53.ogg",50
Sample,130228,0,"m_65.ogg",100
Sample,130228,0,"LR_Drum Finish.wav",30
Sample,130459,0,"31D#3.ogg",50
Sample,130574,0,"60G#5.ogg",50
Sample,130574,0,"53C#5.ogg",50
Sample,130690,0,"38A#3.ogg",50
Sample,130690,0,"58F#5.ogg",100
Sample,130805,0,"60G#5.ogg",50
Sample,130805,0,"53C#5.ogg",50
Sample,130921,0,"31D#3.ogg",50
Sample,130921,0,"58F#5.ogg",50
Sample,130921,0,"53C#5.ogg",50
Sample,130921,0,"57F5.ogg",100
Sample,131151,0,"39B3.ogg",50
Sample,131151,0,"m_65.ogg",50
Sample,131151,0,"m_53.ogg",50
Sample,131151,0,"m_62.ogg",50
Sample,131151,0,"m_58.ogg",100
Sample,131382,0,"34F#3.ogg",50
Sample,131498,0,"60G#5.ogg",50
Sample,131498,0,"53C#5.ogg",50
Sample,131613,0,"39B3.ogg",50
Sample,131613,0,"62A#5.ogg",100
Sample,131728,0,"60G#5.ogg",50
Sample,131728,0,"53C#5.ogg",50
Sample,131844,0,"34F#3.ogg",50
Sample,131844,0,"58F#5.ogg",50
Sample,131844,0,"53C#5.ogg",50
Sample,131844,0,"67D#6.ogg",100
Sample,132074,0,"41C#4.ogg",50
Sample,132074,0,"m_60.ogg",50
Sample,132074,0,"m_58.ogg",50
Sample,132074,0,"m_53.ogg",50
Sample,132074,0,"m_65.ogg",100
Sample,132305,0,"36G#3.ogg",50
Sample,132421,0,"58F#5.ogg",50
Sample,132421,0,"53C#5.ogg",50
Sample,132536,0,"41C#4.ogg",50
Sample,132536,0,"58F#5.ogg",100
Sample,132651,0,"LR_Drum Rpd x2.wav",70
Sample,132651,0,"58F#5.ogg",50
Sample,132651,0,"53C#5.ogg",50
Sample,132767,0,"29C#3.ogg",50
Sample,132767,0,"60G#5.ogg",50
Sample,132767,0,"53C#5.ogg",50
Sample,132767,0,"63B5.ogg",100
Sample,132998,0,"22F#2.ogg",50
Sample,132998,0,"m_53.ogg",50
Sample,132998,0,"m_58.ogg",50
Sample,132998,0,"m_62.ogg",100
Sample,133228,0,"29C#3.ogg",50
Sample,133459,0,"21F2.ogg",50
Sample,133459,0,"62A#5.ogg",50
Sample,133459,0,"58F#5.ogg",50
Sample,133459,0,"67D#6.ogg",100
Sample,133690,0,"63B5.ogg",50
Sample,133690,0,"60G#5.ogg",50
Sample,133690,0,"69F6.ogg",100
Sample,133921,0,"19D#2.ogg",50
Sample,133921,0,"m_65.ogg",50
Sample,133921,0,"m_62.ogg",50
Sample,133921,0,"m_58.ogg",50
Sample,133921,0,"m_70.ogg",100
Sample,134151,0,"31D#3.ogg",50
Sample,134382,0,"38A#3.ogg",50
Sample,134382,0,"58F#5.ogg",50
Sample,134382,0,"55D#5.ogg",50
Sample,134382,0,"69F6.ogg",100
Sample,134613,0,"60G#5.ogg",50
Sample,134613,0,"57F5.ogg",50
Sample,134613,0,"67D#6.ogg",100
Sample,134844,0,"39B3.ogg",50
Sample,134844,0,"58F#5.ogg",50
Sample,134844,0,"55D#5.ogg",50
Sample,134844,0,"65C#6.ogg",100
Sample,135074,0,"34F#3.ogg",50
Sample,135074,0,"58F#5.ogg",100
Sample,135305,0,"43D#4.ogg",50
Sample,135305,0,"m_63.ogg",50
Sample,135305,0,"m_67.ogg",50
Sample,135305,0,"58F#5.ogg",100
Sample,135536,0,"34F#3.ogg",50
Sample,135536,0,"62A#5.ogg",100
Sample,135767,0,"41C#4.ogg",50
Sample,135767,0,"m_65.ogg",50
Sample,135767,0,"m_57.ogg",50
Sample,135767,0,"60G#5.ogg",100
Sample,135998,0,"62A#5.ogg",100
Sample,136113,0,"LR_Drum Rpd x2.wav",70
Sample,136228,0,"41C#4.ogg",50
Sample,136228,0,"53C#5.ogg",50
Sample,136228,0,"58F#5.ogg",50
Sample,136228,0,"60G#5.ogg",100
Sample,136459,0,"51B4.ogg",50
Sample,136459,0,"60G#5.ogg",50
Sample,136459,0,"58F#5.ogg",100
Sample,136690,0,"m_53.ogg",50
Sample,136690,0,"m_62.ogg",50
Sample,136690,0,"m_58.ogg",100
Sample,136921,0,"RevCyRDW.wav",30
Sample,136921,0,"29C#3.ogg",50
Sample,137151,0,"m_53.ogg",50
Sample,137151,0,"m_60.ogg",100
Sample,137151,0,"LR_Drum Rpd x2.wav",70
Sample,137382,0,"LR_Drum Rpd x2.wav",70
Sample,137613,0,"19D#2.ogg",50
Sample,137613,0,"31D#3.ogg",50
Sample,137613,0,"m_58.ogg",100
Sample,137613,0,"LR_Drum Rpd x2.wav",70
Sample,137728,0,"53C#5.ogg",100
Sample,137844,0,"58F#5.ogg",100
Sample,138074,0,"LR_Drum Hit Open 2.wav",50
Sample,138074,0,"38A#3.ogg",50
Sample,138074,0,"34F#3.ogg",50
Sample,138074,0,"53C#5.ogg",100
Sample,138305,0,"62A#5.ogg",100
Sample,138305,0,"31D#3.ogg",50
Sample,138536,0,"LR_Drum Rpd x2.wav",70
Sample,138536,0,"39B3.ogg",50
Sample,138536,0,"27B2.ogg",50
Sample,138767,0,"46F#4.ogg",50
Sample,138998,0,"43D#4.ogg",50
Sample,139228,0,"46F#4.ogg",50
Sample,139459,0,"65C#6.ogg",100
Sample,139459,0,"LR_Drum Rpd x2.wav",70
Sample,139459,0,"41C#4.ogg",50
Sample,139459,0,"29C#3.ogg",50
Sample,139574,0,"53C#5.ogg",100
Sample,139690,0,"48G#4.ogg",50
Sample,139921,0,"LR_Drum Hit Open 2.wav",50
Sample,139921,0,"41C#4.ogg",50
Sample,140151,0,"65C#6.ogg",100
Sample,140151,0,"29C#3.ogg",50
Sample,140382,0,"LR_Drum Rpd x2.wav",70
Sample,140382,0,"SVF_F#5ss.ogg",30
Sample,140382,0,"34F#3.ogg",50
Sample,140382,0,"22F#2.ogg",50
Sample,140613,0,"41C#4.ogg",50
Sample,140844,0,"33F3.ogg",50
Sample,140844,0,"21F2.ogg",50
Sample,141074,0,"33F3.ogg",50
Sample,141305,0,"31D#3.ogg",50
Sample,141305,0,"19D#2.ogg",50
Sample,141305,0,"m_65.ogg",50
Sample,141305,0,"m_70.ogg",50
Sample,141305,0,"m_62.ogg",50
Sample,141305,0,"58F#5.ogg",100
Sample,141767,0,"70F#6.ogg",50
Sample,141767,0,"62A#5.ogg",50
Sample,141767,0,"38A#3.ogg",50
Sample,141767,0,"34F#3.ogg",50
Sample,141767,0,"58F#5.ogg",100
Sample,141998,0,"72G#6.ogg",50
Sample,141998,0,"60G#5.ogg",100
Sample,142228,0,"27B2.ogg",50
Sample,142228,0,"39B3.ogg",50
Sample,142228,0,"m_74.ogg",50
Sample,142228,0,"62A#5.ogg",100
Sample,142690,0,"43D#4.ogg",50
Sample,142690,0,"m_70.ogg",50
Sample,142690,0,"58F#5.ogg",100
Sample,142921,0,"67D#6.ogg",100
Sample,143151,0,"41C#4.ogg",50
Sample,143151,0,"29C#3.ogg",50
Sample,143151,0,"m_72.ogg",50
Sample,143151,0,"m_60.ogg",50
Sample,143151,0,"65C#6.ogg",100
Sample,143613,0,"46F#4.ogg",50
Sample,143613,0,"58F#5.ogg",100
Sample,143844,0,"m_62.ogg",50
Sample,143844,0,"m_74.ogg",50
Sample,143844,0,"29C#3.ogg",50
Sample,143844,0,"60G#5.ogg",100
Sample,143873,0,"63B5.ogg",50
Sample,144074,0,"34F#3.ogg",50
Sample,144074,0,"m_74.ogg",50
Sample,144074,0,"m_62.ogg",50
Sample,144074,0,"m_58.ogg",100
Sample,144305,0,"29C#3.ogg",50
Sample,144421,0,"LR_Drum Rpd x2.wav",70
Sample,144536,0,"33F3.ogg",50
Sample,144536,0,"58F#5.ogg",100
Sample,144651,0,"60G#5.ogg",100
Sample,144767,0,"29C#3.ogg",50
Sample,144767,0,"58F#5.ogg",100
Sample,144882,0,"LR_Drum Hit Drop High.wav",50
Sample,144998,0,"19D#2.ogg",50
Sample,144998,0,"31D#3.ogg",50
Sample,145228,0,"31D#3.ogg",50
Sample,145459,0,"38A#3.ogg",50
Sample,145459,0,"34F#3.ogg",50
Sample,145459,0,"LR_Drum Hit Open 2.wav",50
Sample,145690,0,"31D#3.ogg",50
Sample,145921,0,"39B3.ogg",50
Sample,145921,0,"27B2.ogg",50
Sample,146151,0,"34F#3.ogg",50
Sample,146382,0,"39B3.ogg",50
Sample,146382,0,"43D#4.ogg",50
Sample,146613,0,"34F#3.ogg",50
Sample,146844,0,"SVF_F5s.ogg",30
Sample,146844,0,"41C#4.ogg",50
Sample,146844,0,"29C#3.ogg",50
Sample,147074,0,"36G#3.ogg",50
Sample,147305,0,"41C#4.ogg",50
Sample,147305,0,"46F#4.ogg",50
Sample,147536,0,"29C#3.ogg",50
Sample,147767,0,"SVF_F#5ss.ogg",30
Sample,147767,0,"34F#3.ogg",50
Sample,147767,0,"22F#2.ogg",50
Sample,147998,0,"29C#3.ogg",50
Sample,148228,0,"LR_Drum Hit Open 2.wav",50
Sample,148228,0,"SVF_G#5ss.ogg",30
Sample,148228,0,"33F3.ogg",50
Sample,148228,0,"21F2.ogg",50
Sample,148459,0,"29C#3.ogg",50
Sample,148690,0,"19D#2.ogg",50
Sample,148690,0,"31D#3.ogg",50
Sample,148690,0,"62A#5.ogg",50
Sample,148690,0,"m_58.ogg",100
Sample,148921,0,"62A#5.ogg",50
Sample,149036,0,"63B5.ogg",50
Sample,149151,0,"38A#3.ogg",50
Sample,149151,0,"62A#5.ogg",50
Sample,149151,0,"58F#5.ogg",100
Sample,149382,0,"31D#3.ogg",50
Sample,149382,0,"62A#5.ogg",50
Sample,149382,0,"60G#5.ogg",100
Sample,149498,0,"67D#6.ogg",50
Sample,149613,0,"27B2.ogg",50
Sample,149613,0,"65C#6.ogg",50
Sample,149613,0,"m_58.ogg",100
Sample,149844,0,"65C#6.ogg",50
Sample,149959,0,"67D#6.ogg",50
Sample,150074,0,"39B3.ogg",50
Sample,150074,0,"58F#5.ogg",100
Sample,150305,0,"34F#3.ogg",50
Sample,150305,0,"58F#5.ogg",50
Sample,150305,0,"67D#6.ogg",100
Sample,150421,0,"62A#5.ogg",50
Sample,150536,0,"41C#4.ogg",50
Sample,150536,0,"29C#3.ogg",50
Sample,150536,0,"60G#5.ogg",50
Sample,150536,0,"m_65.ogg",100
Sample,150767,0,"60G#5.ogg",50
Sample,150882,0,"62A#5.ogg",50
Sample,150998,0,"46F#4.ogg",50
Sample,150998,0,"60G#5.ogg",50
Sample,150998,0,"58F#5.ogg",100
Sample,151228,0,"29C#3.ogg",50
Sample,151228,0,"58F#5.ogg",50
Sample,151228,0,"67D#6.ogg",100
Sample,151344,0,"57F5.ogg",50
Sample,151459,0,"34F#3.ogg",50
Sample,151459,0,"58F#5.ogg",50
Sample,151459,0,"m_65.ogg",100
Sample,151574,0,"LR_Drum Rpd x2.wav",50
Sample,151690,0,"50A#4.ogg",100
Sample,151690,0,"LR_Drum Hit HAT.wav",30
Sample,151690,0,"38A#3.ogg",50
Sample,151921,0,"LR_Drum Hit Drop High.wav",50
Sample,151921,0,"36G#3.ogg",50
Sample,152036,0,"LR_Drum Rpd x2.wav",50
Sample,152151,0,"LR_Drum Hit HAT.wav",30
Sample,152151,0,"34F#3.ogg",50
Sample,153074,0,"l_27.ogg",80
Sample,153074,0,"l_15.ogg",80

[TimingPoints]
998,461.538461538462,4,2,1,30,1,0
34228,-100,4,2,1,30,0,1
48998,-100,4,2,1,30,0,0
108074,-100,4,2,1,30,0,1
137613,-100,4,2,1,30,0,0

[HitObjects]
36,192,305,5,0,0:0:0:100:50A#4.ogg
109,192,536,1,0,0:0:0:100:55D#5.ogg
182,192,767,1,0,0:0:0:100:57F5.ogg
256,192,998,1,0,0:0:0:100:m_59.ogg
475,192,1228,1,0,0:0:0:100:59G5.ogg
402,192,1344,1,0,0:0:0:100:60G#5.ogg
329,192,1459,1,0,0:0:0:100:59G5.ogg
109,192,1690,1,0,0:0:0:100:59G5.ogg
182,192,1805,1,0,0:0:0:100:64C6.ogg
256,192,1921,1,0,0:0:0:100:62A#5.ogg
329,192,2151,1,0,0:0:0:100:62A#5.ogg
256,192,2267,1,0,0:0:0:100:64C6.ogg
182,192,2382,1,0,0:0:0:100:55D#5.ogg
256,192,2613,1,0,0:0:0:100:55D#5.ogg
329,192,2728,1,0,0:0:0:100:59G5.ogg
402,192,2844,1,0,0:0:0:100:57F5.ogg
182,192,3074,1,0,0:0:0:100:57F5.ogg
109,192,3190,1,0,0:0:0:100:59G5.ogg
36,192,3305,1,0,0:0:0:100:57F5.ogg
329,192,3536,1,0,0:0:0:100:62A#5.ogg
402,192,3651,1,0,0:0:0:100:57F5.ogg
448,192,3767,1,0,0:0:0:100:59G5.ogg
109,192,3998,5,0,0:0:0:100:50A#4.ogg
329,192,4228,1,0,0:0:0:100:57F5.ogg
109,192,4459,5,0,0:0:0:100:50A#4.ogg
475,192,4690,1,0,0:0:0:100:59G5.ogg
182,192,4921,1,0,0:0:0:100:59G5.ogg
109,192,5036,1,0,0:0:0:100:60G#5.ogg
36,192,5151,1,0,0:0:0:100:59G5.ogg
256,192,5382,1,0,0:0:0:100:59G5.ogg
182,192,5498,1,0,0:0:0:100:64C6.ogg
109,192,5613,1,0,0:0:0:100:62A#5.ogg
320,192,5844,1,0,0:0:0:100:62A#5.ogg
256,192,5959,1,0,0:0:0:100:64C6.ogg
182,192,6074,1,0,0:0:0:100:55D#5.ogg
402,192,6305,1,0,0:0:0:100:55D#5.ogg
320,192,6421,1,0,0:0:0:100:59G5.ogg
256,192,6536,1,0,0:0:0:100:57F5.ogg
475,192,6767,1,0,0:0:0:100:57F5.ogg
402,192,6882,1,0,0:0:0:100:59G5.ogg
329,192,6998,1,0,0:0:0:100:57F5.ogg
109,192,7228,1,0,0:0:0:100:55D#5.ogg
182,192,7344,1,0,0:0:0:100:54D5.ogg
256,192,7459,1,0,0:0:0:100:55D#5.ogg
36,192,7690,5,0,0:0:0:100:50A#4.ogg
256,192,7921,1,0,0:0:0:100:55D#5.ogg
320,192,8151,1,0,0:0:0:100:57F5.ogg
402,192,8382,1,0,0:0:0:100:59G5.ogg
182,192,8613,1,0,0:0:0:100:59G5.ogg
109,192,8728,1,0,0:0:0:100:60G#5.ogg
36,192,8844,1,0,0:0:0:100:59G5.ogg
329,192,9074,1,0,0:0:0:100:59G5.ogg
402,192,9190,1,0,0:0:0:100:64C6.ogg
475,192,9305,1,0,0:0:0:100:62A#5.ogg
256,192,9536,1,0,0:0:0:100:62A#5.ogg
182,192,9651,1,0,0:0:0:100:64C6.ogg
109,192,9767,1,0,0:0:0:100:55D#5.ogg
256,192,9998,1,0,0:0:0:100:55D#5.ogg
329,192,10113,1,0,0:0:0:100:59G5.ogg
402,192,10228,1,0,0:0:0:100:57F5.ogg
36,192,10459,1,0,0:0:0:100:57F5.ogg
109,192,10574,1,0,0:0:0:100:59G5.ogg
192,192,10690,1,0,0:0:0:100:57F5.ogg
475,192,10921,1,0,0:0:0:100:62A#5.ogg
402,192,11036,1,0,0:0:0:100:57F5.ogg
320,192,11151,1,0,0:0:0:100:59G5.ogg
109,192,11382,5,0,0:0:0:100:50A#4.ogg
256,192,11613,1,0,0:0:0:100:57F5.ogg
109,192,11844,5,0,0:0:0:100:50A#4.ogg
329,192,12074,1,0,0:0:0:100:59G5.ogg
256,192,12305,1,0,0:0:0:100:59G5.ogg
320,192,12421,1,0,0:0:0:100:60G#5.ogg
402,192,12536,1,0,0:0:0:100:59G5.ogg
256,192,12767,1,0,0:0:0:100:59G5.ogg
192,192,12882,1,0,0:0:0:100:64C6.ogg
109,192,12998,1,0,0:0:0:100:62A#5.ogg
448,192,13228,1,0,0:0:0:100:62A#5.ogg
402,192,13344,1,0,0:0:0:100:64C6.ogg
329,192,13459,1,0,0:0:0:100:55D#5.ogg
64,192,13690,1,0,0:0:0:100:55D#5.ogg
109,192,13805,1,0,0:0:0:100:59G5.ogg
182,192,13921,1,0,0:0:0:100:57F5.ogg
402,192,14151,1,0,0:0:0:100:57F5.ogg
320,192,14267,1,0,0:0:0:100:59G5.ogg
256,192,14382,1,0,0:0:0:100:57F5.ogg
109,192,14613,1,0,0:0:0:100:55D#5.ogg
192,192,14728,1,0,0:0:0:100:54D5.ogg
256,192,14844,1,0,0:0:0:100:55D#5.ogg
448,192,15074,1,0,0:0:0:100:59G5.ogg
109,192,15305,5,0,0:0:0:70:50A#4.ogg
36,192,15536,1,0,0:0:0:100:55D#5.ogg
475,192,15767,128,0,15998:0:0:0:50:62A#5.ogg
329,192,15998,128,0,16228:0:0:0:50:43D#4.ogg
182,192,16228,128,0,16459:0:0:0:30:Clap Normal.wav
109,192,16228,1,0,0:0:0:50:48G#4.ogg
256,192,16459,5,0,0:0:0:50:50A#4.ogg
36,192,16459,1,0,0:0:0:50:55D#5.ogg
182,192,16690,1,0,0:0:0:50:54D5.ogg
402,192,16921,1,0,0:0:0:70:59G5.ogg
256,192,17151,1,0,0:0:0:70:57F5.ogg
182,192,17382,1,0,0:0:0:50:50A#4.ogg
109,192,17613,1,0,0:0:0:70:m_55.ogg
320,192,17613,128,0,18074:0:0:0:50:m_40.ogg
182,192,17844,1,0,0:0:0:50:47G4.ogg
256,192,18074,1,0,0:0:0:30:Clap Normal.wav
448,192,18074,1,0,0:0:0:50:52C5.ogg
109,192,18305,1,0,0:0:0:70:64C6.ogg
448,192,18536,1,0,0:0:0:70:m_62.ogg
192,192,18536,128,0,18767:0:0:0:50:54D5.ogg
402,192,18767,1,0,0:0:0:50:64C6.ogg
320,192,18998,1,0,0:0:0:30:Clap Normal.wav
36,192,18998,1,0,0:0:0:50:62A#5.ogg
402,192,19228,1,0,0:0:0:50:50A#4.ogg
36,192,19459,128,0,19690:0:0:0:70:55D#5.ogg
192,192,19690,128,0,19921:0:0:0:50:43D#4.ogg
329,192,19921,128,0,20151:0:0:0:50:48G#4.ogg
448,192,19921,1,0,0:0:0:30:Clap Normal.wav
256,192,20151,1,0,0:0:0:50:50A#4.ogg
109,192,20151,1,0,0:0:0:50:55D#5.ogg
329,192,20613,1,0,0:0:0:50:62A#5.ogg
109,192,20844,1,0,0:0:0:50:m_38.ogg
256,192,21074,1,0,0:0:0:70:54D5.ogg
36,192,21305,1,0,0:0:0:70:m_55.ogg
402,192,21305,128,0,21767:0:0:0:50:m_40.ogg
182,192,21536,1,0,0:0:0:50:47G4.ogg
320,192,21767,1,0,0:0:0:50:m_52.ogg
36,192,21998,1,0,0:0:0:50:59G5.ogg
182,192,22228,1,0,0:0:0:50:m_35.ogg
320,192,22228,128,0,22690:0:0:0:50:m_57.ogg
402,192,22459,1,0,0:0:0:50:42D4.ogg
448,192,22690,1,0,0:0:0:30:Clap Normal.wav
109,192,22690,1,0,0:0:0:70:50A#4.ogg
256,192,22921,1,0,0:0:0:70:52C5.ogg
402,192,23151,128,0,23382:0:0:0:70:50A#4.ogg
256,192,23382,128,0,23613:0:0:0:50:43D#4.ogg
109,192,23613,128,0,23844:0:0:0:50:48G#4.ogg
448,192,23613,1,0,0:0:0:30:Clap Normal.wav
64,192,23844,1,0,0:0:0:50:55D#5.ogg
182,192,23844,1,0,0:0:0:50:50A#4.ogg
320,192,24074,1,0,0:0:0:50:m_36.ogg
182,192,24305,1,0,0:0:0:50:50A#4.ogg
402,192,24536,1,0,0:0:0:50:m_38.ogg
256,192,24767,1,0,0:0:0:50:57F5.ogg
36,192,24998,1,0,0:0:0:50:52C5.ogg
109,192,24998,128,0,25459:0:0:0:50:m_40.ogg
256,192,25228,1,0,0:0:0:50:m_47.ogg
329,192,25459,1,0,0:0:0:50:m_52.ogg
448,192,25459,1,0,0:0:0:30:Clap Normal.wav
182,192,25690,1,0,0:0:0:70:64C6.ogg
402,192,25921,1,0,0:0:0:50:54D5.ogg
256,192,25921,128,0,26382:0:0:0:50:57F5.ogg
109,192,26151,1,0,0:0:0:50:42D4.ogg
36,192,26382,1,0,0:0:0:50:50A#4.ogg
448,192,26382,1,0,0:0:0:30:Clap Normal.wav
320,192,26613,1,0,0:0:0:50:42D4.ogg
109,192,26844,128,0,27074:0:0:0:50:m_36.ogg
256,192,27074,128,0,27305:0:0:0:50:43D#4.ogg
402,192,27305,128,0,27536:0:0:0:50:48G#4.ogg
182,192,27305,1,0,0:0:0:30:Clap Normal.wav
36,192,27536,1,0,0:0:0:50:43D#4.ogg
329,192,27536,1,0,0:0:0:50:62A#5.ogg
192,192,27998,1,0,0:0:0:50:57F5.ogg
36,192,28228,1,0,0:0:0:50:m_38.ogg
256,192,28459,1,0,0:0:0:50:57F5.ogg
109,192,28690,1,0,0:0:0:50:m_40.ogg
329,192,28690,128,0,29151:0:0:0:50:m_52.ogg
402,192,28921,1,0,0:0:0:50:m_47.ogg
36,192,29151,1,0,0:0:0:50:m_52.ogg
182,192,29151,1,0,0:0:0:30:Clap Normal.wav
256,192,29382,1,0,0:0:0:70:57F5.ogg
329,192,29613,1,0,0:0:0:50:35G3.ogg
402,192,29844,1,0,0:0:0:50:42D4.ogg
182,192,30017,1,0,0:0:0:70:62A#5.ogg
109,192,30074,1,0,0:0:0:50:m_50.ogg
448,192,30536,128,0,30998:0:0:0:30:SVF_A#5.ogg
402,192,30536,1,0,0:0:0:50:m_43.ogg
109,192,30998,1,0,0:0:0:100:55D#5.ogg
182,192,31228,1,0,0:0:0:100:57F5.ogg
320,192,31459,128,0,31921:0:0:0:50:m_38.ogg
256,192,31459,1,0,0:0:0:50:m_31.ogg
182,192,31921,1,0,0:0:0:100:59G5.ogg
109,192,32151,1,0,0:0:0:100:60G#5.ogg
192,192,32382,128,0,32844:0:0:0:50:m_33.ogg
36,192,32382,1,0,0:0:0:50:m_26.ogg
402,192,32613,1,0,0:0:0:100:55D#5.ogg
109,192,32844,1,0,0:0:0:100:55D#5.ogg
320,192,33074,1,0,0:0:0:100:57F5.ogg
448,192,33305,128,0,34228:0:0:0:50:m_47.ogg
64,192,33305,128,0,34228:0:0:0:50:m_51.ogg
192,192,34228,1,0,0:0:0:70:LR_Drum Rpd x2.wav
256,192,34228,128,0,34690:0:0:0:50:28C3.ogg
475,192,34459,1,0,0:0:0:50:35G3.ogg
402,192,34574,1,0,0:0:0:70:LR_Drum Rpd x2.wav
109,192,34690,1,0,0:0:0:50:40C4.ogg
329,192,34690,1,0,0:0:0:50:43D#4.ogg
475,192,34921,1,0,0:0:0:50:35G3.ogg
64,192,35151,1,0,0:0:0:50:24G#2.ogg
329,192,35151,128,0,35382:0:0:0:50:m_62.ogg
256,192,35382,1,0,0:0:0:50:31D#3.ogg
475,192,35613,1,0,0:0:0:50:36G#3.ogg
109,192,35613,1,0,0:0:0:50:40C4.ogg
256,192,35844,1,0,0:0:0:50:31D#3.ogg
329,192,35959,1,0,0:0:0:70:LR_Drum Rpd x2.wav
36,192,36074,1,0,0:0:0:50:26A#2.ogg
402,192,36074,128,0,36305:0:0:0:50:38A#3.ogg
109,192,36305,1,0,0:0:0:50:33F3.ogg
182,192,36421,1,0,0:0:0:70:LR_Drum Rpd x2.wav
36,192,36536,1,0,0:0:0:50:38A#3.ogg
256,192,36536,1,0,0:0:0:50:43D#4.ogg
329,192,36767,1,0,0:0:0:50:33F3.ogg
256,192,36998,1,0,0:0:0:50:43D#4.ogg
182,192,36998,128,0,37228:0:0:0:50:31D#3.ogg
475,192,37228,1,0,0:0:0:50:38A#3.ogg
320,192,37459,1,0,0:0:0:50:30D3.ogg
402,192,37459,1,0,0:0:0:50:42D4.ogg
192,192,37690,1,0,0:0:0:50:38A#3.ogg
256,192,37690,1,0,0:0:0:70:LR_Drum Rpd x2.wav
64,192,37921,1,0,0:0:0:50:40C4.ogg
109,192,37921,128,0,38382:0:0:0:50:28C3.ogg
448,192,38151,1,0,0:0:0:50:35G3.ogg
402,192,38267,1,0,0:0:0:70:LR_Drum Rpd x2.wav
182,192,38382,1,0,0:0:0:50:43D#4.ogg
320,192,38382,1,0,0:0:0:50:40C4.ogg
109,192,38613,1,0,0:0:0:50:40C4.ogg
256,192,38613,1,0,0:0:0:70:LR_Drum Rpd x2.wav
320,192,38844,128,0,39305:0:0:0:50:24G#2.ogg
64,192,38844,1,0,0:0:0:50:36G#3.ogg
182,192,39074,1,0,0:0:0:50:31D#3.ogg
475,192,39305,1,0,0:0:0:50:40C4.ogg
256,192,39305,1,0,0:0:0:50:36G#3.ogg
192,192,39536,1,0,0:0:0:50:31D#3.ogg
475,192,39767,1,0,0:0:0:50:38A#3.ogg
64,192,39767,1,0,0:0:0:50:26A#2.ogg
402,192,39998,1,0,0:0:0:50:33F3.ogg
329,192,40113,1,0,0:0:0:70:LR_Drum Rpd x2.wav
109,192,40228,1,0,0:0:0:50:43D#4.ogg
256,192,40228,1,0,0:0:0:50:38A#3.ogg
402,192,40459,1,0,0:0:0:50:26A#2.ogg
64,192,40459,1,0,0:0:0:70:LR_Drum Rpd x2.wav
475,192,40690,1,0,0:0:0:50:31D#3.ogg
182,192,40690,128,0,40921:0:0:0:50:19D#2.ogg
402,192,40805,1,0,0:0:0:70:LR_Drum Rpd x2.wav
329,192,40921,1,0,0:0:0:50:26A#2.ogg
109,192,41151,1,0,0:0:0:50:LR_Drum Hit Drop High.wav
475,192,41151,1,0,0:0:0:50:30D3.ogg
256,192,41382,1,0,0:0:0:50:26A#2.ogg
402,192,41382,1,0,0:0:0:70:LR_Drum Rpd x2.wav
64,192,41613,1,0,0:0:0:50:16C2.ogg
182,192,41613,128,0,42074:0:0:0:50:28C3.ogg
475,192,41613,1,0,0:0:0:70:LR_Drum Rpd x2.wav
402,192,41844,1,0,0:0:0:50:28C3.ogg
329,192,41959,1,0,0:0:0:70:LR_Drum Rpd x2.wav
109,192,42074,1,0,0:0:0:50:35G3.ogg
256,192,42074,1,0,0:0:0:50:31D#3.ogg
329,192,42305,1,0,0:0:0:50:24G#2.ogg
36,192,42536,1,0,0:0:0:50:36G#3.ogg
109,192,42536,128,0,42767:0:0:0:50:24G#2.ogg
182,192,42767,1,0,0:0:0:50:31D#3.ogg
475,192,42998,1,0,0:0:0:50:40C4.ogg
320,192,42998,1,0,0:0:0:50:36G#3.ogg
109,192,43228,1,0,0:0:0:50:31D#3.ogg
448,192,43459,1,0,0:0:0:50:38A#3.ogg
192,192,43459,128,0,43690:0:0:0:50:26A#2.ogg
329,192,43690,1,0,0:0:0:50:33F3.ogg
402,192,43805,1,0,0:0:0:70:LR_Drum Rpd x2.wav
475,192,43921,1,0,0:0:0:50:38A#3.ogg
36,192,43921,1,0,0:0:0:50:43D#4.ogg
256,192,44151,1,0,0:0:0:50:26A#2.ogg
475,192,44382,1,0,0:0:0:50:31D#3.ogg
109,192,44382,128,0,44613:0:0:0:70:LR_Drum Rpd x2.wav
64,192,44613,1,0,0:0:0:50:26A#2.ogg
192,192,44844,1,0,0:0:0:50:30D3.ogg
256,192,44844,1,0,0:0:0:50:18D2.ogg
320,192,45074,1,0,0:0:0:50:26A#2.ogg
402,192,45074,1,0,0:0:0:70:LR_Drum Rpd x2.wav
36,192,45305,1,0,0:0:0:50:16C2.ogg
475,192,45305,128,0,45767:0:0:0:50:28C3.ogg
256,192,45536,1,0,0:0:0:50:28C3.ogg
182,192,45651,1,0,0:0:0:70:LR_Drum Rpd x2.wav
109,192,45767,1,0,0:0:0:50:31D#3.ogg
36,192,45767,1,0,0:0:0:50:35G3.ogg
475,192,45998,1,0,0:0:0:50:28C3.ogg
402,192,45998,1,0,0:0:0:70:LR_Drum Rpd x2.wav
402,192,46228,1,0,0:0:0:50:24G#2.ogg
475,192,46228,1,0,0:0:0:50:36G#3.ogg
182,192,46459,1,0,0:0:0:50:31D#3.ogg
182,192,46690,1,0,0:0:0:50:40C4.ogg
109,192,46690,1,0,0:0:0:50:36G#3.ogg
256,192,46921,1,0,0:0:0:50:31D#3.ogg
329,192,47151,1,0,0:0:0:50:38A#3.ogg
402,192,47151,1,0,0:0:0:50:26A#2.ogg
109,192,47382,1,0,0:0:0:50:33F3.ogg
182,192,47382,1,0,0:0:0:70:LR_Drum Rpd x2.wav
182,192,47613,1,0,0:0:0:50:43D#4.ogg
109,192,47613,1,0,0:0:0:50:38A#3.ogg
329,192,47844,1,0,0:0:0:50:33F3.ogg
402,192,47844,1,0,0:0:0:70:LR_Drum Rpd x2.wav
329,192,48074,1,0,0:0:0:50:43D#4.ogg
402,192,48074,128,0,48305:0:0:0:50:31D#3.ogg
256,192,48190,1,0,0:0:0:30:LR_Drum Hit Echo.wav
182,192,48305,1,0,0:0:0:50:38A#3.ogg
109,192,48536,1,0,0:0:0:50:42D4.ogg
36,192,48536,128,0,48998:0:0:0:50:30D3.ogg
402,192,48998,1,0,0:0:0:100:m_59.ogg
475,192,48998,128,0,49459:0:0:0:100:m_47.ogg
182,192,49228,1,0,0:0:0:30:LR_Drum Hit Open.wav
402,192,49459,1,0,0:0:0:100:55D#5.ogg
109,192,49459,1,0,0:0:0:50:m_43.ogg
320,192,49574,1,0,0:0:0:100:54D5.ogg
256,192,49690,1,0,0:0:0:100:55D#5.ogg
36,192,49921,128,0,50382:0:0:0:100:m_62.ogg
329,192,49921,1,0,0:0:0:100:m_55.ogg
256,192,50151,1,0,0:0:0:30:LR_Drum Hit Open.wav
109,192,50382,1,0,0:0:0:100:55D#5.ogg
475,192,50382,1,0,0:0:0:50:m_40.ogg
182,192,50498,1,0,0:0:0:100:54D5.ogg
256,192,50613,1,0,0:0:0:100:55D#5.ogg
329,192,50844,128,0,51305:0:0:0:100:m_57.ogg
402,192,50844,1,0,0:0:0:100:m_50.ogg
182,192,51074,1,0,0:0:0:30:LR_Drum Hit Open.wav
109,192,51305,1,0,0:0:0:100:55D#5.ogg
36,192,51305,1,0,0:0:0:100:50A#4.ogg
402,192,51536,1,0,0:0:0:100:57F5.ogg
475,192,51536,1,0,0:0:0:100:48G#4.ogg
64,192,51767,128,0,52228:0:0:0:100:m_59.ogg
182,192,51767,1,0,0:0:0:100:m_55.ogg
329,192,52228,1,0,0:0:0:100:m_50.ogg
475,192,52228,128,0,52690:0:0:0:100:m_57.ogg
192,192,52690,1,0,0:0:0:100:m_59.ogg
64,192,52690,128,0,53151:0:0:0:100:m_50.ogg
402,192,52921,1,0,0:0:0:30:LR_Drum Hit Open.wav
109,192,53151,1,0,0:0:0:100:55D#5.ogg
329,192,53151,1,0,0:0:0:50:m_40.ogg
182,192,53267,1,0,0:0:0:100:54D5.ogg
256,192,53382,1,0,0:0:0:100:55D#5.ogg
402,192,53613,128,0,54074:0:0:0:100:m_62.ogg
475,192,53613,1,0,0:0:0:100:m_55.ogg
109,192,53844,1,0,0:0:0:30:LR_Drum Hit Open.wav
256,192,54074,1,0,0:0:0:100:64C6.ogg
329,192,54074,1,0,0:0:0:50:m_36.ogg
182,192,54305,1,0,0:0:0:100:62A#5.ogg
36,192,54536,1,0,0:0:0:100:m_50.ogg
329,192,54536,128,0,54998:0:0:0:100:m_57.ogg
109,192,54767,1,0,0:0:0:30:LR_Drum Hit Open.wav
402,192,54998,1,0,0:0:0:100:50A#4.ogg
475,192,54998,1,0,0:0:0:100:59G5.ogg
256,192,55228,1,0,0:0:0:100:48G#4.ogg
329,192,55228,1,0,0:0:0:100:57F5.ogg
109,192,55459,1,0,0:0:0:30:LR_Drum Hit Echo.wav
182,192,55459,1,0,0:0:0:100:m_55.ogg
402,192,55690,1,0,0:0:0:30:LR_Drum Hit Drop High.wav
329,192,55805,1,0,0:0:0:30:LR_Drum Hit Drop High.wav
256,192,55921,1,0,0:0:0:50:m_50.ogg
182,192,55921,1,0,0:0:0:30:LR_Drum Hit Echo.wav
36,192,56151,1,0,0:0:0:30:LR_Drum Hit Echo.wav
109,192,56267,1,0,0:0:0:30:LR_Drum Hit Echo.wav
475,192,56382,128,0,56844:0:0:0:100:m_59.ogg
182,192,56382,1,0,0:0:0:100:m_47.ogg
256,192,56613,1,0,0:0:0:30:LR_Drum Hit Open.wav
402,192,56844,1,0,0:0:0:100:55D#5.ogg
109,192,56844,1,0,0:0:0:50:LR_Drum Finish.wav
329,192,56959,1,0,0:0:0:100:54D5.ogg
256,192,57074,1,0,0:0:0:100:55D#5.ogg
36,192,57305,128,0,57767:0:0:0:100:m_62.ogg
475,192,57305,1,0,0:0:0:100:m_55.ogg
329,192,57536,1,0,0:0:0:30:LR_Drum Hit Open.wav
109,192,57767,1,0,0:0:0:100:55D#5.ogg
402,192,57767,1,0,0:0:0:50:m_36.ogg
182,192,57882,1,0,0:0:0:100:54D5.ogg
256,192,57998,1,0,0:0:0:100:55D#5.ogg
448,192,58228,128,0,58690:0:0:0:30:SVF_D5s.ogg
402,192,58228,1,0,0:0:0:100:m_57.ogg
329,192,58459,1,0,0:0:0:30:LR_Drum Hit Open.wav
109,192,58690,1,0,0:0:0:100:55D#5.ogg
64,192,58690,1,0,0:0:0:100:50A#4.ogg
256,192,58921,1,0,0:0:0:100:57F5.ogg
182,192,58921,1,0,0:0:0:100:48G#4.ogg
402,192,59151,1,0,0:0:0:100:m_59.ogg
320,192,59151,128,0,59613:0:0:0:100:m_55.ogg
109,192,59613,1,0,0:0:0:100:m_50.ogg
182,192,59613,128,0,60074:0:0:0:100:m_57.ogg
36,192,60074,1,0,0:0:0:100:m_59.ogg
402,192,60074,128,0,60536:0:0:0:100:m_50.ogg
109,192,60305,1,0,0:0:0:30:LR_Drum Hit Open.wav
320,192,60536,1,0,0:0:0:100:55D#5.ogg
475,192,60536,1,0,0:0:0:50:m_43.ogg
256,192,60651,1,0,0:0:0:100:54D5.ogg
182,192,60767,1,0,0:0:0:100:55D#5.ogg
36,192,60998,1,0,0:0:0:100:55D#5.ogg
329,192,60998,1,0,0:0:0:100:62A#5.ogg
109,192,61228,1,0,0:0:0:100:67D#6.ogg
329,192,61459,1,0,0:0:0:100:66D6.ogg
182,192,61459,1,0,0:0:0:50:m_40.ogg
402,192,61517,1,0,0:0:0:100:67D#6.ogg
448,192,61574,1,0,0:0:0:100:66D6.ogg
256,192,61690,1,0,0:0:0:100:64C6.ogg
402,192,61921,128,0,62382:0:0:0:100:m_62.ogg
109,192,61921,1,0,0:0:0:100:m_54.ogg
256,192,62151,1,0,0:0:0:30:LR_Drum Hit Open.wav
329,192,62382,1,0,0:0:0:100:50A#4.ogg
192,192,62382,1,0,0:0:0:100:59G5.ogg
256,192,62613,1,0,0:0:0:100:48G#4.ogg
109,192,62613,1,0,0:0:0:100:57F5.ogg
192,192,62844,1,0,0:0:0:100:m_55.ogg
36,192,62844,128,0,63305:0:0:0:100:m_47.ogg
329,192,63074,1,0,0:0:0:50:35G3.ogg
402,192,63074,1,0,0:0:0:30:LR_Drum Hit Open.wav
475,192,63305,1,0,0:0:0:100:50A#4.ogg
329,192,63536,1,0,0:0:0:30:LR_Drum Hit Open.wav
192,192,63767,1,0,0:0:0:50:36G#3.ogg
402,192,63767,128,0,64228:0:0:0:50:LR4_GreatDrumBS2.wav
109,192,63998,1,0,0:0:0:50:43D#4.ogg
256,192,64228,1,0,0:0:0:50:LR4_GreatDrumBS2.wav
64,192,64459,1,0,0:0:0:50:50A#4.ogg
475,192,64459,1,0,0:0:0:50:55D#5.ogg
329,192,64690,1,0,0:0:0:50:LR4_GreatDrumBS2.wav
192,192,64921,1,0,0:0:0:50:43D#4.ogg
109,192,65151,1,0,0:0:0:50:LR4_GreatDrumBS2.wav
36,192,65382,1,0,0:0:0:100:54D5.ogg
182,192,65613,128,0,65844:0:0:0:60:52C5.ogg
256,192,65844,1,0,0:0:0:60:74A#6.ogg
329,192,65959,1,0,0:0:0:60:76C7.ogg
402,192,66074,1,0,0:0:0:60:74A#6.ogg
109,192,66305,1,0,0:0:0:60:69F6.ogg
329,192,66536,128,0,66767:0:0:0:60:67D#6.ogg
256,192,66767,1,0,0:0:0:60:67D#6.ogg
182,192,66882,1,0,0:0:0:60:69F6.ogg
109,192,66998,1,0,0:0:0:60:69F6.ogg
402,192,67228,1,0,0:0:0:60:66D6.ogg
256,192,67459,128,0,67921:0:0:0:60:67D#6.ogg
36,192,67459,1,0,0:0:0:60:64C6.ogg
182,192,67690,1,0,0:0:0:50:43D#4.ogg
402,192,67921,1,0,0:0:0:70:74A#6.ogg
64,192,68151,1,0,0:0:0:50:50A#4.ogg
475,192,68151,1,0,0:0:0:50:62A#5.ogg
256,192,68382,1,0,0:0:0:50:LR4_GreatDrumBS2.wav
182,192,68613,1,0,0:0:0:50:43D#4.ogg
329,192,68844,1,0,0:0:0:50:LR4_GreatDrumBS2.wav
64,192,69074,1,0,0:0:0:100:54D5.ogg
182,192,69305,128,0,69536:0:0:0:50:LR4_GreatDrumBS2.wav
402,192,69536,1,0,0:0:0:60:67D#6.ogg
329,192,69651,1,0,0:0:0:60:69F6.ogg
256,192,69767,1,0,0:0:0:60:67D#6.ogg
36,192,69998,1,0,0:0:0:60:64C6.ogg
329,192,70228,128,0,70459:0:0:0:60:62A#5.ogg
109,192,70459,1,0,0:0:0:60:62A#5.ogg
182,192,70574,1,0,0:0:0:60:64C6.ogg
256,192,70690,1,0,0:0:0:60:62A#5.ogg
475,192,70921,1,0,0:0:0:60:57F5.ogg
182,192,71151,128,0,71613:0:0:0:60:59G5.ogg
256,192,71151,1,0,0:0:0:60:55D#5.ogg
329,192,71382,1,0,0:0:0:30:LR_Drum Hit HAT.wav
109,192,71613,1,0,0:0:0:70:83G7.ogg
36,192,71844,1,0,0:0:0:30:LR_Drum Hit HAT.wav
402,192,71844,1,0,0:0:0:50:50A#4.ogg
182,192,72074,1,0,0:0:0:30:LR_Drum Rpd x2.wav
329,192,72305,1,0,0:0:0:30:LR_Drum Hit HAT.wav
475,192,72536,1,0,0:0:0:30:LR_Drum Rpd x2.wav
182,192,72767,1,0,0:0:0:30:LR_Drum Hit HAT.wav
475,192,72998,128,0,73228:0:0:0:30:LR_Drum Rpd x2.wav
109,192,73228,1,0,0:0:0:60:74A#6.ogg
182,192,73344,1,0,0:0:0:60:76C7.ogg
256,192,73459,1,0,0:0:0:60:74A#6.ogg
402,192,73690,1,0,0:0:0:60:69F6.ogg
36,192,73921,128,0,74151:0:0:0:60:67D#6.ogg
402,192,74151,1,0,0:0:0:60:67D#6.ogg
329,192,74267,1,0,0:0:0:60:69F6.ogg
256,192,74382,1,0,0:0:0:60:69F6.ogg
109,192,74613,1,0,0:0:0:60:66D6.ogg
329,192,74844,128,0,75305:0:0:0:60:67D#6.ogg
402,192,74844,1,0,0:0:0:60:64C6.ogg
256,192,75074,1,0,0:0:0:30:LR_Drum Hit HAT.wav
109,192,75305,1,0,0:0:0:70:74A#6.ogg
64,192,75536,1,0,0:0:0:30:LR_Drum Hit HAT.wav
475,192,75536,1,0,0:0:0:50:50A#4.ogg
182,192,75767,1,0,0:0:0:30:LR_Drum Rpd x2.wav
402,192,75998,5,0,0:0:0:100:59G5.ogg
329,192,76228,5,0,0:0:0:100:57F5.ogg
192,192,76228,1,0,0:0:0:50:m_35.ogg
36,192,76459,5,0,0:0:0:100:54D5.ogg
109,192,76690,128,0,77151:0:0:0:50:m_33.ogg
402,192,76690,1,0,0:0:0:30:LR_Drum Rpd x2.wav
256,192,76921,1,0,0:0:0:70:67D#6.ogg
182,192,77151,128,0,77613:0:0:0:50:m_48.ogg
475,192,77151,1,0,0:0:0:70:69F6.ogg
329,192,77382,1,0,0:0:0:70:71G6.ogg
36,192,77613,1,0,0:0:0:50:m_38.ogg
256,192,77613,128,0,78074:0:0:0:70:69F6.ogg
402,192,77844,1,0,0:0:0:70:62A#5.ogg
329,192,78074,128,0,78536:0:0:0:50:m_39.ogg
109,192,78074,1,0,0:0:0:70:74A#6.ogg
475,192,78305,1,0,0:0:0:70:69F6.ogg
182,192,78536,5,0,0:0:0:100:71G6.ogg
36,192,78536,1,0,0:0:0:70:m_40.ogg
475,192,78767,1,0,0:0:0:70:m_47.ogg
182,192,78882,1,0,0:0:0:100:72G#6.ogg
329,192,78998,1,0,0:0:0:100:74A#6.ogg
36,192,79113,1,0,0:0:0:100:67D#6.ogg
256,192,79228,1,0,0:0:0:100:74A#6.ogg
109,192,79344,1,0,0:0:0:100:76C7.ogg
402,192,79459,1,0,0:0:0:100:74A#6.ogg
182,192,79574,1,0,0:0:0:100:79D#7.ogg
329,192,79690,1,0,0:0:0:70:m_55.ogg
36,192,79805,1,0,0:0:0:100:79D#7.ogg
475,192,79921,1,0,0:0:0:100:78D7.ogg
182,192,80036,1,0,0:0:0:100:76C7.ogg
402,192,80151,1,0,0:0:0:100:74A#6.ogg
256,192,80267,1,0,0:0:0:100:76C7.ogg
109,192,80382,1,0,0:0:0:70:m_50.ogg
475,192,80613,1,0,0:0:0:100:69F6.ogg
182,192,80728,1,0,0:0:0:100:71G6.ogg
329,192,80844,1,0,0:0:0:100:72G#6.ogg
36,192,80959,1,0,0:0:0:100:62A#5.ogg
402,192,81074,1,0,0:0:0:100:74A#6.ogg
109,192,81190,1,0,0:0:0:100:69F6.ogg
475,192,81305,1,0,0:0:0:100:71G6.ogg
256,192,81305,1,0,0:0:0:70:m_43.ogg
329,192,81536,1,0,0:0:0:100:69F6.ogg
402,192,81767,1,0,0:0:0:100:69F6.ogg
182,192,81767,1,0,0:0:0:70:m_42.ogg
256,192,81998,1,0,0:0:0:100:67D#6.ogg
182,192,82228,1,0,0:0:0:100:67D#6.ogg
109,192,82344,1,0,0:0:0:100:59G5.ogg
329,192,82459,1,0,0:0:0:100:64C6.ogg
402,192,82574,1,0,0:0:0:100:66D6.ogg
475,192,82690,1,0,0:0:0:100:m_67.ogg
475,192,82921,1,0,0:0:0:100:74A#6.ogg
182,192,83036,1,0,0:0:0:100:76C7.ogg
329,192,83151,1,0,0:0:0:70:m_48.ogg
36,192,83267,1,0,0:0:0:100:67D#6.ogg
402,192,83382,1,0,0:0:0:100:66D6.ogg
109,192,83498,1,0,0:0:0:100:67D#6.ogg
329,192,83613,1,0,0:0:0:100:64C6.ogg
182,192,83728,1,0,0:0:0:100:64C6.ogg
256,192,83844,1,0,0:0:0:100:66D6.ogg
36,192,83959,1,0,0:0:0:100:67D#6.ogg
402,192,84074,1,0,0:0:0:20:SVF_D5s.ogg
329,192,84305,1,0,0:0:0:70:m_45.ogg
109,192,84421,1,0,0:0:0:100:71G6.ogg
256,192,84536,1,0,0:0:0:100:69F6.ogg
36,192,84651,1,0,0:0:0:100:67D#6.ogg
402,192,84767,1,0,0:0:0:100:66D6.ogg
182,192,84882,1,0,0:0:0:100:67D#6.ogg
475,192,84998,1,0,0:0:0:100:69F6.ogg
256,192,84998,1,0,0:0:0:70:m_43.ogg
109,192,85228,1,0,0:0:0:100:67D#6.ogg
256,192,85459,1,0,0:0:0:100:m_67.ogg
36,192,85459,1,0,0:0:0:70:m_42.ogg
402,192,85690,1,0,0:0:0:100:67D#6.ogg
329,192,85805,1,0,0:0:0:100:69F6.ogg
256,192,85921,1,0,0:0:0:100:62A#5.ogg
256,192,86151,1,0,0:0:0:70:m_50.ogg
109,192,86382,1,0,0:0:0:100:70F#6.ogg
329,192,86498,1,0,0:0:0:100:69F6.ogg
182,192,86613,1,0,0:0:0:100:70F#6.ogg
402,192,86728,1,0,0:0:0:100:77C#7.ogg
36,192,86844,1,0,0:0:0:70:m_51.ogg
256,192,86959,1,0,0:0:0:100:79D#7.ogg
109,192,87074,1,0,0:0:0:100:77C#7.ogg
475,192,87190,1,0,0:0:0:100:70F#6.ogg
36,192,87305,1,0,0:0:0:100:67D#6.ogg
329,192,87421,1,0,0:0:0:100:70F#6.ogg
182,192,87536,1,0,0:0:0:100:72G#6.ogg
256,192,87651,1,0,0:0:0:100:74A#6.ogg
109,192,87767,1,0,0:0:0:70:m_53.ogg
475,192,87882,1,0,0:0:0:100:74A#6.ogg
182,192,87998,1,0,0:0:0:70:m_60.ogg
329,192,88113,1,0,0:0:0:100:79D#7.ogg
36,192,88228,1,0,0:0:0:100:77C#7.ogg
402,192,88344,1,0,0:0:0:100:72G#6.ogg
182,192,88459,1,0,0:0:0:100:74A#6.ogg
475,192,88574,1,0,0:0:0:100:75B6.ogg
256,192,88690,1,0,0:0:0:100:74A#6.ogg
36,192,88690,1,0,0:0:0:70:m_46.ogg
402,192,88921,1,0,0:0:0:100:82F#7.ogg
448,192,89151,1,0,0:0:0:100:72G#6.ogg
256,192,89151,1,0,0:0:0:70:m_45.ogg
109,192,89382,1,0,0:0:0:100:69F6.ogg
256,192,89613,1,0,0:0:0:70:m_43.ogg
36,192,89613,1,0,0:0:0:100:m_70.ogg
329,192,89844,1,0,0:0:0:70:m_50.ogg
402,192,89959,1,0,0:0:0:100:72G#6.ogg
475,192,90074,1,0,0:0:0:70:m_58.ogg
36,192,90190,1,0,0:0:0:100:70F#6.ogg
329,192,90305,1,0,0:0:0:100:77C#7.ogg
109,192,90421,1,0,0:0:0:100:79D#7.ogg
475,192,90536,1,0,0:0:0:70:m_51.ogg
182,192,90651,1,0,0:0:0:100:70F#6.ogg
402,192,90767,1,0,0:0:0:70:m_58.ogg
36,192,90882,1,0,0:0:0:100:70F#6.ogg
329,192,90998,1,0,0:0:0:100:63B5.ogg
109,192,91113,1,0,0:0:0:100:70F#6.ogg
256,192,91228,1,0,0:0:0:100:69F6.ogg
402,192,91344,1,0,0:0:0:100:70F#6.ogg
109,192,91459,1,0,0:0:0:70:m_53.ogg
329,192,91574,1,0,0:0:0:100:65C#6.ogg
182,192,91690,1,0,0:0:0:70:m_60.ogg
402,192,91805,1,0,0:0:0:100:72G#6.ogg
36,192,91921,1,0,0:0:0:100:75B6.ogg
329,192,92036,1,0,0:0:0:100:74A#6.ogg
109,192,92151,1,0,0:0:0:100:72G#6.ogg
402,192,92267,1,0,0:0:0:100:70F#6.ogg
256,192,92382,1,0,0:0:0:70:m_42.ogg
182,192,92382,128,0,93305:0:0:0:100:m_66.ogg
402,192,93305,128,0,94228:0:0:0:70:m_53.ogg
36,192,93767,1,0,0:0:0:100:58F#5.ogg
109,192,93998,1,0,0:0:0:100:57F5.ogg
256,192,94228,128,0,95151:0:0:0:50:m_39.ogg
475,192,94690,1,0,0:0:0:100:62A#5.ogg
402,192,94921,1,0,0:0:0:100:67D#6.ogg
109,192,95151,128,0,96074:0:0:0:70:m_53.ogg
329,192,95613,1,0,0:0:0:100:58F#5.ogg
402,192,95844,1,0,0:0:0:100:63B5.ogg
36,192,96074,128,0,96536:0:0:0:50:m_53.ogg
182,192,96536,128,0,96998:0:0:0:70:m_53.ogg
402,192,96536,1,0,0:0:0:70:m_60.ogg
475,192,96767,1,0,0:0:0:100:60G#5.ogg
329,192,96998,128,0,97921:0:0:0:70:m_53.ogg
64,192,97459,1,0,0:0:0:100:62A#5.ogg
109,192,97690,1,0,0:0:0:100:67D#6.ogg
475,192,97921,128,0,98844:0:0:0:70:m_53.ogg
256,192,98151,1,0,0:0:0:100:58F#5.ogg
256,192,98382,1,0,0:0:0:100:58F#5.ogg
109,192,98613,1,0,0:0:0:100:60G#5.ogg
402,192,98844,128,0,99767:0:0:0:70:m_53.ogg
256,192,99074,1,0,0:0:0:100:65C#6.ogg
182,192,99305,1,0,0:0:0:100:60G#5.ogg
109,192,99536,1,0,0:0:0:100:58F#5.ogg
256,192,99767,128,0,100228:0:0:0:50:m_53.ogg
36,192,99767,1,0,0:0:0:70:LR4_GreatDrumBS2.wav
109,192,100228,128,0,100459:0:0:0:50:m_53.ogg
36,192,100228,1,0,0:0:0:50:m_60.ogg
182,192,100459,128,0,100690:0:0:0:100:63B5.ogg
329,192,100690,128,0,100921:0:0:0:70:Kalimba_A#4.ogg
448,192,100690,1,0,0:0:0:70:Kalimba_C#4.ogg
256,192,100921,1,0,0:0:0:70:Kalimba_A#3.ogg
109,192,101151,128,0,101382:0:0:0:70:Kalimba_C#4.ogg
182,192,101382,128,0,101613:0:0:0:70:Kalimba_G#4.ogg
256,192,101613,128,0,101844:0:0:0:70:Kalimba_C#5.ogg
329,192,101844,1,0,0:0:0:70:Kalimba_F#3.ogg
182,192,102074,128,0,102305:0:0:0:70:Kalimba_F#4.ogg
109,192,102074,1,0,0:0:0:40:LR_Drum Kick Low.wav
256,192,102305,128,0,102536:0:0:0:40:LR_Drum Fast Hit Click.wav
475,192,102536,1,0,0:0:0:70:Kalimba_A#4.ogg
402,192,102536,128,0,102767:0:0:0:70:Kalimba_F#4.ogg
329,192,102767,1,0,0:0:0:70:Kalimba_G#3.ogg
256,192,102998,128,0,103228:0:0:0:70:Kalimba_C#4.ogg
192,192,103228,128,0,103459:0:0:0:70:Kalimba_G#4.ogg
448,192,103459,1,0,0:0:0:70:Kalimba_C#5.ogg
109,192,103459,128,0,103921:0:0:0:40:LR_Drum Kick Low.wav
402,192,103921,1,0,0:0:0:70:Kalimba_G#4.ogg
329,192,103921,128,0,104151:0:0:0:40:LR_Drum Kick Low.wav
256,192,104151,128,0,104382:0:0:0:40:LR_Drum Fast Hit Click.wav
36,192,104382,1,0,0:0:0:70:Kalimba_D#4.ogg
182,192,104382,128,0,104613:0:0:0:70:Kalimba_F#4.ogg
402,192,104613,1,0,0:0:0:70:Kalimba_A#3.ogg
256,192,104844,1,0,0:0:0:70:Kalimba_C#4.ogg
448,192,105074,1,0,0:0:0:70:Kalimba_G#4.ogg
256,192,105305,1,0,0:0:0:70:Kalimba_C#5.ogg
64,192,105305,1,0,0:0:0:40:LR_Drum Kick Low.wav
320,192,105536,1,0,0:0:0:70:Kalimba_F#3.ogg
402,192,105767,1,0,0:0:0:70:Kalimba_F#4.ogg
475,192,105998,1,0,0:0:0:40:LR_Drum Fast Hit Click.wav
329,192,106228,1,0,0:0:0:70:Kalimba_C#4.ogg
109,192,106228,1,0,0:0:0:40:LR_Drum Kick Low.wav
192,192,106459,1,0,0:0:0:70:Kalimba_C#3.ogg
402,192,106690,1,0,0:0:0:70:Kalimba_C#3.ogg
109,192,106921,1,0,0:0:0:50:LR_Tom Hit.wav
329,192,107151,1,0,0:0:0:50:RevCyCV2.wav
256,192,107151,128,0,108074:0:0:0:50:m_30.ogg
402,192,108074,128,0,108536:0:0:0:70:LR_Drum Rpd x2.wav
182,192,108074,1,0,0:0:0:50:m_60.ogg
64,192,108305,1,0,0:0:0:70:LR_Drum Rpd x2.wav
109,192,108421,1,0,0:0:0:70:LR_Drum Rpd x2.wav
182,192,108536,1,0,0:0:0:50:LR_Drum Hit Drop High.wav
475,192,108536,1,0,0:0:0:50:38A#3.ogg
329,192,108536,1,0,0:0:0:50:34F#3.ogg
256,192,108767,1,0,0:0:0:70:LR_Drum Rpd x2.wav
329,192,108998,1,0,0:0:0:70:LR_Drum Rpd x2.wav
448,192,108998,128,0,109228:0:0:0:50:m_65.ogg
192,192,109228,1,0,0:0:0:70:LR_Drum Rpd x2.wav
64,192,109459,1,0,0:0:0:50:LR_Drum Hit Drop High.wav
256,192,109459,1,0,0:0:0:50:43D#4.ogg
109,192,109690,1,0,0:0:0:70:LR_Drum Rpd x2.wav
182,192,109805,1,0,0:0:0:70:LR_Drum Rpd x2.wav
448,192,109921,1,0,0:0:0:70:LR_Drum Rpd x2.wav
256,192,109921,128,0,110151:0:0:0:50:m_60.ogg
329,192,110151,1,0,0:0:0:70:LR_Drum Rpd x2.wav
402,192,110267,1,0,0:0:0:70:LR_Drum Rpd x2.wav
448,192,110382,1,0,0:0:0:50:LR_Drum Hit Drop High.wav
192,192,110382,1,0,0:0:0:50:41C#4.ogg
109,192,110613,1,0,0:0:0:70:LR_Drum Rpd x2.wav
36,192,110844,1,0,0:0:0:70:LR_Drum Rpd x2.wav
329,192,110844,128,0,111074:0:0:0:50:34F#3.ogg
402,192,111074,1,0,0:0:0:70:LR_Drum Rpd x2.wav
109,192,111305,1,0,0:0:0:50:LR_Drum Hit Drop High.wav
36,192,111305,1,0,0:0:0:50:21F2.ogg
182,192,111536,1,0,0:0:0:70:LR_Drum Rpd x2.wav
256,192,111536,1,0,0:0:0:50:29C#3.ogg
329,192,111767,1,0,0:0:0:70:LR_Drum Rpd x2.wav
402,192,111767,128,0,112228:0:0:0:50:31D#3.ogg
182,192,111998,1,0,0:0:0:70:LR_Drum Rpd x2.wav
109,192,112228,1,0,0:0:0:50:LR_Drum Hit Drop High.wav
475,192,112228,1,0,0:0:0:50:38A#3.ogg
36,192,112459,1,0,0:0:0:70:LR_Drum Rpd x2.wav
192,192,112459,1,0,0:0:0:50:31D#3.ogg
329,192,112690,128,0,113151:0:0:0:70:LR_Drum Rpd x2.wav
256,192,112690,1,0,0:0:0:50:27B2.ogg
182,192,112921,1,0,0:0:0:70:LR_Drum Rpd x2.wav
109,192,113151,1,0,0:0:0:100:58F#5.ogg
475,192,113151,1,0,0:0:0:50:LR_Drum Hit Drop High.wav
402,192,113382,1,0,0:0:0:70:LR_Drum Rpd x2.wav
192,192,113613,1,0,0:0:0:70:LR_Drum Rpd x2.wav
109,192,113613,1,0,0:0:0:50:29C#3.ogg
256,192,113844,1,0,0:0:0:70:LR_Drum Rpd x2.wav
329,192,113959,1,0,0:0:0:70:LR_Drum Rpd x2.wav
402,192,114074,1,0,0:0:0:50:LR_Drum Hit Drop High.wav
36,192,114074,1,0,0:0:0:50:46F#4.ogg
182,192,114305,1,0,0:0:0:70:LR_Drum Rpd x2.wav
475,192,114305,1,0,0:0:0:50:29C#3.ogg
36,192,114536,1,0,0:0:0:70:LR_Drum Rpd x2.wav
256,192,114536,128,0,114998:0:0:0:50:22F#2.ogg
109,192,114651,1,0,0:0:0:70:LR_Drum Rpd x2.wav
182,192,114767,1,0,0:0:0:50:29C#3.ogg
320,192,114998,1,0,0:0:0:50:21F2.ogg
402,192,114998,1,0,0:0:0:50:33F3.ogg
182,192,115228,1,0,0:0:0:50:LR_Drum Hit Drop High.wav
256,192,115228,1,0,0:0:0:50:29C#3.ogg
36,192,115459,1,0,0:0:0:70:LR_Drum Rpd x2.wav
109,192,115459,128,0,115921:0:0:0:50:31D#3.ogg
475,192,115459,1,0,0:0:0:50:19D#2.ogg
402,192,115459,1,0,0:0:0:50:m_60.ogg
329,192,115690,1,0,0:0:0:70:LR_Drum Rpd x2.wav
256,192,115805,1,0,0:0:0:70:LR_Drum Rpd x2.wav
402,192,115921,1,0,0:0:0:50:LR_Drum Hit Drop High.wav
182,192,115921,1,0,0:0:0:50:38A#3.ogg
475,192,116151,1,0,0:0:0:70:LR_Drum Rpd x2.wav
329,192,116382,1,0,0:0:0:70:LR_Drum Rpd x2.wav
256,192,116382,128,0,116613:0:0:0:50:39B3.ogg
36,192,116613,1,0,0:0:0:70:LR_Drum Rpd x2.wav
109,192,116844,1,0,0:0:0:50:LR_Drum Hit Drop High.wav
320,192,116844,1,0,0:0:0:50:43D#4.ogg
402,192,117074,1,0,0:0:0:70:LR_Drum Rpd x2.wav
329,192,117190,1,0,0:0:0:70:LR_Drum Rpd x2.wav
475,192,117305,1,0,0:0:0:70:LR_Drum Rpd x2.wav
256,192,117305,128,0,117536:0:0:0:50:41C#4.ogg
182,192,117536,1,0,0:0:0:70:LR_Drum Rpd x2.wav
109,192,117651,1,0,0:0:0:70:LR_Drum Rpd x2.wav
64,192,117767,1,0,0:0:0:50:LR_Drum Hit Drop High.wav
329,192,117767,1,0,0:0:0:50:41C#4.ogg
256,192,117998,1,0,0:0:0:70:LR_Drum Rpd x2.wav
329,192,118228,1,0,0:0:0:70:LR_Drum Rpd x2.wav
402,192,118228,128,0,118459:0:0:0:50:34F#3.ogg
182,192,118459,1,0,0:0:0:70:LR_Drum Rpd x2.wav
256,192,118690,1,0,0:0:0:50:LR_Drum Hit Drop High.wav
36,192,118690,1,0,0:0:0:50:33F3.ogg
109,192,118921,1,0,0:0:0:70:LR_Drum Rpd x2.wav
329,192,118921,1,0,0:0:0:50:29C#3.ogg
182,192,119151,1,0,0:0:0:70:LR_Drum Rpd x2.wav
402,192,119151,128,0,119613:0:0:0:50:19D#2.ogg
109,192,119382,1,0,0:0:0:70:LR_Drum Rpd x2.wav
182,192,119498,1,0,0:0:0:70:LR_Drum Rpd x2.wav
329,192,119613,1,0,0:0:0:50:LR_Drum Hit Drop High.wav
256,192,119613,1,0,0:0:0:50:38A#3.ogg
64,192,119844,1,0,0:0:0:70:LR_Drum Rpd x2.wav
109,192,119844,1,0,0:0:0:50:31D#3.ogg
64,192,120074,1,0,0:0:0:70:LR_Drum Rpd x2.wav
109,192,120074,1,0,0:0:0:50:39B3.ogg
329,192,120305,1,0,0:0:0:70:LR_Drum Rpd x2.wav
329,192,120536,1,0,0:0:0:50:LR_Drum Hit Drop High.wav
402,192,120536,1,0,0:0:0:50:43D#4.ogg
256,192,120767,1,0,0:0:0:70:LR_Drum Rpd x2.wav
182,192,120998,1,0,0:0:0:70:LR_Drum Rpd x2.wav
109,192,120998,1,0,0:0:0:50:41C#4.ogg
475,192,121228,1,0,0:0:0:70:LR_Drum Rpd x2.wav
402,192,121228,1,0,0:0:0:50:36G#3.ogg
402,192,121459,1,0,0:0:0:50:LR_Drum Hit Drop High.wav
448,192,121459,1,0,0:0:0:50:41C#4.ogg
109,192,121690,1,0,0:0:0:70:LR_Drum Rpd x2.wav
192,192,121690,1,0,0:0:0:50:36G#3.ogg
192,192,121921,1,0,0:0:0:40:LR_Drum Hit Drop High.wav
109,192,121921,128,0,122382:0:0:0:50:22F#2.ogg
256,192,122036,1,0,0:0:0:40:LR_Drum Hit Drop High.wav
329,192,122151,1,0,0:0:0:40:LR_Drum Hit Drop High.wav
475,192,122382,1,0,0:0:0:120:58F#5.ogg
256,192,122382,1,0,0:0:0:40:LR_Drum Hit Drop High.wav
36,192,122613,1,0,0:0:0:40:LR_Drum Hit Drop High.wav
182,192,122613,1,0,0:0:0:50:29C#3.ogg
329,192,122728,1,0,0:0:0:40:LR_Drum Hit Drop High.wav
36,192,122844,1,0,0:0:0:40:LR_Drum Hit Drop High.wav
182,192,122844,128,0,123305:0:0:0:50:31D#3.ogg
475,192,123074,1,0,0:0:0:70:LR_Drum Rpd x2.wav
402,192,123190,1,0,0:0:0:70:LR_Drum Rpd x2.wav
329,192,123305,1,0,0:0:0:50:LR_Drum Hit Drop High.wav
256,192,123305,1,0,0:0:0:50:34F#3.ogg
36,192,123536,1,0,0:0:0:70:LR_Drum Rpd x2.wav
182,192,123767,1,0,0:0:0:70:LR_Drum Rpd x2.wav
402,192,123767,128,0,123998:0:0:0:50:27B2.ogg
475,192,123998,1,0,0:0:0:70:LR_Drum Rpd x2.wav
329,192,124228,1,0,0:0:0:50:LR_Drum Hit Drop High.wav
256,192,124228,1,0,0:0:0:50:43D#4.ogg
109,192,124459,1,0,0:0:0:70:LR_Drum Rpd x2.wav
182,192,124574,1,0,0:0:0:70:LR_Drum Rpd x2.wav
36,192,124690,128,0,124921:0:0:0:70:LR_Drum Rpd x2.wav
256,192,124690,1,0,0:0:0:50:41C#4.ogg
329,192,124921,1,0,0:0:0:70:LR_Drum Rpd x2.wav
402,192,125036,1,0,0:0:0:70:LR_Drum Rpd x2.wav
448,192,125151,1,0,0:0:0:50:LR_Drum Hit Drop High.wav
256,192,125151,1,0,0:0:0:50:46F#4.ogg
402,192,125382,1,0,0:0:0:70:LR_Drum Rpd x2.wav
329,192,125613,1,0,0:0:0:70:LR_Drum Rpd x2.wav
109,192,125613,128,0,125844:0:0:0:50:34F#3.ogg
36,192,125844,1,0,0:0:0:50:Koto_A#3.ogg
448,192,126074,1,0,0:0:0:50:Koto_C#4.ogg
256,192,126074,1,0,0:0:0:50:LR_Drum Hit Drop High.wav
109,192,126305,1,0,0:0:0:50:Koto_F#4.ogg
320,192,126305,1,0,0:0:0:70:LR_Drum Rpd x2.wav
256,192,126536,1,0,0:0:0:50:Koto_G#4.ogg
448,192,126536,128,0,127921:0:0:0:70:LR_Drum Rpd x2.wav
182,192,126767,1,0,0:0:0:50:Koto_F#4.ogg
109,192,126882,1,0,0:0:0:50:Koto_F#4.ogg
36,192,126998,1,0,0:0:0:50:Koto_C#4.ogg
402,192,126998,1,0,0:0:0:50:LR_Drum Hit Drop High.wav
329,192,127228,1,0,0:0:0:50:Koto_A#3.ogg
109,192,127459,1,0,0:0:0:50:Koto_G#3.ogg
256,192,127459,128,0,127690:0:0:0:70:LR_Drum Rpd x2.wav
402,192,127690,1,0,0:0:0:50:Koto_F#3.ogg
192,192,127921,1,0,0:0:0:50:Koto_C#3.ogg
329,192,127921,1,0,0:0:0:50:LR_Drum Hit Drop High.wav
109,192,128151,1,0,0:0:0:50:Koto_A#2.ogg
36,192,128382,1,0,0:0:0:50:Koto_G#2.ogg
475,192,128382,1,0,0:0:0:70:LR_Drum Rpd x2.wav
109,192,128613,1,0,0:0:0:50:Koto_C#3.ogg
182,192,128728,1,0,0:0:0:70:LR_Drum Rpd x2.wav
256,192,128844,1,0,0:0:0:50:Koto_F#3.ogg
402,192,128844,1,0,0:0:0:50:LR_Drum Hit Drop High.wav
36,192,129074,1,0,0:0:0:50:Koto_G#3.ogg
329,192,129305,1,0,0:0:0:50:Koto_A#3.ogg
182,192,129305,1,0,0:0:0:70:LR_Drum Rpd x2.wav
402,192,129421,1,0,0:0:0:70:LR_Drum Rpd x2.wav
475,192,129536,1,0,0:0:0:50:Koto_C#4.ogg
256,192,129767,1,0,0:0:0:70:LR_Drum Rpd x2.wav
36,192,129767,1,0,0:0:0:50:Koto_G#4.ogg
329,192,129998,1,0,0:0:0:50:Koto_F#4.ogg
182,192,129998,1,0,0:0:0:50:LR_Drum Hit Drop High.wav
475,192,130228,1,0,0:0:0:30:LR_Drum Hit Echo.wav
402,192,130228,128,0,130690:0:0:0:50:19D#2.ogg
36,192,130228,1,0,0:0:0:50:31D#3.ogg
109,192,130459,1,0,0:0:0:70:LR_Drum Rpd x2.wav
182,192,130574,1,0,0:0:0:70:LR_Drum Rpd x2.wav
329,192,130690,1,0,0:0:0:50:LR_Drum Hit Drop High.wav
256,192,130690,1,0,0:0:0:50:34F#3.ogg
36,192,130921,1,0,0:0:0:70:LR_Drum Rpd x2.wav
475,192,131151,128,0,131382:0:0:0:70:LR_Drum Rpd x2.wav
256,192,131151,1,0,0:0:0:50:27B2.ogg
182,192,131382,1,0,0:0:0:70:LR_Drum Rpd x2.wav
109,192,131613,1,0,0:0:0:50:LR_Drum Hit Drop High.wav
402,192,131613,1,0,0:0:0:50:43D#4.ogg
329,192,131844,1,0,0:0:0:70:LR_Drum Rpd x2.wav
256,192,131959,1,0,0:0:0:70:LR_Drum Rpd x2.wav
36,192,132074,128,0,132305:0:0:0:70:LR_Drum Rpd x2.wav
182,192,132074,1,0,0:0:0:50:29C#3.ogg
109,192,132305,1,0,0:0:0:70:LR_Drum Rpd x2.wav
182,192,132421,1,0,0:0:0:70:LR_Drum Rpd x2.wav
256,192,132536,1,0,0:0:0:50:LR_Drum Hit Drop High.wav
475,192,132536,1,0,0:0:0:50:46F#4.ogg
402,192,132767,1,0,0:0:0:70:LR_Drum Rpd x2.wav
329,192,132998,1,0,0:0:0:70:LR_Drum Rpd x2.wav
109,192,132998,128,0,133228:0:0:0:50:34F#3.ogg
36,192,133228,1,0,0:0:0:70:LR_Drum Rpd x2.wav
182,192,133459,1,0,0:0:0:50:LR_Drum Hit Drop High.wav
109,192,133459,1,0,0:0:0:50:33F3.ogg
329,192,133690,1,0,0:0:0:70:LR_Drum Rpd x2.wav
256,192,133690,1,0,0:0:0:50:29C#3.ogg
402,192,133921,1,0,0:0:0:70:LR_Drum Rpd x2.wav
475,192,133921,128,0,134382:0:0:0:50:31D#3.ogg
109,192,134151,1,0,0:0:0:70:LR_Drum Rpd x2.wav
182,192,134267,1,0,0:0:0:70:LR_Drum Rpd x2.wav
36,192,134382,1,0,0:0:0:50:LR_Drum Hit Drop High.wav
256,192,134382,1,0,0:0:0:50:34F#3.ogg
329,192,134613,1,0,0:0:0:70:LR_Drum Rpd x2.wav
402,192,134613,1,0,0:0:0:50:31D#3.ogg
475,192,134844,1,0,0:0:0:70:LR_Drum Rpd x2.wav
256,192,134844,1,0,0:0:0:50:27B2.ogg
109,192,135074,1,0,0:0:0:70:LR_Drum Rpd x2.wav
109,192,135305,1,0,0:0:0:50:LR_Drum Hit Drop High.wav
36,192,135305,1,0,0:0:0:50:39B3.ogg
182,192,135536,1,0,0:0:0:70:LR_Drum Rpd x2.wav
475,192,135767,1,0,0:0:0:70:LR_Drum Rpd x2.wav
329,192,135767,1,0,0:0:0:50:29C#3.ogg
36,192,135998,1,0,0:0:0:70:LR_Drum Rpd x2.wav
109,192,135998,1,0,0:0:0:50:36G#3.ogg
36,192,136228,1,0,0:0:0:50:LR_Drum Hit Drop High.wav
109,192,136228,1,0,0:0:0:50:46F#4.ogg
329,192,136459,1,0,0:0:0:50:36G#3.ogg
475,192,136459,1,0,0:0:0:70:LR_Drum Rpd x2.wav
475,192,136690,128,0,137151:0:0:0:70:LR_Drum Rpd x2.wav
109,192,136690,1,0,0:0:0:50:34F#3.ogg
329,192,136690,1,0,0:0:0:50:22F#2.ogg
256,192,136805,1,0,0:0:0:30:LR_Drum Hit Echo.wav
182,192,136921,1,0,0:0:0:50:LR_Drum Hit Drop High.wav
64,192,137151,128,0,137382:0:0:0:50:m_57.ogg
402,192,137151,1,0,0:0:0:50:21F2.ogg
109,192,137151,1,0,0:0:0:50:33F3.ogg
182,192,137382,1,0,0:0:0:50:29C#3.ogg
256,192,137613,1,0,0:0:0:100:62A#5.ogg
329,192,137613,128,0,138074:0:0:0:100:55D#5.ogg
109,192,137844,1,0,0:0:0:50:31D#3.ogg
182,192,137959,1,0,0:0:0:100:62A#5.ogg
475,192,138074,1,0,0:0:0:30:LR_Drum Finish.wav
402,192,138190,1,0,0:0:0:100:62A#5.ogg
329,192,138305,1,0,0:0:0:100:67D#6.ogg
36,192,138536,1,0,0:0:0:100:m_58.ogg
402,192,138536,1,0,0:0:0:100:m_65.ogg
256,192,138767,1,0,0:0:0:50:34F#3.ogg
109,192,138998,1,0,0:0:0:50:LR_Drum Hit Open 2.wav
329,192,138998,1,0,0:0:0:50:39B3.ogg
182,192,139228,1,0,0:0:0:50:34F#3.ogg
256,192,139459,1,0,0:0:0:30:SVF_F5s.ogg
36,192,139459,1,0,0:0:0:100:60G#5.ogg
402,192,139690,1,0,0:0:0:100:60G#5.ogg
329,192,139805,1,0,0:0:0:100:65C#6.ogg
36,192,139921,1,0,0:0:0:100:60G#5.ogg
109,192,140036,1,0,0:0:0:100:65C#6.ogg
182,192,140151,1,0,0:0:0:100:72G#6.ogg
475,192,140382,1,0,0:0:0:100:m_74.ogg
256,192,140382,1,0,0:0:0:100:m_65.ogg
329,192,140613,1,0,0:0:0:50:29C#3.ogg
109,192,140844,1,0,0:0:0:50:LR_Drum Hit Open 2.wav
329,192,140844,1,0,0:0:0:30:SVF_G#5ss.ogg
109,192,141074,1,0,0:0:0:50:29C#3.ogg
36,192,141305,1,0,0:0:0:70:LR_Drum Rpd x2.wav
256,192,141305,1,0,0:0:0:30:SVF_F#5s.ogg
402,192,141536,1,0,0:0:0:50:31D#3.ogg
182,192,141536,1,0,0:0:0:100:57F5.ogg
36,192,141767,1,0,0:0:0:50:LR_Drum Hit Open 2.wav
256,192,141767,1,0,0:0:0:50:65C#6.ogg
109,192,141998,1,0,0:0:0:23:SVF_F#5s.ogg
329,192,141998,1,0,0:0:0:50:31D#3.ogg
256,192,142228,1,0,0:0:0:70:LR_Drum Rpd x2.wav
475,192,142228,1,0,0:0:0:50:m_70.ogg
109,192,142459,1,0,0:0:0:50:34F#3.ogg
329,192,142459,1,0,0:0:0:100:57F5.ogg
475,192,142690,1,0,0:0:0:50:LR_Drum Hit Open 2.wav
256,192,142690,1,0,0:0:0:50:39B3.ogg
402,192,142921,1,0,0:0:0:15:SVF_D#6ss.ogg
182,192,142921,1,0,0:0:0:50:34F#3.ogg
36,192,143151,1,0,0:0:0:70:LR_Drum Rpd x2.wav
256,192,143151,1,0,0:0:0:15:SVF_C#6s.ogg
402,192,143382,1,0,0:0:0:50:36G#3.ogg
182,192,143382,1,0,0:0:0:100:58F#5.ogg
329,192,143613,1,0,0:0:0:50:LR_Drum Hit Open 2.wav
109,192,143613,1,0,0:0:0:50:41C#4.ogg
402,192,143844,1,0,0:0:0:15:SVF_C#6s.ogg
475,192,144074,1,0,0:0:0:70:LR_Drum Rpd x2.wav
182,192,144074,128,0,144305:0:0:0:50:22F#2.ogg
329,192,144305,1,0,0:0:0:50:LR_Drum Hit Drop High.wav
402,192,144536,1,0,0:0:0:70:LR_Drum Rpd x2.wav
109,192,144536,128,0,144767:0:0:0:50:21F2.ogg
256,192,144767,1,0,0:0:0:50:LR_Drum Hit Drop High.wav
64,192,144998,5,0,0:0:0:100:62A#5.ogg
402,192,144998,1,0,0:0:0:30:LR_Drum Hit Echo.wav
329,192,145228,1,0,0:0:0:100:62A#5.ogg
402,192,145344,1,0,0:0:0:100:63B5.ogg
475,192,145459,1,0,0:0:0:100:62A#5.ogg
109,192,145459,1,0,0:0:0:50:LR_Drum Finish.wav
182,192,145690,1,0,0:0:0:100:62A#5.ogg
109,192,145805,1,0,0:0:0:100:67D#6.ogg
329,192,145921,1,0,0:0:0:100:65C#6.ogg
36,192,145921,1,0,0:0:0:70:LR_Drum Rpd x2.wav
402,192,146151,1,0,0:0:0:100:65C#6.ogg
329,192,146267,1,0,0:0:0:100:67D#6.ogg
475,192,146382,1,0,0:0:0:100:58F#5.ogg
256,192,146382,1,0,0:0:0:50:LR_Drum Hit Open 2.wav
109,192,146613,1,0,0:0:0:100:58F#5.ogg
182,192,146728,1,0,0:0:0:100:62A#5.ogg
36,192,146844,1,0,0:0:0:100:60G#5.ogg
256,192,146844,1,0,0:0:0:70:LR_Drum Rpd x2.wav
402,192,147074,1,0,0:0:0:100:60G#5.ogg
329,192,147190,1,0,0:0:0:100:62A#5.ogg
109,192,147305,1,0,0:0:0:100:60G#5.ogg
256,192,147305,1,0,0:0:0:50:LR_Drum Hit Open 2.wav
36,192,147536,1,0,0:0:0:100:65C#6.ogg
109,192,147651,1,0,0:0:0:100:60G#5.ogg
256,192,147767,1,0,0:0:0:100:62A#5.ogg
182,192,147767,1,0,0:0:0:70:LR_Drum Rpd x2.wav
402,192,147998,1,0,0:0:0:100:53C#5.ogg
256,192,148228,1,0,0:0:0:100:58F#5.ogg
109,192,148459,1,0,0:0:0:100:60G#5.ogg
256,192,148690,1,0,0:0:0:70:LR_Drum Rpd x2.wav
402,192,148690,128,0,149151:0:0:0:30:SVF_F#5s.ogg
182,192,148921,1,0,0:0:0:50:31D#3.ogg
109,192,149151,1,0,0:0:0:50:LR_Drum Hit Open 2.wav
36,192,149151,1,0,0:0:0:50:34F#3.ogg
256,192,149382,1,0,0:0:0:23:SVF_F#5s.ogg
36,192,149613,1,0,0:0:0:70:LR_Drum Rpd x2.wav
329,192,149613,128,0,150074:0:0:0:50:39B3.ogg
182,192,149844,1,0,0:0:0:50:34F#3.ogg
109,192,150074,1,0,0:0:0:50:LR_Drum Hit Open 2.wav
475,192,150074,1,0,0:0:0:50:43D#4.ogg
182,192,150305,1,0,0:0:0:15:SVF_D#6ss.ogg
256,192,150536,128,0,150998:0:0:0:70:LR_Drum Rpd x2.wav
329,192,150536,1,0,0:0:0:15:SVF_C#6s.ogg
475,192,150767,1,0,0:0:0:50:36G#3.ogg
36,192,150998,1,0,0:0:0:50:LR_Drum Hit Open 2.wav
402,192,150998,1,0,0:0:0:50:41C#4.ogg
329,192,151228,1,0,0:0:0:15:SVF_C#6s.ogg
182,192,151459,1,0,0:0:0:50:LR_Drum Hit Drop High.wav
256,192,151459,128,0,152382:0:0:0:50:22F#2.ogg
109,192,151690,1,0,0:0:0:70:53C#5.ogg
475,192,151921,1,0,0:0:0:100:53C#5.ogg
36,192,151921,1,0,0:0:0:70:58F#5.ogg
109,192,152151,128,0,152382:0:0:0:100:57F5.ogg
402,192,152151,128,0,152382:0:0:0:70:60G#5.ogg
475,192,153074,5,0,0:0:0:100:51B4.ogg
329,192,153074,1,0,0:0:0:100:46F#4.ogg
182,192,153239,1,0,0:0:0:100:55D#5.ogg
109,192,153371,1,0,0:0:0:100:58F#5.ogg
36,192,153437,1,0,0:0:0:100:62A#5.ogg
475,192,153536,1,0,0:0:0:100:67D#6.ogg
402,192,153594,1,0,0:0:0:100:70F#6.ogg
329,192,153651,1,0,0:0:0:100:74A#6.ogg
256,192,153709,128,0,157690:0:0:0:100:m_79.ogg
