osu file format v14

[General]
AudioFilename: audio.mp3
AudioLeadIn: 0
PreviewTime: 107863
Countdown: 0
SampleSet: Soft
StackLeniency: 0.7
Mode: 3
LetterboxInBreaks: 0
SpecialStyle: 0
WidescreenStoryboard: 1

[Editor]
Bookmarks: 15789,63789,78558,84096,115481,122866,139481,141327,146866
DistanceSpacing: 1.5
BeatDivisor: 4
GridSize: 16
TimelineZoom: 2.699998

[Metadata]
Title:Tada Koe Hitotsu
TitleUnicode:ただ声一つ
Artist:Rokudenashi
ArtistUnicode:ロクデナシ
Creator:A04360436
Version:4K NM
Source:
Tags:Ihram-San One Voice japanese pop jpop j-pop female vocal vocalist Vocaloid piano instrumental Ninzin faPka MIMI にんじん 邦楽 ほうがく
BeatmapID:3871028
BeatmapSetID:1784295

[Difficulty]
HPDrainRate:6.5
CircleSize:4
OverallDifficulty:6.4
ApproachRate:5
SliderMultiplier:1.4
SliderTickRate:1

[Events]
//Background and Video events
0,0,"BG.jpg",0,0
//Break Periods
//Storyboard Layer 0 (Background)
//Storyboard Layer 1 (Fail)
//Storyboard Layer 2 (Pass)
//Storyboard Layer 3 (Foreground)
//Storyboard Layer 4 (Overlay)
//Storyboard Sound Samples
Sample,998,0,"m_40.ogg",50
Sample,1228,0,"m_47.ogg",50
Sample,1344,0,"60G#5.ogg",100
Sample,1459,0,"m_52.ogg",50
Sample,1690,0,"59G5.ogg",100
Sample,1805,0,"64C6.ogg",100
Sample,1921,0,"m_36.ogg",50
Sample,2151,0,"m_43.ogg",50
Sample,2267,0,"64C6.ogg",100
Sample,2382,0,"m_52.ogg",50
Sample,2613,0,"55D#5.ogg",100
Sample,2728,0,"59G5.ogg",100
Sample,2844,0,"m_38.ogg",50
Sample,3074,0,"m_45.ogg",50
Sample,3190,0,"59G5.ogg",100
Sample,3305,0,"m_50.ogg",50
Sample,3536,0,"62A#5.ogg",100
Sample,3651,0,"57F5.ogg",100
Sample,3767,0,"m_43.ogg",50
Sample,3998,0,"50A#4.ogg",100
Sample,4228,0,"m_42.ogg",50
Sample,4459,0,"50A#4.ogg",100
Sample,4690,0,"m_40.ogg",50
Sample,4921,0,"m_47.ogg",50
Sample,5036,0,"60G#5.ogg",100
Sample,5151,0,"m_52.ogg",50
Sample,5382,0,"59G5.ogg",100
Sample,5498,0,"64C6.ogg",100
Sample,5613,0,"m_36.ogg",50
Sample,5844,0,"m_43.ogg",50
Sample,5959,0,"64C6.ogg",100
Sample,6074,0,"m_52.ogg",50
Sample,6305,0,"55D#5.ogg",100
Sample,6421,0,"59G5.ogg",100
Sample,6536,0,"m_38.ogg",50
Sample,6767,0,"m_45.ogg",50
Sample,6882,0,"59G5.ogg",100
Sample,6998,0,"m_50.ogg",50
Sample,7228,0,"55D#5.ogg",100
Sample,7344,0,"54D5.ogg",100
Sample,7459,0,"m_43.ogg",50
Sample,7690,0,"50A#4.ogg",100
Sample,7921,0,"m_42.ogg",50
Sample,8151,0,"57F5.ogg",100
Sample,8382,0,"m_40.ogg",50
Sample,8613,0,"m_47.ogg",50
Sample,8728,0,"60G#5.ogg",100
Sample,8844,0,"m_52.ogg",50
Sample,9074,0,"59G5.ogg",100
Sample,9190,0,"64C6.ogg",100
Sample,9305,0,"m_36.ogg",50
Sample,9536,0,"m_43.ogg",50
Sample,9651,0,"64C6.ogg",100
Sample,9767,0,"m_52.ogg",50
Sample,9998,0,"55D#5.ogg",100
Sample,10113,0,"59G5.ogg",100
Sample,10228,0,"m_38.ogg",50
Sample,10459,0,"m_45.ogg",50
Sample,10574,0,"59G5.ogg",100
Sample,10690,0,"m_50.ogg",50
Sample,10921,0,"62A#5.ogg",100
Sample,11036,0,"57F5.ogg",100
Sample,11151,0,"m_43.ogg",50
Sample,11382,0,"50A#4.ogg",100
Sample,11613,0,"m_42.ogg",50
Sample,11844,0,"50A#4.ogg",100
Sample,12074,0,"m_40.ogg",50
Sample,12305,0,"m_47.ogg",50
Sample,12421,0,"60G#5.ogg",100
Sample,12536,0,"m_52.ogg",50
Sample,12767,0,"59G5.ogg",100
Sample,12882,0,"64C6.ogg",100
Sample,12998,0,"m_36.ogg",50
Sample,13228,0,"m_43.ogg",50
Sample,13344,0,"64C6.ogg",100
Sample,13459,0,"m_52.ogg",50
Sample,13690,0,"55D#5.ogg",100
Sample,13805,0,"59G5.ogg",100
Sample,13921,0,"m_38.ogg",50
Sample,14151,0,"m_45.ogg",50
Sample,14267,0,"59G5.ogg",100
Sample,14382,0,"m_50.ogg",50
Sample,14613,0,"55D#5.ogg",100
Sample,14728,0,"54D5.ogg",100
Sample,14844,0,"m_43.ogg",50
Sample,15074,0,"59G5.ogg",100
Sample,15305,0,"m_42.ogg",50
Sample,15305,0,"57F5.ogg",100
Sample,15536,0,"55D#5.ogg",100
Sample,15536,0,"52C5.ogg",70
Sample,15767,0,"m_36.ogg",50
Sample,15767,0,"55D#5.ogg",50
Sample,15767,0,"50A#4.ogg",70
Sample,16228,0,"48G#4.ogg",50
Sample,16459,0,"55D#5.ogg",50
Sample,16690,0,"57F5.ogg",50
Sample,16921,0,"55D#5.ogg",50
Sample,17151,0,"m_38.ogg",50
Sample,17151,0,"Clap Normal.wav",30
Sample,17151,0,"50A#4.ogg",50
Sample,17382,0,"54D5.ogg",70
Sample,17613,0,"m_40.ogg",50
Sample,17613,0,"52C5.ogg",50
Sample,17844,0,"47G4.ogg",50
Sample,18074,0,"52C5.ogg",50
Sample,18074,0,"59G5.ogg",70
Sample,18305,0,"55D#5.ogg",50
Sample,18536,0,"54D5.ogg",50
Sample,18767,0,"64C6.ogg",50
Sample,18767,0,"55D#5.ogg",50
Sample,18998,0,"62A#5.ogg",50
Sample,18998,0,"54D5.ogg",50
Sample,18998,0,"59G5.ogg",70
Sample,19228,0,"54D5.ogg",50
Sample,19228,0,"57F5.ogg",70
Sample,19459,0,"m_36.ogg",50
Sample,19459,0,"52C5.ogg",50
Sample,19921,0,"Clap Normal.wav",30
Sample,20151,0,"55D#5.ogg",50
Sample,20613,0,"59G5.ogg",70
Sample,20844,0,"Clap Normal.wav",30
Sample,20844,0,"50A#4.ogg",50
Sample,20844,0,"57F5.ogg",70
Sample,21074,0,"57F5.ogg",50
Sample,21305,0,"m_40.ogg",50
Sample,21305,0,"m_52.ogg",50
Sample,21536,0,"47G4.ogg",50
Sample,21767,0,"Clap Normal.wav",30
Sample,21767,0,"57F5.ogg",50
Sample,21998,0,"55D#5.ogg",50
Sample,21998,0,"52C5.ogg",70
Sample,22228,0,"m_57.ogg",50
Sample,22228,0,"m_54.ogg",50
Sample,22228,0,"m_50.ogg",70
Sample,22459,0,"42D4.ogg",50
Sample,22690,0,"50A#4.ogg",70
Sample,23151,0,"36G#3.ogg",50
Sample,23151,0,"m_62.ogg",50
Sample,23151,0,"m_55.ogg",50
Sample,23613,0,"Clap Normal.wav",30
Sample,23844,0,"50A#4.ogg",50
Sample,24305,0,"59G5.ogg",70
Sample,24536,0,"Clap Normal.wav",30
Sample,24536,0,"55D#5.ogg",50
Sample,24536,0,"50A#4.ogg",50
Sample,24536,0,"57F5.ogg",70
Sample,24767,0,"54D5.ogg",70
Sample,24998,0,"m_40.ogg",50
Sample,24998,0,"59G5.ogg",50
Sample,24998,0,"m_55.ogg",70
Sample,25228,0,"m_47.ogg",50
Sample,25459,0,"Clap Normal.wav",30
Sample,25459,0,"55D#5.ogg",50
Sample,25459,0,"59G5.ogg",70
Sample,25690,0,"55D#5.ogg",50
Sample,25921,0,"57F5.ogg",50
Sample,25921,0,"m_35.ogg",50
Sample,25921,0,"m_62.ogg",70
Sample,26151,0,"42D4.ogg",50
Sample,26151,0,"64C6.ogg",50
Sample,26382,0,"Clap Normal.wav",30
Sample,26382,0,"54D5.ogg",50
Sample,26382,0,"59G5.ogg",70
Sample,26613,0,"54D5.ogg",50
Sample,26613,0,"57F5.ogg",70
Sample,26844,0,"52C5.ogg",50
Sample,26844,0,"m_55.ogg",70
Sample,27074,0,"50A#4.ogg",50
Sample,27305,0,"Clap Normal.wav",30
Sample,27305,0,"55D#5.ogg",50
Sample,27305,0,"52C5.ogg",50
Sample,27536,0,"55D#5.ogg",50
Sample,27998,0,"54D5.ogg",50
Sample,27998,0,"59G5.ogg",70
Sample,28228,0,"Clap Normal.wav",30
Sample,28228,0,"59G5.ogg",50
Sample,28228,0,"55D#5.ogg",50
Sample,28228,0,"57F5.ogg",70
Sample,28459,0,"54D5.ogg",70
Sample,28690,0,"m_52.ogg",50
Sample,28690,0,"m_55.ogg",70
Sample,28921,0,"m_47.ogg",50
Sample,29151,0,"Clap Normal.wav",30
Sample,29613,0,"m_55.ogg",70
Sample,29844,0,"42D4.ogg",50
Sample,30017,0,"62A#5.ogg",70
Sample,30046,0,"67D#6.ogg",70
Sample,30074,0,"71G6.ogg",70
Sample,30103,0,"74A#6.ogg",70
Sample,30536,0,"m_36.ogg",50
Sample,30536,0,"m_40.ogg",50
Sample,30536,0,"m_50.ogg",50
Sample,30536,0,"m_55.ogg",100
Sample,30998,0,"55D#5.ogg",100
Sample,31228,0,"57F5.ogg",100
Sample,31459,0,"SVF_A#5.ogg",25
Sample,31459,0,"m_50.ogg",50
Sample,31459,0,"m_55.ogg",50
Sample,31459,0,"m_43.ogg",50
Sample,31459,0,"m_59.ogg",100
Sample,31921,0,"59G5.ogg",100
Sample,32151,0,"60G#5.ogg",100
Sample,32382,0,"m_54.ogg",50
Sample,32382,0,"m_42.ogg",50
Sample,32382,0,"m_50.ogg",50
Sample,32382,0,"62A#5.ogg",100
Sample,32613,0,"55D#5.ogg",100
Sample,32844,0,"55D#5.ogg",100
Sample,33074,0,"57F5.ogg",100
Sample,33305,0,"m_35.ogg",50
Sample,33305,0,"m_27.ogg",50
Sample,33305,0,"m_57.ogg",50
Sample,33305,0,"m_42.ogg",50
Sample,33305,0,"m_59.ogg",100
Sample,34228,0,"m_57.ogg",50
Sample,34228,0,"m_55.ogg",50
Sample,34228,0,"m_50.ogg",50
Sample,34228,0,"40C4.ogg",50
Sample,34228,0,"m_62.ogg",100
Sample,34459,0,"35G3.ogg",50
Sample,34459,0,"LR_Drum Rpd x2.wav",70
Sample,34574,0,"LR_Drum Rpd x2.wav",70
Sample,34574,0,"57F5.ogg",50
Sample,34574,0,"50A#4.ogg",50
Sample,34690,0,"43D#4.ogg",50
Sample,34690,0,"LR_Drum Hit Drop High.wav",50
Sample,34690,0,"55D#5.ogg",100
Sample,34805,0,"57F5.ogg",50
Sample,34805,0,"50A#4.ogg",50
Sample,34921,0,"LR_Drum Rpd x2.wav",70
Sample,34921,0,"55D#5.ogg",50
Sample,34921,0,"50A#4.ogg",50
Sample,34921,0,"54D5.ogg",100
Sample,35151,0,"m_59.ogg",50
Sample,35151,0,"m_50.ogg",50
Sample,35151,0,"36G#3.ogg",50
Sample,35151,0,"LR_Drum Rpd x2.wav",70
Sample,35151,0,"m_55.ogg",100
Sample,35382,0,"31D#3.ogg",50
Sample,35382,0,"LR_Drum Rpd x2.wav",70
Sample,35498,0,"57F5.ogg",50
Sample,35498,0,"50A#4.ogg",50
Sample,35613,0,"40C4.ogg",50
Sample,35613,0,"LR_Drum Hit Drop High.wav",50
Sample,35613,0,"59G5.ogg",100
Sample,35728,0,"57F5.ogg",50
Sample,35728,0,"50A#4.ogg",50
Sample,35844,0,"LR_Drum Rpd x2.wav",70
Sample,35844,0,"55D#5.ogg",50
Sample,35844,0,"50A#4.ogg",50
Sample,35844,0,"64C6.ogg",100
Sample,35959,0,"LR_Drum Rpd x2.wav",70
Sample,36074,0,"LR_Drum Rpd x2.wav",70
Sample,36074,0,"m_57.ogg",50
Sample,36074,0,"m_50.ogg",50
Sample,36074,0,"m_55.ogg",50
Sample,36074,0,"m_62.ogg",100
Sample,36305,0,"33F3.ogg",50
Sample,36305,0,"LR_Drum Rpd x2.wav",70
Sample,36421,0,"LR_Drum Rpd x2.wav",70
Sample,36421,0,"55D#5.ogg",50
Sample,36421,0,"50A#4.ogg",50
Sample,36536,0,"43D#4.ogg",50
Sample,36536,0,"LR_Drum Hit Drop High.wav",50
Sample,36536,0,"55D#5.ogg",100
Sample,36651,0,"LR_Drum Rpd x2.wav",70
Sample,36651,0,"55D#5.ogg",50
Sample,36651,0,"50A#4.ogg",50
Sample,36767,0,"LR_Drum Rpd x2.wav",70
Sample,36767,0,"57F5.ogg",50
Sample,36767,0,"50A#4.ogg",50
Sample,36767,0,"60G#5.ogg",100
Sample,36998,0,"LR_Drum Rpd x2.wav",70
Sample,36998,0,"m_50.ogg",50
Sample,36998,0,"m_55.ogg",50
Sample,36998,0,"m_59.ogg",100
Sample,37228,0,"38A#3.ogg",50
Sample,37228,0,"LR_Drum Rpd x2.wav",70
Sample,37459,0,"42D4.ogg",50
Sample,37459,0,"LR_Drum Hit Drop High.wav",50
Sample,37459,0,"55D#5.ogg",50
Sample,37459,0,"59G5.ogg",100
Sample,37574,0,"LR_Drum Rpd x2.wav",70
Sample,37690,0,"LR_Drum Rpd x2.wav",70
Sample,37690,0,"60G#5.ogg",50
Sample,37690,0,"57F5.ogg",100
Sample,37805,0,"LR_Drum Rpd x2.wav",70
Sample,37921,0,"LR_Drum Rpd x2.wav",70
Sample,37921,0,"m_59.ogg",50
Sample,37921,0,"m_62.ogg",50
Sample,37921,0,"m_55.ogg",100
Sample,38151,0,"35G3.ogg",50
Sample,38151,0,"LR_Drum Rpd x2.wav",70
Sample,38267,0,"LR_Drum Rpd x2.wav",70
Sample,38382,0,"40C4.ogg",50
Sample,38382,0,"LR_Drum Hit Drop High.wav",50
Sample,38382,0,"55D#5.ogg",50
Sample,38382,0,"52C5.ogg",50
Sample,38382,0,"59G5.ogg",100
Sample,38613,0,"LR_Drum Rpd x2.wav",70
Sample,38613,0,"50A#4.ogg",50
Sample,38613,0,"57F5.ogg",50
Sample,38613,0,"64C6.ogg",100
Sample,38844,0,"LR_Drum Rpd x2.wav",70
Sample,38844,0,"55D#5.ogg",50
Sample,38844,0,"52C5.ogg",50
Sample,38844,0,"62A#5.ogg",100
Sample,39074,0,"31D#3.ogg",50
Sample,39074,0,"LR_Drum Rpd x2.wav",70
Sample,39074,0,"55D#5.ogg",100
Sample,39305,0,"36G#3.ogg",50
Sample,39305,0,"LR_Drum Hit Drop High.wav",50
Sample,39305,0,"m_64.ogg",50
Sample,39305,0,"m_60.ogg",50
Sample,39305,0,"55D#5.ogg",100
Sample,39536,0,"LR_Drum Rpd x2.wav",70
Sample,39536,0,"57F5.ogg",100
Sample,39767,0,"26A#2.ogg",50
Sample,39767,0,"LR_Drum Rpd x2.wav",70
Sample,39767,0,"m_62.ogg",50
Sample,39767,0,"m_57.ogg",50
Sample,39767,0,"m_54.ogg",50
Sample,39767,0,"59G5.ogg",100
Sample,39998,0,"LR_Drum Rpd x2.wav",70
Sample,39998,0,"62A#5.ogg",100
Sample,40113,0,"LR_Drum Rpd x2.wav",70
Sample,40228,0,"38A#3.ogg",50
Sample,40228,0,"LR_Drum Hit Drop High.wav",50
Sample,40228,0,"55D#5.ogg",50
Sample,40228,0,"50A#4.ogg",50
Sample,40228,0,"57F5.ogg",100
Sample,40459,0,"LR_Drum Rpd x2.wav",70
Sample,40459,0,"57F5.ogg",50
Sample,40459,0,"48G#4.ogg",50
Sample,40459,0,"55D#5.ogg",100
Sample,40690,0,"LR_Drum Rpd x2.wav",70
Sample,40690,0,"47G4.ogg",50
Sample,40690,0,"m_55.ogg",100
Sample,40805,0,"LR_Drum Rpd x2.wav",70
Sample,40921,0,"26A#2.ogg",50
Sample,40921,0,"LR_Drum Hit Drop High.wav",50
Sample,41151,0,"30D3.ogg",50
Sample,41151,0,"18D2.ogg",50
Sample,41151,0,"50A#4.ogg",50
Sample,41151,0,"55D#5.ogg",50
Sample,41151,0,"59G5.ogg",100
Sample,41382,0,"LR_Drum Rpd x2.wav",70
Sample,41382,0,"57F5.ogg",50
Sample,41382,0,"60G#5.ogg",100
Sample,41498,0,"LR_Drum Rpd x2.wav",70
Sample,41613,0,"LR_Drum Rpd x2.wav",70
Sample,41613,0,"m_57.ogg",50
Sample,41613,0,"m_55.ogg",50
Sample,41613,0,"m_50.ogg",50
Sample,41613,0,"m_62.ogg",100
Sample,41613,0,"LR_Drum Finish.wav",30
Sample,41844,0,"28C3.ogg",50
Sample,41844,0,"LR_Drum Rpd x2.wav",70
Sample,41959,0,"LR_Drum Rpd x2.wav",70
Sample,41959,0,"57F5.ogg",50
Sample,41959,0,"50A#4.ogg",50
Sample,42074,0,"31D#3.ogg",50
Sample,42074,0,"LR_Drum Hit Drop High.wav",50
Sample,42074,0,"55D#5.ogg",100
Sample,42190,0,"57F5.ogg",50
Sample,42190,0,"50A#4.ogg",50
Sample,42305,0,"28C3.ogg",50
Sample,42305,0,"LR_Drum Rpd x2.wav",70
Sample,42305,0,"55D#5.ogg",50
Sample,42305,0,"50A#4.ogg",50
Sample,42305,0,"54D5.ogg",100
Sample,42536,0,"LR_Drum Rpd x2.wav",70
Sample,42536,0,"m_62.ogg",50
Sample,42536,0,"m_59.ogg",50
Sample,42536,0,"m_50.ogg",50
Sample,42536,0,"m_55.ogg",100
Sample,42767,0,"31D#3.ogg",50
Sample,42767,0,"LR_Drum Rpd x2.wav",70
Sample,42882,0,"57F5.ogg",50
Sample,42882,0,"50A#4.ogg",50
Sample,42998,0,"36G#3.ogg",50
Sample,42998,0,"LR_Drum Hit Drop High.wav",50
Sample,42998,0,"59G5.ogg",100
Sample,43113,0,"57F5.ogg",50
Sample,43113,0,"50A#4.ogg",50
Sample,43228,0,"LR_Drum Rpd x2.wav",70
Sample,43228,0,"55D#5.ogg",50
Sample,43228,0,"50A#4.ogg",50
Sample,43228,0,"64C6.ogg",100
Sample,43459,0,"LR_Drum Rpd x2.wav",70
Sample,43459,0,"m_50.ogg",50
Sample,43459,0,"m_57.ogg",50
Sample,43459,0,"m_55.ogg",50
Sample,43459,0,"m_62.ogg",100
Sample,43690,0,"33F3.ogg",50
Sample,43690,0,"LR_Drum Rpd x2.wav",70
Sample,43805,0,"LR_Drum Rpd x2.wav",70
Sample,43805,0,"50A#4.ogg",50
Sample,43805,0,"55D#5.ogg",50
Sample,43921,0,"43D#4.ogg",50
Sample,43921,0,"LR_Drum Hit Drop High.wav",50
Sample,43921,0,"55D#5.ogg",100
Sample,44036,0,"LR_Drum Rpd x2.wav",70
Sample,44036,0,"55D#5.ogg",50
Sample,44036,0,"50A#4.ogg",50
Sample,44151,0,"LR_Drum Rpd x2.wav",70
Sample,44151,0,"50A#4.ogg",50
Sample,44151,0,"57F5.ogg",50
Sample,44151,0,"60G#5.ogg",100
Sample,44382,0,"m_55.ogg",50
Sample,44382,0,"m_50.ogg",50
Sample,44382,0,"m_59.ogg",100
Sample,44613,0,"26A#2.ogg",50
Sample,44613,0,"LR_Drum Rpd x2.wav",70
Sample,44844,0,"18D2.ogg",50
Sample,44844,0,"LR_Drum Hit Drop High.wav",50
Sample,44844,0,"55D#5.ogg",50
Sample,44844,0,"59G5.ogg",50
Sample,44844,0,"64C6.ogg",100
Sample,45074,0,"LR_Drum Rpd x2.wav",70
Sample,45074,0,"57F5.ogg",50
Sample,45074,0,"60G#5.ogg",50
Sample,45074,0,"66D6.ogg",100
Sample,45305,0,"LR_Drum Rpd x2.wav",70
Sample,45305,0,"m_55.ogg",50
Sample,45305,0,"m_62.ogg",50
Sample,45305,0,"m_59.ogg",50
Sample,45305,0,"m_67.ogg",100
Sample,45536,0,"28C3.ogg",50
Sample,45536,0,"LR_Drum Rpd x2.wav",70
Sample,45651,0,"LR_Drum Rpd x2.wav",70
Sample,45767,0,"35G3.ogg",50
Sample,45767,0,"LR_Drum Hit Drop High.wav",50
Sample,45767,0,"52C5.ogg",50
Sample,45767,0,"55D#5.ogg",50
Sample,45767,0,"66D6.ogg",100
Sample,45998,0,"LR_Drum Rpd x2.wav",70
Sample,45998,0,"50A#4.ogg",50
Sample,45998,0,"57F5.ogg",50
Sample,45998,0,"64C6.ogg",100
Sample,46228,0,"LR_Drum Rpd x2.wav",70
Sample,46228,0,"52C5.ogg",50
Sample,46228,0,"55D#5.ogg",50
Sample,46228,0,"62A#5.ogg",100
Sample,46459,0,"31D#3.ogg",50
Sample,46459,0,"LR_Drum Rpd x2.wav",70
Sample,46459,0,"55D#5.ogg",100
Sample,46690,0,"36G#3.ogg",50
Sample,46690,0,"LR_Drum Hit Drop High.wav",50
Sample,46690,0,"m_60.ogg",50
Sample,46690,0,"m_64.ogg",50
Sample,46690,0,"55D#5.ogg",100
Sample,46921,0,"LR_Drum Rpd x2.wav",70
Sample,46921,0,"59G5.ogg",100
Sample,47151,0,"26A#2.ogg",50
Sample,47151,0,"LR_Drum Rpd x2.wav",70
Sample,47151,0,"m_62.ogg",50
Sample,47151,0,"m_54.ogg",50
Sample,47151,0,"57F5.ogg",100
Sample,47382,0,"LR_Drum Rpd x2.wav",70
Sample,47382,0,"59G5.ogg",100
Sample,47498,0,"LR_Drum Rpd x2.wav",70
Sample,47613,0,"38A#3.ogg",50
Sample,47613,0,"LR_Drum Hit Drop High.wav",50
Sample,47613,0,"55D#5.ogg",50
Sample,47613,0,"50A#4.ogg",50
Sample,47613,0,"57F5.ogg",100
Sample,47844,0,"LR_Drum Rpd x2.wav",70
Sample,47844,0,"57F5.ogg",50
Sample,47844,0,"50A#4.ogg",50
Sample,47844,0,"55D#5.ogg",100
Sample,48074,0,"LR_Drum Hit Drop High.wav",50
Sample,48074,0,"m_59.ogg",50
Sample,48074,0,"m_50.ogg",50
Sample,48074,0,"m_55.ogg",100
Sample,48190,0,"LR_Drum Hit Echo.wav",30
Sample,48305,0,"38A#3.ogg",50
Sample,48305,0,"LR_Drum Hit Drop High.wav",50
Sample,48536,0,"LR_Drum Hit Drop High.wav",50
Sample,48536,0,"m_54.ogg",50
Sample,48536,0,"m_50.ogg",50
Sample,48536,0,"m_57.ogg",100
Sample,48651,0,"LR_Drum Rpd x2.wav",70
Sample,48767,0,"38A#3.ogg",50
Sample,48767,0,"LR_Drum Rpd x2.wav",70
Sample,48882,0,"LR_Drum Rpd x2.wav",70
Sample,48998,0,"28C3.ogg",50
Sample,48998,0,"16C2.ogg",50
Sample,48998,0,"m_55.ogg",100
Sample,48998,0,"LR_Drum Rpd x2.wav",30
Sample,48998,0,"LR_Drum Finish.wav",25
Sample,49228,0,"35G3.ogg",50
Sample,49459,0,"m_43.ogg",50
Sample,49459,0,"LR_Drum Hit Echo.wav",30
Sample,49574,0,"54D5.ogg",100
Sample,49690,0,"55D#5.ogg",100
Sample,49690,0,"LR_Drum Hit Open.wav",30
Sample,49921,0,"24G#2.ogg",50
Sample,49921,0,"LR_Drum Rpd x2.wav",30
Sample,50151,0,"31D#3.ogg",50
Sample,50382,0,"m_40.ogg",50
Sample,50382,0,"LR_Drum Hit Echo.wav",30
Sample,50498,0,"54D5.ogg",100
Sample,50613,0,"55D#5.ogg",100
Sample,50613,0,"LR_Drum Hit Open.wav",30
Sample,50844,0,"26A#2.ogg",50
Sample,50844,0,"LR_Drum Rpd x2.wav",30
Sample,51074,0,"33F3.ogg",50
Sample,51305,0,"50A#4.ogg",100
Sample,51305,0,"m_42.ogg",50
Sample,51305,0,"LR_Drum Hit Echo.wav",30
Sample,51536,0,"48G#4.ogg",100
Sample,51536,0,"LR_Drum Hit Open.wav",30
Sample,51767,0,"m_50.ogg",100
Sample,51767,0,"m_38.ogg",50
Sample,51767,0,"m_31.ogg",50
Sample,51767,0,"LR_Drum Rpd x2.wav",30
Sample,51998,0,"LR_Drum Hit Open.wav",30
Sample,52228,0,"m_30.ogg",50
Sample,52228,0,"m_38.ogg",50
Sample,52228,0,"m_54.ogg",50
Sample,52228,0,"LR_Drum Hit Echo.wav",30
Sample,52459,0,"LR_Drum Hit Open.wav",30
Sample,52690,0,"m_55.ogg",100
Sample,52690,0,"28C3.ogg",50
Sample,52690,0,"LR_Drum Rpd x2.wav",30
Sample,52921,0,"35G3.ogg",50
Sample,53151,0,"m_40.ogg",50
Sample,53151,0,"m_43.ogg",50
Sample,53151,0,"LR_Drum Hit Echo.wav",30
Sample,53267,0,"54D5.ogg",100
Sample,53382,0,"55D#5.ogg",100
Sample,53382,0,"LR_Drum Hit Open.wav",30
Sample,53613,0,"24G#2.ogg",50
Sample,53613,0,"LR_Drum Rpd x2.wav",30
Sample,53844,0,"31D#3.ogg",50
Sample,54017,0,"62A#5.ogg",100
Sample,54074,0,"m_36.ogg",50
Sample,54074,0,"m_40.ogg",50
Sample,54074,0,"LR_Drum Hit Echo.wav",30
Sample,54305,0,"62A#5.ogg",100
Sample,54305,0,"LR_Drum Hit Open.wav",30
Sample,54536,0,"m_54.ogg",100
Sample,54536,0,"26A#2.ogg",50
Sample,54536,0,"LR_Drum Rpd x2.wav",30
Sample,54767,0,"33F3.ogg",50
Sample,54998,0,"59G5.ogg",100
Sample,54998,0,"m_42.ogg",50
Sample,54998,0,"m_38.ogg",50
Sample,54998,0,"LR_Drum Hit Echo.wav",30
Sample,55228,0,"57F5.ogg",100
Sample,55228,0,"LR_Drum Hit Open.wav",30
Sample,55459,0,"m_55.ogg",100
Sample,55459,0,"m_50.ogg",50
Sample,55459,0,"m_47.ogg",50
Sample,55459,0,"38A#3.ogg",50
Sample,55459,0,"31D#3.ogg",50
Sample,55690,0,"35G3.ogg",50
Sample,55690,0,"59G5.ogg",100
Sample,55805,0,"LR_Drum Hit Drop High.wav",30
Sample,55921,0,"LR_Drum Hit Echo.wav",30
Sample,55921,0,"33F3.ogg",50
Sample,55921,0,"m_57.ogg",100
Sample,56151,0,"30D3.ogg",50
Sample,56151,0,"55D#5.ogg",100
Sample,56267,0,"LR_Drum Hit Echo.wav",30
Sample,56382,0,"LR_Drum Hit Echo.wav",30
Sample,56382,0,"28C3.ogg",50
Sample,56382,0,"m_55.ogg",100
Sample,56613,0,"35G3.ogg",50
Sample,56844,0,"m_40.ogg",50
Sample,56844,0,"m_43.ogg",50
Sample,56844,0,"LR_Drum Hit Echo.wav",30
Sample,56959,0,"54D5.ogg",100
Sample,57074,0,"55D#5.ogg",100
Sample,57074,0,"LR_Drum Hit Open.wav",30
Sample,57305,0,"24G#2.ogg",50
Sample,57305,0,"LR_Drum Rpd x2.wav",30
Sample,57536,0,"31D#3.ogg",50
Sample,57767,0,"m_36.ogg",50
Sample,57767,0,"m_40.ogg",50
Sample,57767,0,"LR_Drum Hit Echo.wav",30
Sample,57882,0,"54D5.ogg",100
Sample,57998,0,"55D#5.ogg",100
Sample,57998,0,"LR_Drum Hit Open.wav",30
Sample,58228,0,"m_50.ogg",100
Sample,58228,0,"m_54.ogg",100
Sample,58228,0,"26A#2.ogg",50
Sample,58228,0,"LR_Drum Rpd x2.wav",30
Sample,58459,0,"33F3.ogg",50
Sample,58690,0,"50A#4.ogg",100
Sample,58690,0,"m_42.ogg",50
Sample,58690,0,"m_38.ogg",50
Sample,58690,0,"LR_Drum Hit Echo.wav",30
Sample,58921,0,"48G#4.ogg",100
Sample,58921,0,"LR_Drum Hit Open.wav",30
Sample,59151,0,"m_50.ogg",100
Sample,59151,0,"SVF_D#5ss.ogg",30
Sample,59151,0,"31D#3.ogg",50
Sample,59151,0,"38A#3.ogg",50
Sample,59151,0,"LR_Drum Rpd x2.wav",30
Sample,59382,0,"LR_Drum Hit Open.wav",30
Sample,59382,0,"35G3.ogg",50
Sample,59613,0,"SVF_F5ss.ogg",30
Sample,59613,0,"38A#3.ogg",50
Sample,59613,0,"33F3.ogg",50
Sample,59613,0,"LR_Drum Hit Echo.wav",30
Sample,59844,0,"LR_Drum Hit Open.wav",30
Sample,59844,0,"30D3.ogg",50
Sample,60074,0,"m_55.ogg",100
Sample,60074,0,"SVF_D#5s.ogg",30
Sample,60074,0,"28C3.ogg",50
Sample,60074,0,"LR_Drum Rpd x2.wav",30
Sample,60305,0,"35G3.ogg",50
Sample,60536,0,"m_43.ogg",50
Sample,60536,0,"m_40.ogg",50
Sample,60536,0,"LR_Drum Hit Echo.wav",30
Sample,60651,0,"54D5.ogg",100
Sample,60767,0,"55D#5.ogg",100
Sample,60767,0,"LR_Drum Hit Open.wav",30
Sample,60767,0,"SVF_D#5s.ogg",30
Sample,60998,0,"24G#2.ogg",50
Sample,60998,0,"LR_Drum Rpd x2.wav",30
Sample,61228,0,"LR_Drum Hit Open.wav",30
Sample,61228,0,"31D#3.ogg",50
Sample,61459,0,"m_40.ogg",50
Sample,61459,0,"m_36.ogg",50
Sample,61459,0,"LR_Drum Hit Echo.wav",30
Sample,61517,0,"67D#6.ogg",100
Sample,61574,0,"66D6.ogg",100
Sample,61690,0,"LR_Drum Hit Open.wav",30
Sample,61690,0,"SVF_C6ss.ogg",20
Sample,61921,0,"m_57.ogg",100
Sample,61921,0,"SVF_A#5s.ogg",30
Sample,61921,0,"26A#2.ogg",50
Sample,61921,0,"LR_Drum Rpd x2.wav",30
Sample,62151,0,"LR_Drum Hit Open.wav",30
Sample,62151,0,"33F3.ogg",50
Sample,62382,0,"59G5.ogg",100
Sample,62382,0,"m_38.ogg",50
Sample,62382,0,"m_42.ogg",50
Sample,62382,0,"LR_Drum Hit Echo.wav",30
Sample,62613,0,"57F5.ogg",100
Sample,62613,0,"LR_Drum Hit Open.wav",30
Sample,62613,0,"SVF_A#5s.ogg",30
Sample,62844,0,"m_50.ogg",100
Sample,62844,0,"31D#3.ogg",50
Sample,62844,0,"38A#3.ogg",50
Sample,62844,0,"LR_Drum Rpd x2.wav",30
Sample,63074,0,"35G3.ogg",50
Sample,63074,0,"LR_Drum Hit Open.wav",30
Sample,63248,0,"62A#5.ogg",70
Sample,63276,0,"67D#6.ogg",70
Sample,63305,0,"LR_Drum Rpd x2.wav",30
Sample,63305,0,"69F6.ogg",70
Sample,63305,0,"33F3.ogg",50
Sample,63334,0,"74A#6.ogg",70
Sample,63536,0,"30D3.ogg",50
Sample,63536,0,"52C5.ogg",100
Sample,63767,0,"m_50.ogg",100
Sample,64228,0,"48G#4.ogg",50
Sample,64459,0,"62A#5.ogg",50
Sample,64690,0,"LR4_GreatDrumBS2.wav",50
Sample,64921,0,"36G#3.ogg",50
Sample,64921,0,"59G5.ogg",100
Sample,65151,0,"m_38.ogg",50
Sample,65151,0,"m_48.ogg",50
Sample,65151,0,"m_42.ogg",50
Sample,65151,0,"57F5.ogg",100
Sample,65613,0,"40C4.ogg",50
Sample,65613,0,"m_55.ogg",100
Sample,65844,0,"74A#6.ogg",60
Sample,65844,0,"69F6.ogg",60
Sample,65844,0,"47G4.ogg",50
Sample,65959,0,"76C7.ogg",60
Sample,65959,0,"71G6.ogg",60
Sample,66074,0,"69F6.ogg",60
Sample,66074,0,"LR4_GreatDrumBS2.wav",50
Sample,66074,0,"52C5.ogg",50
Sample,66074,0,"59G5.ogg",100
Sample,66305,0,"66D6.ogg",60
Sample,66305,0,"47G4.ogg",50
Sample,66305,0,"64C6.ogg",100
Sample,66536,0,"35G3.ogg",50
Sample,66536,0,"m_62.ogg",100
Sample,66767,0,"67D#6.ogg",60
Sample,66767,0,"71G6.ogg",60
Sample,66767,0,"42D4.ogg",50
Sample,66882,0,"69F6.ogg",60
Sample,66882,0,"74A#6.ogg",60
Sample,66998,0,"66D6.ogg",60
Sample,66998,0,"62A#5.ogg",60
Sample,66998,0,"LR4_GreatDrumBS2.wav",50
Sample,66998,0,"50A#4.ogg",50
Sample,66998,0,"59G5.ogg",100
Sample,67228,0,"62A#5.ogg",60
Sample,67228,0,"42D4.ogg",50
Sample,67228,0,"57F5.ogg",100
Sample,67459,0,"LR4_GreatDrumBS2.wav",50
Sample,67459,0,"36G#3.ogg",50
Sample,67459,0,"m_55.ogg",100
Sample,67863,0,"67D#6.ogg",70
Sample,67892,0,"71G6.ogg",70
Sample,67921,0,"LR4_GreatDrumBS2.wav",50
Sample,67921,0,"48G#4.ogg",50
Sample,67949,0,"79D#7.ogg",70
Sample,68151,0,"55D#5.ogg",50
Sample,68382,0,"LR4_GreatDrumBS2.wav",50
Sample,68613,0,"36G#3.ogg",50
Sample,68613,0,"59G5.ogg",100
Sample,68844,0,"m_38.ogg",50
Sample,68844,0,"m_48.ogg",50
Sample,68844,0,"m_42.ogg",50
Sample,68844,0,"57F5.ogg",100
Sample,69305,0,"52C5.ogg",60
Sample,69305,0,"m_55.ogg",100
Sample,69536,0,"67D#6.ogg",60
Sample,69536,0,"64C6.ogg",60
Sample,69536,0,"47G4.ogg",50
Sample,69651,0,"69F6.ogg",60
Sample,69651,0,"66D6.ogg",60
Sample,69767,0,"64C6.ogg",60
Sample,69767,0,"LR4_GreatDrumBS2.wav",50
Sample,69767,0,"55D#5.ogg",50
Sample,69767,0,"54D5.ogg",100
Sample,69998,0,"60G#5.ogg",60
Sample,69998,0,"47G4.ogg",50
Sample,69998,0,"52C5.ogg",100
Sample,70228,0,"57F5.ogg",60
Sample,70228,0,"LR4_GreatDrumBS2.wav",50
Sample,70228,0,"35G3.ogg",50
Sample,70228,0,"m_50.ogg",100
Sample,70459,0,"62A#5.ogg",60
Sample,70459,0,"57F5.ogg",60
Sample,70459,0,"42D4.ogg",50
Sample,70574,0,"64C6.ogg",60
Sample,70574,0,"59G5.ogg",60
Sample,70690,0,"57F5.ogg",60
Sample,70690,0,"LR4_GreatDrumBS2.wav",50
Sample,70690,0,"50A#4.ogg",100
Sample,70921,0,"54D5.ogg",60
Sample,70921,0,"42D4.ogg",50
Sample,70921,0,"52C5.ogg",100
Sample,71151,0,"LR_Drum Rpd x2.wav",30
Sample,71151,0,"36G#3.ogg",50
Sample,71151,0,"m_50.ogg",100
Sample,71382,0,"43D#4.ogg",50
Sample,71555,0,"79D#7.ogg",70
Sample,71613,0,"LR_Drum Rpd x2.wav",30
Sample,71613,0,"48G#4.ogg",50
Sample,71844,0,"62A#5.ogg",50
Sample,71844,0,"55D#5.ogg",50
Sample,72074,0,"LR_Drum Rpd x2.wav",30
Sample,72305,0,"43D#4.ogg",50
Sample,72305,0,"36G#3.ogg",50
Sample,72305,0,"59G5.ogg",100
Sample,72536,0,"m_38.ogg",50
Sample,72536,0,"m_48.ogg",50
Sample,72536,0,"m_42.ogg",50
Sample,72536,0,"57F5.ogg",100
Sample,72767,0,"54D5.ogg",100
Sample,72998,0,"52C5.ogg",60
Sample,72998,0,"m_55.ogg",100
Sample,73228,0,"74A#6.ogg",60
Sample,73228,0,"69F6.ogg",60
Sample,73228,0,"LR_Drum Hit HAT.wav",30
Sample,73228,0,"47G4.ogg",50
Sample,73344,0,"76C7.ogg",60
Sample,73344,0,"71G6.ogg",60
Sample,73459,0,"69F6.ogg",60
Sample,73459,0,"LR_Drum Rpd x2.wav",30
Sample,73459,0,"55D#5.ogg",50
Sample,73459,0,"59G5.ogg",100
Sample,73690,0,"66D6.ogg",60
Sample,73690,0,"LR_Drum Hit HAT.wav",30
Sample,73690,0,"47G4.ogg",50
Sample,73690,0,"64C6.ogg",100
Sample,73921,0,"LR_Drum Rpd x2.wav",30
Sample,73921,0,"35G3.ogg",50
Sample,73921,0,"62A#5.ogg",100
Sample,74151,0,"71G6.ogg",60
Sample,74151,0,"LR_Drum Hit HAT.wav",30
Sample,74151,0,"42D4.ogg",50
Sample,74151,0,"62A#5.ogg",100
Sample,74267,0,"69F6.ogg",60
Sample,74267,0,"74A#6.ogg",60
Sample,74267,0,"LR_Drum Hit HAT.wav",30
Sample,74382,0,"66D6.ogg",60
Sample,74382,0,"62A#5.ogg",60
Sample,74382,0,"LR_Drum Rpd x2.wav",30
Sample,74382,0,"50A#4.ogg",50
Sample,74382,0,"59G5.ogg",100
Sample,74613,0,"62A#5.ogg",60
Sample,74613,0,"LR_Drum Hit HAT.wav",30
Sample,74613,0,"42D4.ogg",50
Sample,74613,0,"57F5.ogg",100
Sample,74844,0,"LR_Drum Rpd x2.wav",30
Sample,74844,0,"36G#3.ogg",50
Sample,74844,0,"m_55.ogg",100
Sample,75074,0,"43D#4.ogg",50
Sample,75190,0,"LR_Drum Hit HAT.wav",30
Sample,75248,0,"67D#6.ogg",70
Sample,75276,0,"71G6.ogg",70
Sample,75305,0,"LR_Drum Rpd x2.wav",30
Sample,75305,0,"48G#4.ogg",50
Sample,75334,0,"79D#7.ogg",70
Sample,75536,0,"62A#5.ogg",50
Sample,75536,0,"55D#5.ogg",50
Sample,75767,0,"LR_Drum Rpd x2.wav",30
Sample,75998,0,"LR_Drum Hit HAT.wav",30
Sample,76228,0,"m_42.ogg",50
Sample,76228,0,"m_47.ogg",50
Sample,76228,0,"LR_Drum Rpd x2.wav",30
Sample,76459,0,"LR_Drum Hit HAT.wav",30
Sample,76690,0,"m_55.ogg",100
Sample,76921,0,"67D#6.ogg",70
Sample,76921,0,"m_40.ogg",50
Sample,76921,0,"64C6.ogg",70
Sample,76921,0,"LR_Drum Hit HAT.wav",30
Sample,77151,0,"66D6.ogg",70
Sample,77151,0,"LR_Drum Rpd x2.wav",30
Sample,77151,0,"m_59.ogg",100
Sample,77382,0,"71G6.ogg",70
Sample,77382,0,"67D#6.ogg",70
Sample,77382,0,"LR_Drum Hit HAT.wav",30
Sample,77613,0,"66D6.ogg",70
Sample,77613,0,"LR_Drum Hit HAT.wav",30
Sample,77613,0,"m_57.ogg",100
Sample,77613,0,"LR_Drum Rpd x2.wav",30
Sample,77844,0,"62A#5.ogg",70
Sample,77844,0,"57F5.ogg",70
Sample,77959,0,"LR_Drum Hit HAT.wav",30
Sample,77959,0,"LR_Drum Rpd x2.wav",30
Sample,78074,0,"69F6.ogg",70
Sample,78074,0,"m_66.ogg",100
Sample,78305,0,"69F6.ogg",70
Sample,78305,0,"66D6.ogg",70
Sample,78305,0,"LR_Drum Hit HAT.wav",30
Sample,78305,0,"LR_Drum Rpd x2.wav",30
Sample,78536,0,"m_40.ogg",70
Sample,78536,0,"74A#6.ogg",100
Sample,78536,0,"LR_Drum Finish.wav",50
Sample,78536,0,"m_67.ogg",100
Sample,78767,0,"71G6.ogg",100
Sample,78882,0,"72G#6.ogg",100
Sample,78998,0,"m_55.ogg",70
Sample,79113,0,"67D#6.ogg",100
Sample,79228,0,"74A#6.ogg",100
Sample,79344,0,"76C7.ogg",100
Sample,79459,0,"m_48.ogg",70
Sample,79574,0,"79D#7.ogg",100
Sample,79690,0,"78D7.ogg",100
Sample,79805,0,"79D#7.ogg",100
Sample,79921,0,"m_60.ogg",70
Sample,79921,0,"m_64.ogg",70
Sample,80036,0,"76C7.ogg",100
Sample,80151,0,"74A#6.ogg",100
Sample,80267,0,"76C7.ogg",100
Sample,80382,0,"m_74.ogg",100
Sample,80613,0,"m_57.ogg",70
Sample,80728,0,"71G6.ogg",100
Sample,80844,0,"m_66.ogg",70
Sample,80959,0,"62A#5.ogg",100
Sample,81074,0,"74A#6.ogg",100
Sample,81190,0,"69F6.ogg",100
Sample,81305,0,"m_43.ogg",70
Sample,81421,0,"62A#5.ogg",100
Sample,81536,0,"69F6.ogg",100
Sample,81651,0,"71G6.ogg",100
Sample,81767,0,"m_42.ogg",70
Sample,81882,0,"62A#5.ogg",100
Sample,81998,0,"67D#6.ogg",100
Sample,82113,0,"66D6.ogg",100
Sample,82228,0,"m_40.ogg",70
Sample,82344,0,"59G5.ogg",100
Sample,82459,0,"m_47.ogg",70
Sample,82574,0,"66D6.ogg",100
Sample,82690,0,"m_55.ogg",70
Sample,82921,0,"74A#6.ogg",100
Sample,83036,0,"76C7.ogg",100
Sample,83151,0,"74A#6.ogg",100
Sample,83267,0,"67D#6.ogg",100
Sample,83382,0,"m_55.ogg",70
Sample,83498,0,"67D#6.ogg",100
Sample,83613,0,"m_60.ogg",70
Sample,83728,0,"64C6.ogg",100
Sample,83844,0,"66D6.ogg",100
Sample,83959,0,"67D#6.ogg",100
Sample,84074,0,"m_38.ogg",70
Sample,84074,0,"m_69.ogg",100
Sample,84305,0,"69F6.ogg",100
Sample,84421,0,"71G6.ogg",100
Sample,84536,0,"m_50.ogg",70
Sample,84651,0,"67D#6.ogg",100
Sample,84767,0,"66D6.ogg",100
Sample,84882,0,"67D#6.ogg",100
Sample,84998,0,"m_43.ogg",70
Sample,84998,0,"SVF_G5ss.ogg",20
Sample,85113,0,"67D#6.ogg",100
Sample,85228,0,"67D#6.ogg",100
Sample,85344,0,"66D6.ogg",100
Sample,85459,0,"m_42.ogg",70
Sample,85459,0,"SVF_F5ss.ogg",20
Sample,85690,0,"67D#6.ogg",100
Sample,85805,0,"69F6.ogg",100
Sample,85863,0,"62A#5.ogg",100
Sample,85921,0,"70F#6.ogg",100
Sample,85921,0,"m_43.ogg",70
Sample,85921,0,"67D#6.ogg",100
Sample,85921,0,"SVF_F#5s.ogg",20
Sample,86151,0,"m_62.ogg",100
Sample,86382,0,"m_58.ogg",70
Sample,86498,0,"69F6.ogg",100
Sample,86613,0,"70F#6.ogg",100
Sample,86728,0,"77C#7.ogg",100
Sample,86844,0,"77C#7.ogg",100
Sample,86844,0,"SVF_D#5s.ogg",20
Sample,86959,0,"79D#7.ogg",100
Sample,87074,0,"m_58.ogg",70
Sample,87190,0,"70F#6.ogg",100
Sample,87305,0,"m_67.ogg",70
Sample,87421,0,"70F#6.ogg",100
Sample,87536,0,"72G#6.ogg",100
Sample,87651,0,"74A#6.ogg",100
Sample,87767,0,"72G#6.ogg",100
Sample,87767,0,"SVF_F5s.ogg",20
Sample,87882,0,"74A#6.ogg",100
Sample,87998,0,"75B6.ogg",100
Sample,88113,0,"79D#7.ogg",100
Sample,88228,0,"m_65.ogg",70
Sample,88344,0,"72G#6.ogg",100
Sample,88459,0,"74A#6.ogg",100
Sample,88574,0,"75B6.ogg",100
Sample,88690,0,"m_46.ogg",70
Sample,88690,0,"SVF_A#5ss.ogg",20
Sample,88805,0,"84G#7.ogg",100
Sample,88921,0,"82F#7.ogg",100
Sample,89036,0,"77C#7.ogg",100
Sample,89151,0,"m_45.ogg",70
Sample,89151,0,"SVF_G#5ss.ogg",20
Sample,89267,0,"70F#6.ogg",100
Sample,89382,0,"69F6.ogg",100
Sample,89498,0,"72G#6.ogg",100
Sample,89613,0,"m_70.ogg",100
Sample,89613,0,"SVF_F#5s.ogg",20
Sample,89844,0,"70F#6.ogg",100
Sample,89959,0,"72G#6.ogg",100
Sample,90074,0,"74A#6.ogg",100
Sample,90190,0,"70F#6.ogg",100
Sample,90305,0,"77C#7.ogg",100
Sample,90421,0,"79D#7.ogg",100
Sample,90536,0,"77C#7.ogg",100
Sample,90536,0,"SVF_D#5s.ogg",20
Sample,90651,0,"70F#6.ogg",100
Sample,90767,0,"69F6.ogg",100
Sample,90882,0,"70F#6.ogg",100
Sample,90998,0,"m_63.ogg",70
Sample,91113,0,"70F#6.ogg",100
Sample,91228,0,"69F6.ogg",100
Sample,91344,0,"70F#6.ogg",100
Sample,91459,0,"72G#6.ogg",100
Sample,91459,0,"SVF_F5s.ogg",20
Sample,91574,0,"65C#6.ogg",100
Sample,91690,0,"70F#6.ogg",100
Sample,91805,0,"72G#6.ogg",100
Sample,91921,0,"m_65.ogg",70
Sample,92036,0,"74A#6.ogg",100
Sample,92151,0,"72G#6.ogg",100
Sample,92267,0,"70F#6.ogg",100
Sample,92382,0,"m_62.ogg",100
Sample,92382,0,"m_72.ogg",100
Sample,92382,0,"SVF_F5s.ogg",20
Sample,93305,0,"m_43.ogg",50
Sample,93305,0,"m_50.ogg",50
Sample,93305,0,"m_62.ogg",70
Sample,93305,0,"m_58.ogg",70
Sample,93767,0,"58F#5.ogg",100
Sample,93998,0,"57F5.ogg",100
Sample,94228,0,"m_53.ogg",70
Sample,94228,0,"m_58.ogg",100
Sample,94690,0,"62A#5.ogg",100
Sample,94921,0,"67D#6.ogg",100
Sample,95151,0,"m_41.ogg",50
Sample,95151,0,"m_48.ogg",50
Sample,95151,0,"m_60.ogg",70
Sample,95151,0,"m_65.ogg",100
Sample,95613,0,"58F#5.ogg",100
Sample,95844,0,"63B5.ogg",100
Sample,96074,0,"m_46.ogg",50
Sample,96074,0,"m_62.ogg",100
Sample,96074,0,"m_58.ogg",50
Sample,96536,0,"m_60.ogg",70
Sample,96536,0,"m_57.ogg",70
Sample,96536,0,"m_45.ogg",50
Sample,96536,0,"62A#5.ogg",100
Sample,96767,0,"60G#5.ogg",100
Sample,96998,0,"m_43.ogg",50
Sample,96998,0,"m_50.ogg",50
Sample,96998,0,"m_58.ogg",100
Sample,97459,0,"62A#5.ogg",100
Sample,97690,0,"67D#6.ogg",100
Sample,97921,0,"m_58.ogg",70
Sample,97921,0,"m_62.ogg",70
Sample,97921,0,"m_39.ogg",50
Sample,97921,0,"m_46.ogg",50
Sample,98151,0,"58F#5.ogg",100
Sample,98382,0,"58F#5.ogg",100
Sample,98613,0,"60G#5.ogg",100
Sample,98844,0,"m_58.ogg",70
Sample,98844,0,"m_60.ogg",70
Sample,98844,0,"m_48.ogg",50
Sample,98844,0,"62A#5.ogg",100
Sample,99074,0,"65C#6.ogg",100
Sample,99305,0,"60G#5.ogg",100
Sample,99536,0,"58F#5.ogg",100
Sample,99767,0,"m_65.ogg",50
Sample,99767,0,"m_34.ogg",50
Sample,99767,0,"m_46.ogg",50
Sample,99767,0,"m_58.ogg",100
Sample,100228,0,"m_60.ogg",50
Sample,100228,0,"LR4_GreatDrumBS2.wav",70
Sample,100228,0,"m_33.ogg",50
Sample,100228,0,"m_45.ogg",50
Sample,100228,0,"62A#5.ogg",100
Sample,100690,0,"Kalimba_C#4.ogg",70
Sample,100690,0,"LR_Drum Kick Low.wav",40
Sample,100690,0,"m_31.ogg",50
Sample,100690,0,"m_65.ogg",100
Sample,100921,0,"Kalimba_A#3.ogg",70
Sample,100921,0,"LR_Drum Fast Hit Click.wav",40
Sample,100921,0,"m_38.ogg",50
Sample,101036,0,"Kalimba_A#3.ogg",70
Sample,101151,0,"LR_Drum Kick Low.wav",40
Sample,101151,0,"m_43.ogg",50
Sample,101151,0,"58F#5.ogg",100
Sample,101267,0,"Kalimba_F#4.ogg",70
Sample,101382,0,"57F5.ogg",100
Sample,101382,0,"LR_Drum Fast Hit Click.wav",40
Sample,101613,0,"LR_Drum Kick Low.wav",40
Sample,101613,0,"m_27.ogg",50
Sample,101613,0,"m_58.ogg",100
Sample,101844,0,"Kalimba_F#3.ogg",70
Sample,101844,0,"m_34.ogg",50
Sample,101844,0,"LR_Drum Fast Hit Click.wav",40
Sample,102074,0,"LR_Drum Kick Low.wav",40
Sample,102074,0,"m_43.ogg",50
Sample,102074,0,"62A#5.ogg",100
Sample,102305,0,"67D#6.ogg",100
Sample,102536,0,"Kalimba_F#4.ogg",70
Sample,102536,0,"LR_Drum Kick Low.wav",40
Sample,102536,0,"m_29.ogg",50
Sample,102536,0,"m_65.ogg",100
Sample,102767,0,"Kalimba_G#3.ogg",70
Sample,102767,0,"LR_Drum Fast Hit Click.wav",40
Sample,102767,0,"m_36.ogg",50
Sample,102882,0,"Kalimba_C#3.ogg",70
Sample,102998,0,"LR_Drum Kick Low.wav",40
Sample,102998,0,"m_41.ogg",50
Sample,102998,0,"58F#5.ogg",100
Sample,103113,0,"Kalimba_F#4.ogg",70
Sample,103228,0,"63B5.ogg",100
Sample,103228,0,"LR_Drum Fast Hit Click.wav",40
Sample,103459,0,"LR_Drum Kick Low.wav",40
Sample,103459,0,"m_46.ogg",50
Sample,103459,0,"m_34.ogg",50
Sample,103459,0,"m_62.ogg",100
Sample,103690,0,"Kalimba_C#4.ogg",70
Sample,103690,0,"LR_Drum Fast Hit Click.wav",40
Sample,103805,0,"LR_Drum Fast Hit Click.wav",40
Sample,103921,0,"LR_Drum Kick Low.wav",40
Sample,103921,0,"m_45.ogg",50
Sample,103921,0,"m_33.ogg",50
Sample,103921,0,"67D#6.ogg",100
Sample,104151,0,"69F6.ogg",100
Sample,104382,0,"Kalimba_F#4.ogg",70
Sample,104382,0,"LR_Drum Kick Low.wav",40
Sample,104382,0,"m_31.ogg",50
Sample,104382,0,"m_43.ogg",50
Sample,104382,0,"m_70.ogg",100
Sample,104613,0,"Kalimba_A#3.ogg",70
Sample,104613,0,"LR_Drum Fast Hit Click.wav",40
Sample,104613,0,"m_38.ogg",50
Sample,104728,0,"Kalimba_A#3.ogg",70
Sample,104844,0,"LR_Drum Kick Low.wav",40
Sample,104844,0,"m_43.ogg",50
Sample,104844,0,"69F6.ogg",100
Sample,104959,0,"Kalimba_F#4.ogg",70
Sample,105074,0,"67D#6.ogg",100
Sample,105074,0,"LR_Drum Fast Hit Click.wav",40
Sample,105305,0,"LR_Drum Kick Low.wav",40
Sample,105305,0,"m_27.ogg",50
Sample,105305,0,"65C#6.ogg",100
Sample,105536,0,"m_34.ogg",50
Sample,105536,0,"58F#5.ogg",100
Sample,105536,0,"LR_Drum Fast Hit Click.wav",40
Sample,105767,0,"LR_Drum Kick Low.wav",40
Sample,105767,0,"m_43.ogg",50
Sample,105767,0,"58F#5.ogg",100
Sample,105998,0,"62A#5.ogg",100
Sample,106228,0,"m_29.ogg",50
Sample,106228,0,"60G#5.ogg",100
Sample,106459,0,"LR_Drum Fast Hit Click.wav",40
Sample,106459,0,"m_36.ogg",50
Sample,106459,0,"62A#5.ogg",100
Sample,106574,0,"Kalimba_G#3.ogg",70
Sample,106690,0,"LR_Drum Kick Low.wav",40
Sample,106690,0,"m_41.ogg",50
Sample,106690,0,"60G#5.ogg",100
Sample,106921,0,"58F#5.ogg",100
Sample,106998,0,"LR_Tom Hit 2.wav",50
Sample,107074,0,"LR_Tom Hit 3.wav",50
Sample,107151,0,"m_42.ogg",50
Sample,107151,0,"m_33.ogg",50
Sample,107151,0,"m_62.ogg",50
Sample,107151,0,"m_57.ogg",50
Sample,107151,0,"m_54.ogg",50
Sample,107151,0,"m_50.ogg",50
Sample,107151,0,"m_60.ogg",100
Sample,108074,0,"m_58.ogg",50
Sample,108074,0,"m_53.ogg",50
Sample,108074,0,"19D#2.ogg",50
Sample,108074,0,"31D#3.ogg",50
Sample,108074,0,"m_65.ogg",100
Sample,108305,0,"LR_Drum Rpd x2.wav",70
Sample,108305,0,"31D#3.ogg",50
Sample,108421,0,"LR_Drum Rpd x2.wav",70
Sample,108421,0,"60G#5.ogg",50
Sample,108421,0,"53C#5.ogg",50
Sample,108536,0,"38A#3.ogg",50
Sample,108536,0,"34F#3.ogg",50
Sample,108536,0,"58F#5.ogg",100
Sample,108536,0,"LR_Drum Finish.wav",25
Sample,108651,0,"60G#5.ogg",50
Sample,108651,0,"53C#5.ogg",50
Sample,108767,0,"58F#5.ogg",50
Sample,108767,0,"31D#3.ogg",50
Sample,108767,0,"53C#5.ogg",50
Sample,108767,0,"57F5.ogg",100
Sample,108998,0,"m_53.ogg",50
Sample,108998,0,"39B3.ogg",50
Sample,108998,0,"27B2.ogg",50
Sample,108998,0,"m_62.ogg",50
Sample,108998,0,"m_58.ogg",100
Sample,109228,0,"LR_Drum Rpd x2.wav",70
Sample,109228,0,"34F#3.ogg",50
Sample,109344,0,"60G#5.ogg",50
Sample,109344,0,"53C#5.ogg",50
Sample,109459,0,"43D#4.ogg",50
Sample,109459,0,"39B3.ogg",50
Sample,109459,0,"62A#5.ogg",100
Sample,109574,0,"60G#5.ogg",50
Sample,109574,0,"53C#5.ogg",50
Sample,109690,0,"58F#5.ogg",50
Sample,109690,0,"34F#3.ogg",50
Sample,109690,0,"53C#5.ogg",50
Sample,109690,0,"67D#6.ogg",100
Sample,109805,0,"LR_Drum Rpd x2.wav",70
Sample,109921,0,"41C#4.ogg",50
Sample,109921,0,"29C#3.ogg",50
Sample,109921,0,"m_58.ogg",50
Sample,109921,0,"m_53.ogg",50
Sample,109921,0,"m_65.ogg",100
Sample,110151,0,"LR_Drum Rpd x2.wav",70
Sample,110151,0,"36G#3.ogg",50
Sample,110267,0,"LR_Drum Rpd x2.wav",70
Sample,110267,0,"58F#5.ogg",50
Sample,110267,0,"53C#5.ogg",50
Sample,110382,0,"41C#4.ogg",50
Sample,110382,0,"46F#4.ogg",50
Sample,110382,0,"58F#5.ogg",100
Sample,110498,0,"LR_Drum Rpd x2.wav",70
Sample,110498,0,"58F#5.ogg",50
Sample,110498,0,"53C#5.ogg",50
Sample,110613,0,"36G#3.ogg",50
Sample,110613,0,"60G#5.ogg",50
Sample,110613,0,"53C#5.ogg",50
Sample,110613,0,"63B5.ogg",100
Sample,110844,0,"22F#2.ogg",50
Sample,110844,0,"m_53.ogg",50
Sample,110844,0,"m_58.ogg",50
Sample,110844,0,"m_62.ogg",100
Sample,111074,0,"LR_Drum Rpd x2.wav",70
Sample,111074,0,"29C#3.ogg",50
Sample,111305,0,"21F2.ogg",50
Sample,111305,0,"33F3.ogg",50
Sample,111305,0,"62A#5.ogg",100
Sample,111305,0,"58F#5.ogg",50
Sample,111421,0,"LR_Drum Rpd x2.wav",70
Sample,111536,0,"29C#3.ogg",50
Sample,111536,0,"60G#5.ogg",100
Sample,111536,0,"63B5.ogg",50
Sample,111651,0,"LR_Drum Rpd x2.wav",70
Sample,111767,0,"19D#2.ogg",50
Sample,111767,0,"m_58.ogg",100
Sample,111767,0,"m_65.ogg",50
Sample,111767,0,"m_62.ogg",50
Sample,111998,0,"LR_Drum Rpd x2.wav",70
Sample,111998,0,"31D#3.ogg",50
Sample,112113,0,"LR_Drum Rpd x2.wav",70
Sample,112228,0,"38A#3.ogg",50
Sample,112228,0,"34F#3.ogg",50
Sample,112228,0,"58F#5.ogg",50
Sample,112228,0,"55D#5.ogg",50
Sample,112228,0,"62A#5.ogg",100
Sample,112459,0,"31D#3.ogg",50
Sample,112459,0,"60G#5.ogg",50
Sample,112459,0,"57F5.ogg",50
Sample,112459,0,"67D#6.ogg",100
Sample,112690,0,"39B3.ogg",50
Sample,112690,0,"58F#5.ogg",50
Sample,112690,0,"55D#5.ogg",50
Sample,112690,0,"65C#6.ogg",100
Sample,112921,0,"LR_Drum Rpd x2.wav",70
Sample,112921,0,"34F#3.ogg",50
Sample,112921,0,"58F#5.ogg",100
Sample,113151,0,"LR_Drum Hit Drop High.wav",50
Sample,113151,0,"39B3.ogg",50
Sample,113151,0,"43D#4.ogg",50
Sample,113151,0,"m_63.ogg",50
Sample,113151,0,"m_67.ogg",50
Sample,113382,0,"34F#3.ogg",50
Sample,113382,0,"60G#5.ogg",100
Sample,113613,0,"29C#3.ogg",50
Sample,113613,0,"41C#4.ogg",50
Sample,113613,0,"m_65.ogg",50
Sample,113613,0,"m_60.ogg",50
Sample,113613,0,"m_57.ogg",50
Sample,113613,0,"62A#5.ogg",100
Sample,113844,0,"36G#3.ogg",50
Sample,113844,0,"65C#6.ogg",100
Sample,113959,0,"LR_Drum Rpd x2.wav",70
Sample,114074,0,"46F#4.ogg",50
Sample,114074,0,"41C#4.ogg",50
Sample,114074,0,"53C#5.ogg",50
Sample,114074,0,"58F#5.ogg",50
Sample,114074,0,"60G#5.ogg",100
Sample,114305,0,"29C#3.ogg",50
Sample,114305,0,"51B4.ogg",50
Sample,114305,0,"60G#5.ogg",50
Sample,114305,0,"58F#5.ogg",100
Sample,114536,0,"34F#3.ogg",50
Sample,114536,0,"m_50.ogg",50
Sample,114536,0,"m_58.ogg",100
Sample,114651,0,"LR_Drum Rpd x2.wav",70
Sample,114767,0,"29C#3.ogg",50
Sample,114767,0,"LR_Drum Hit Drop High.wav",50
Sample,114998,0,"33F3.ogg",50
Sample,114998,0,"53C#5.ogg",50
Sample,114998,0,"58F#5.ogg",50
Sample,114998,0,"62A#5.ogg",100
Sample,114998,0,"LR_Drum Rpd x2.wav",70
Sample,115228,0,"29C#3.ogg",50
Sample,115228,0,"60G#5.ogg",50
Sample,115228,0,"63B5.ogg",100
Sample,115344,0,"LR_Drum Rpd x2.wav",70
Sample,115459,0,"19D#2.ogg",50
Sample,115459,0,"m_60.ogg",50
Sample,115459,0,"m_58.ogg",50
Sample,115459,0,"m_53.ogg",50
Sample,115459,0,"m_65.ogg",100
Sample,115459,0,"LR_Drum Finish.wav",30
Sample,115690,0,"LR_Drum Rpd x2.wav",70
Sample,115690,0,"31D#3.ogg",50
Sample,115805,0,"LR_Drum Rpd x2.wav",70
Sample,115805,0,"60G#5.ogg",50
Sample,115805,0,"53C#5.ogg",50
Sample,115921,0,"38A#3.ogg",50
Sample,115921,0,"34F#3.ogg",50
Sample,115921,0,"58F#5.ogg",100
Sample,116036,0,"60G#5.ogg",50
Sample,116036,0,"53C#5.ogg",50
Sample,116151,0,"31D#3.ogg",50
Sample,116151,0,"58F#5.ogg",50
Sample,116151,0,"53C#5.ogg",50
Sample,116151,0,"57F5.ogg",100
Sample,116382,0,"27B2.ogg",50
Sample,116382,0,"m_65.ogg",50
Sample,116382,0,"m_53.ogg",50
Sample,116382,0,"m_62.ogg",50
Sample,116382,0,"m_58.ogg",100
Sample,116613,0,"LR_Drum Rpd x2.wav",70
Sample,116613,0,"34F#3.ogg",50
Sample,116728,0,"60G#5.ogg",50
Sample,116728,0,"53C#5.ogg",50
Sample,116844,0,"43D#4.ogg",50
Sample,116844,0,"39B3.ogg",50
Sample,116844,0,"62A#5.ogg",100
Sample,116959,0,"60G#5.ogg",50
Sample,116959,0,"53C#5.ogg",50
Sample,117074,0,"34F#3.ogg",50
Sample,117074,0,"58F#5.ogg",50
Sample,117074,0,"53C#5.ogg",50
Sample,117074,0,"67D#6.ogg",100
Sample,117190,0,"LR_Drum Rpd x2.wav",70
Sample,117305,0,"29C#3.ogg",50
Sample,117305,0,"m_60.ogg",50
Sample,117305,0,"m_58.ogg",50
Sample,117305,0,"m_53.ogg",50
Sample,117305,0,"m_65.ogg",100
Sample,117536,0,"LR_Drum Rpd x2.wav",70
Sample,117536,0,"36G#3.ogg",50
Sample,117651,0,"LR_Drum Rpd x2.wav",70
Sample,117651,0,"58F#5.ogg",50
Sample,117651,0,"53C#5.ogg",50
Sample,117767,0,"41C#4.ogg",50
Sample,117767,0,"46F#4.ogg",50
Sample,117767,0,"58F#5.ogg",100
Sample,117882,0,"LR_Drum Rpd x2.wav",70
Sample,117882,0,"58F#5.ogg",50
Sample,117882,0,"53C#5.ogg",50
Sample,117998,0,"29C#3.ogg",50
Sample,117998,0,"60G#5.ogg",50
Sample,117998,0,"53C#5.ogg",50
Sample,117998,0,"63B5.ogg",100
Sample,118228,0,"22F#2.ogg",50
Sample,118228,0,"m_53.ogg",50
Sample,118228,0,"m_58.ogg",50
Sample,118228,0,"m_62.ogg",100
Sample,118459,0,"LR_Drum Rpd x2.wav",70
Sample,118459,0,"29C#3.ogg",50
Sample,118690,0,"33F3.ogg",50
Sample,118690,0,"21F2.ogg",50
Sample,118690,0,"62A#5.ogg",50
Sample,118690,0,"58F#5.ogg",50
Sample,118690,0,"67D#6.ogg",100
Sample,118921,0,"29C#3.ogg",50
Sample,118921,0,"63B5.ogg",50
Sample,118921,0,"60G#5.ogg",50
Sample,118921,0,"69F6.ogg",100
Sample,119151,0,"31D#3.ogg",50
Sample,119151,0,"m_65.ogg",50
Sample,119151,0,"m_62.ogg",50
Sample,119151,0,"m_58.ogg",50
Sample,119151,0,"m_70.ogg",100
Sample,119382,0,"LR_Drum Rpd x2.wav",70
Sample,119382,0,"31D#3.ogg",50
Sample,119498,0,"LR_Drum Rpd x2.wav",70
Sample,119613,0,"38A#3.ogg",50
Sample,119613,0,"34F#3.ogg",50
Sample,119613,0,"58F#5.ogg",50
Sample,119613,0,"55D#5.ogg",50
Sample,119613,0,"69F6.ogg",100
Sample,119844,0,"31D#3.ogg",50
Sample,119844,0,"60G#5.ogg",50
Sample,119844,0,"57F5.ogg",50
Sample,119844,0,"67D#6.ogg",100
Sample,120074,0,"27B2.ogg",50
Sample,120074,0,"58F#5.ogg",50
Sample,120074,0,"55D#5.ogg",50
Sample,120074,0,"65C#6.ogg",100
Sample,120305,0,"LR_Drum Rpd x2.wav",70
Sample,120305,0,"34F#3.ogg",50
Sample,120305,0,"58F#5.ogg",100
Sample,120536,0,"43D#4.ogg",50
Sample,120536,0,"39B3.ogg",50
Sample,120536,0,"m_63.ogg",50
Sample,120536,0,"m_67.ogg",50
Sample,120536,0,"58F#5.ogg",100
Sample,120767,0,"34F#3.ogg",50
Sample,120767,0,"62A#5.ogg",100
Sample,120998,0,"41C#4.ogg",50
Sample,120998,0,"29C#3.ogg",50
Sample,120998,0,"m_65.ogg",50
Sample,120998,0,"m_57.ogg",50
Sample,120998,0,"60G#5.ogg",100
Sample,121228,0,"36G#3.ogg",50
Sample,121228,0,"62A#5.ogg",100
Sample,121344,0,"LR_Drum Rpd x2.wav",70
Sample,121459,0,"41C#4.ogg",50
Sample,121459,0,"46F#4.ogg",50
Sample,121459,0,"53C#5.ogg",50
Sample,121459,0,"58F#5.ogg",50
Sample,121459,0,"60G#5.ogg",100
Sample,121690,0,"36G#3.ogg",50
Sample,121690,0,"51B4.ogg",50
Sample,121690,0,"60G#5.ogg",50
Sample,121690,0,"58F#5.ogg",100
Sample,121921,0,"34F#3.ogg",50
Sample,121921,0,"m_53.ogg",50
Sample,121921,0,"m_62.ogg",50
Sample,121921,0,"m_58.ogg",100
Sample,122036,0,"LR_Drum Hit Drop High.wav",40
Sample,122151,0,"LR_Drum Hit Drop High.wav",40
Sample,122151,0,"29C#3.ogg",50
Sample,122382,0,"58F#5.ogg",120
Sample,122382,0,"LR_Drum Hit Drop High.wav",40
Sample,122382,0,"21F2.ogg",50
Sample,122382,0,"33F3.ogg",50
Sample,122382,0,"m_53.ogg",50
Sample,122382,0,"m_60.ogg",50
Sample,122498,0,"60G#5.ogg",100
Sample,122613,0,"LR_Drum Hit Drop High.wav",40
Sample,122613,0,"29C#3.ogg",50
Sample,122613,0,"62A#5.ogg",120
Sample,122728,0,"LR_Drum Hit Drop High.wav",40
Sample,122728,0,"63B5.ogg",120
Sample,122844,0,"19D#2.ogg",50
Sample,122844,0,"m_58.ogg",50
Sample,122844,0,"m_53.ogg",50
Sample,122844,0,"m_60.ogg",50
Sample,122844,0,"m_65.ogg",100
Sample,122844,0,"LR_Drum Finish.wav",30
Sample,123074,0,"LR_Drum Rpd x2.wav",70
Sample,123074,0,"31D#3.ogg",50
Sample,123190,0,"LR_Drum Rpd x2.wav",70
Sample,123190,0,"60G#5.ogg",50
Sample,123190,0,"53C#5.ogg",50
Sample,123305,0,"34F#3.ogg",50
Sample,123305,0,"38A#3.ogg",50
Sample,123305,0,"58F#5.ogg",100
Sample,123421,0,"60G#5.ogg",50
Sample,123421,0,"53C#5.ogg",50
Sample,123536,0,"31D#3.ogg",50
Sample,123536,0,"58F#5.ogg",50
Sample,123536,0,"53C#5.ogg",50
Sample,123536,0,"57F5.ogg",100
Sample,123767,0,"39B3.ogg",50
Sample,123767,0,"m_65.ogg",50
Sample,123767,0,"m_53.ogg",50
Sample,123767,0,"m_62.ogg",50
Sample,123767,0,"m_58.ogg",100
Sample,123998,0,"LR_Drum Rpd x2.wav",70
Sample,123998,0,"34F#3.ogg",50
Sample,124113,0,"60G#5.ogg",50
Sample,124113,0,"53C#5.ogg",50
Sample,124228,0,"43D#4.ogg",50
Sample,124228,0,"39B3.ogg",50
Sample,124228,0,"62A#5.ogg",100
Sample,124344,0,"60G#5.ogg",50
Sample,124344,0,"53C#5.ogg",50
Sample,124459,0,"34F#3.ogg",50
Sample,124459,0,"58F#5.ogg",50
Sample,124459,0,"53C#5.ogg",50
Sample,124459,0,"67D#6.ogg",100
Sample,124574,0,"LR_Drum Rpd x2.wav",70
Sample,124690,0,"29C#3.ogg",50
Sample,124690,0,"m_60.ogg",50
Sample,124690,0,"m_58.ogg",50
Sample,124690,0,"m_53.ogg",50
Sample,124690,0,"m_65.ogg",100
Sample,124921,0,"LR_Drum Rpd x2.wav",70
Sample,124921,0,"36G#3.ogg",50
Sample,125036,0,"LR_Drum Rpd x2.wav",70
Sample,125036,0,"58F#5.ogg",50
Sample,125036,0,"53C#5.ogg",50
Sample,125151,0,"46F#4.ogg",50
Sample,125151,0,"41C#4.ogg",50
Sample,125151,0,"58F#5.ogg",100
Sample,125267,0,"LR_Drum Rpd x2.wav",70
Sample,125267,0,"58F#5.ogg",50
Sample,125267,0,"53C#5.ogg",50
Sample,125382,0,"36G#3.ogg",50
Sample,125382,0,"60G#5.ogg",50
Sample,125382,0,"53C#5.ogg",50
Sample,125382,0,"63B5.ogg",100
Sample,125613,0,"22F#2.ogg",50
Sample,125613,0,"m_53.ogg",50
Sample,125613,0,"m_58.ogg",50
Sample,125613,0,"m_62.ogg",100
Sample,125844,0,"Koto_A#3.ogg",50
Sample,125844,0,"LR_Drum Rpd x2.wav",70
Sample,125844,0,"29C#3.ogg",50
Sample,126074,0,"LR_Drum Hit Drop High.wav",50
Sample,126074,0,"21F2.ogg",50
Sample,126074,0,"33F3.ogg",50
Sample,126074,0,"62A#5.ogg",50
Sample,126074,0,"58F#5.ogg",100
Sample,126190,0,"LR_Drum Rpd x2.wav",70
Sample,126305,0,"LR_Drum Rpd x2.wav",70
Sample,126305,0,"29C#3.ogg",50
Sample,126305,0,"63B5.ogg",50
Sample,126305,0,"60G#5.ogg",100
Sample,126421,0,"LR_Drum Rpd x2.wav",70
Sample,126536,0,"19D#2.ogg",50
Sample,126536,0,"31D#3.ogg",50
Sample,126536,0,"m_65.ogg",50
Sample,126536,0,"m_62.ogg",50
Sample,126536,0,"m_58.ogg",100
Sample,126767,0,"LR_Drum Rpd x2.wav",70
Sample,126767,0,"31D#3.ogg",50
Sample,126824,0,"Koto_G#4.ogg",50
Sample,126882,0,"LR_Drum Rpd x2.wav",70
Sample,126998,0,"LR_Drum Hit Drop High.wav",50
Sample,126998,0,"38A#3.ogg",50
Sample,126998,0,"34F#3.ogg",50
Sample,126998,0,"58F#5.ogg",50
Sample,126998,0,"55D#5.ogg",50
Sample,127228,0,"LR_Drum Rpd x2.wav",70
Sample,127228,0,"31D#3.ogg",50
Sample,127228,0,"60G#5.ogg",50
Sample,127228,0,"57F5.ogg",50
Sample,127459,0,"LR_Drum Rpd x2.wav",70
Sample,127459,0,"27B2.ogg",50
Sample,127459,0,"39B3.ogg",50
Sample,127459,0,"58F#5.ogg",50
Sample,127459,0,"55D#5.ogg",50
Sample,127690,0,"Koto_F#3.ogg",50
Sample,127690,0,"LR_Drum Rpd x2.wav",70
Sample,127690,0,"34F#3.ogg",50
Sample,127921,0,"LR_Drum Hit Drop High.wav",50
Sample,127921,0,"39B3.ogg",50
Sample,127921,0,"43D#4.ogg",50
Sample,127921,0,"m_58.ogg",50
Sample,127921,0,"m_63.ogg",50
Sample,127921,0,"m_67.ogg",50
Sample,128151,0,"Koto_A#2.ogg",50
Sample,128151,0,"LR_Drum Rpd x2.wav",70
Sample,128151,0,"34F#3.ogg",50
Sample,128382,0,"29C#3.ogg",50
Sample,128382,0,"41C#4.ogg",50
Sample,128382,0,"m_65.ogg",50
Sample,128382,0,"m_60.ogg",50
Sample,128382,0,"m_57.ogg",50
Sample,128613,0,"LR_Drum Rpd x2.wav",70
Sample,128613,0,"36G#3.ogg",50
Sample,128728,0,"LR_Drum Rpd x2.wav",70
Sample,128844,0,"LR_Drum Hit Drop High.wav",50
Sample,128844,0,"41C#4.ogg",50
Sample,128844,0,"46F#4.ogg",50
Sample,128844,0,"53C#5.ogg",50
Sample,128844,0,"58F#5.ogg",50
Sample,129074,0,"LR_Drum Rpd x2.wav",70
Sample,129074,0,"36G#3.ogg",50
Sample,129074,0,"51B4.ogg",50
Sample,129074,0,"60G#5.ogg",50
Sample,129305,0,"LR_Drum Rpd x2.wav",70
Sample,129305,0,"34F#3.ogg",50
Sample,129305,0,"22F#2.ogg",50
Sample,129305,0,"m_50.ogg",50
Sample,129305,0,"m_58.ogg",50
Sample,129421,0,"LR_Drum Rpd x2.wav",70
Sample,129536,0,"29C#3.ogg",50
Sample,129536,0,"LR_Drum Hit Drop High.wav",50
Sample,129767,0,"Koto_G#4.ogg",50
Sample,129767,0,"33F3.ogg",50
Sample,129767,0,"21F2.ogg",50
Sample,129767,0,"62A#5.ogg",50
Sample,129767,0,"53C#5.ogg",50
Sample,129767,0,"58F#5.ogg",50
Sample,129998,0,"LR_Drum Hit Drop High.wav",50
Sample,129998,0,"29C#3.ogg",50
Sample,129998,0,"63B5.ogg",50
Sample,129998,0,"60G#5.ogg",50
Sample,130113,0,"LR_Drum Hit Drop High.wav",50
Sample,130228,0,"31D#3.ogg",50
Sample,130228,0,"m_60.ogg",50
Sample,130228,0,"m_58.ogg",50
Sample,130228,0,"m_53.ogg",50
Sample,130228,0,"m_65.ogg",100
Sample,130228,0,"LR_Drum Finish.wav",30
Sample,130459,0,"LR_Drum Rpd x2.wav",70
Sample,130459,0,"31D#3.ogg",50
Sample,130574,0,"LR_Drum Rpd x2.wav",70
Sample,130574,0,"60G#5.ogg",50
Sample,130574,0,"53C#5.ogg",50
Sample,130690,0,"34F#3.ogg",50
Sample,130690,0,"38A#3.ogg",50
Sample,130690,0,"58F#5.ogg",100
Sample,130805,0,"60G#5.ogg",50
Sample,130805,0,"53C#5.ogg",50
Sample,130921,0,"31D#3.ogg",50
Sample,130921,0,"58F#5.ogg",50
Sample,130921,0,"53C#5.ogg",50
Sample,130921,0,"57F5.ogg",100
Sample,131151,0,"39B3.ogg",50
Sample,131151,0,"m_65.ogg",50
Sample,131151,0,"m_53.ogg",50
Sample,131151,0,"m_62.ogg",50
Sample,131151,0,"m_58.ogg",100
Sample,131382,0,"LR_Drum Rpd x2.wav",70
Sample,131382,0,"34F#3.ogg",50
Sample,131498,0,"60G#5.ogg",50
Sample,131498,0,"53C#5.ogg",50
Sample,131613,0,"43D#4.ogg",50
Sample,131613,0,"39B3.ogg",50
Sample,131613,0,"62A#5.ogg",100
Sample,131728,0,"60G#5.ogg",50
Sample,131728,0,"53C#5.ogg",50
Sample,131844,0,"34F#3.ogg",50
Sample,131844,0,"58F#5.ogg",50
Sample,131844,0,"53C#5.ogg",50
Sample,131844,0,"67D#6.ogg",100
Sample,131959,0,"LR_Drum Rpd x2.wav",70
Sample,132074,0,"41C#4.ogg",50
Sample,132074,0,"m_60.ogg",50
Sample,132074,0,"m_58.ogg",50
Sample,132074,0,"m_53.ogg",50
Sample,132074,0,"m_65.ogg",100
Sample,132305,0,"LR_Drum Rpd x2.wav",70
Sample,132305,0,"36G#3.ogg",50
Sample,132421,0,"LR_Drum Rpd x2.wav",70
Sample,132421,0,"58F#5.ogg",50
Sample,132421,0,"53C#5.ogg",50
Sample,132536,0,"46F#4.ogg",50
Sample,132536,0,"41C#4.ogg",50
Sample,132536,0,"58F#5.ogg",100
Sample,132651,0,"LR_Drum Rpd x2.wav",70
Sample,132651,0,"58F#5.ogg",50
Sample,132651,0,"53C#5.ogg",50
Sample,132767,0,"29C#3.ogg",50
Sample,132767,0,"60G#5.ogg",50
Sample,132767,0,"53C#5.ogg",50
Sample,132767,0,"63B5.ogg",100
Sample,132998,0,"22F#2.ogg",50
Sample,132998,0,"m_53.ogg",50
Sample,132998,0,"m_58.ogg",50
Sample,132998,0,"m_62.ogg",100
Sample,133228,0,"LR_Drum Rpd x2.wav",70
Sample,133228,0,"29C#3.ogg",50
Sample,133459,0,"33F3.ogg",50
Sample,133459,0,"21F2.ogg",50
Sample,133459,0,"62A#5.ogg",50
Sample,133459,0,"58F#5.ogg",50
Sample,133459,0,"67D#6.ogg",100
Sample,133690,0,"29C#3.ogg",50
Sample,133690,0,"63B5.ogg",50
Sample,133690,0,"60G#5.ogg",50
Sample,133690,0,"69F6.ogg",100
Sample,133921,0,"19D#2.ogg",50
Sample,133921,0,"m_65.ogg",50
Sample,133921,0,"m_62.ogg",50
Sample,133921,0,"m_58.ogg",50
Sample,133921,0,"m_70.ogg",100
Sample,134151,0,"LR_Drum Rpd x2.wav",70
Sample,134151,0,"31D#3.ogg",50
Sample,134267,0,"LR_Drum Rpd x2.wav",70
Sample,134382,0,"34F#3.ogg",50
Sample,134382,0,"38A#3.ogg",50
Sample,134382,0,"58F#5.ogg",50
Sample,134382,0,"55D#5.ogg",50
Sample,134382,0,"69F6.ogg",100
Sample,134613,0,"31D#3.ogg",50
Sample,134613,0,"60G#5.ogg",50
Sample,134613,0,"57F5.ogg",50
Sample,134613,0,"67D#6.ogg",100
Sample,134844,0,"39B3.ogg",50
Sample,134844,0,"58F#5.ogg",50
Sample,134844,0,"55D#5.ogg",50
Sample,134844,0,"65C#6.ogg",100
Sample,135074,0,"LR_Drum Rpd x2.wav",70
Sample,135074,0,"34F#3.ogg",50
Sample,135074,0,"58F#5.ogg",100
Sample,135305,0,"39B3.ogg",50
Sample,135305,0,"43D#4.ogg",50
Sample,135305,0,"m_63.ogg",50
Sample,135305,0,"m_67.ogg",50
Sample,135305,0,"58F#5.ogg",100
Sample,135536,0,"34F#3.ogg",50
Sample,135536,0,"62A#5.ogg",100
Sample,135767,0,"29C#3.ogg",50
Sample,135767,0,"41C#4.ogg",50
Sample,135767,0,"m_65.ogg",50
Sample,135767,0,"m_57.ogg",50
Sample,135767,0,"60G#5.ogg",100
Sample,135998,0,"36G#3.ogg",50
Sample,135998,0,"62A#5.ogg",100
Sample,136113,0,"LR_Drum Rpd x2.wav",70
Sample,136228,0,"46F#4.ogg",50
Sample,136228,0,"41C#4.ogg",50
Sample,136228,0,"53C#5.ogg",50
Sample,136228,0,"58F#5.ogg",50
Sample,136228,0,"60G#5.ogg",100
Sample,136459,0,"LR_Drum Rpd x2.wav",70
Sample,136459,0,"51B4.ogg",50
Sample,136459,0,"60G#5.ogg",50
Sample,136459,0,"58F#5.ogg",100
Sample,136690,0,"22F#2.ogg",50
Sample,136690,0,"m_53.ogg",50
Sample,136690,0,"m_62.ogg",50
Sample,136690,0,"m_58.ogg",100
Sample,136805,0,"LR_Drum Hit Echo.wav",30
Sample,136921,0,"LR_Drum Hit Drop High.wav",50
Sample,136921,0,"RevCyRDW.wav",30
Sample,136921,0,"29C#3.ogg",50
Sample,137151,0,"33F3.ogg",50
Sample,137151,0,"m_53.ogg",50
Sample,137151,0,"m_60.ogg",100
Sample,137151,0,"LR_Drum Rpd x2.wav",70
Sample,137382,0,"29C#3.ogg",50
Sample,137382,0,"LR_Drum Rpd x2.wav",70
Sample,137613,0,"55D#5.ogg",100
Sample,137613,0,"19D#2.ogg",50
Sample,137613,0,"31D#3.ogg",50
Sample,137613,0,"m_58.ogg",100
Sample,137613,0,"LR_Drum Rpd x2.wav",70
Sample,137728,0,"53C#5.ogg",100
Sample,137844,0,"58F#5.ogg",100
Sample,137959,0,"62A#5.ogg",100
Sample,138074,0,"38A#3.ogg",50
Sample,138074,0,"34F#3.ogg",50
Sample,138074,0,"53C#5.ogg",100
Sample,138305,0,"62A#5.ogg",100
Sample,138305,0,"31D#3.ogg",50
Sample,138536,0,"m_65.ogg",100
Sample,138536,0,"LR_Drum Rpd x2.wav",70
Sample,138536,0,"39B3.ogg",50
Sample,138536,0,"27B2.ogg",50
Sample,138767,0,"46F#4.ogg",50
Sample,138998,0,"39B3.ogg",50
Sample,138998,0,"43D#4.ogg",50
Sample,139228,0,"46F#4.ogg",50
Sample,139459,0,"60G#5.ogg",100
Sample,139459,0,"65C#6.ogg",100
Sample,139459,0,"LR_Drum Rpd x2.wav",70
Sample,139459,0,"41C#4.ogg",50
Sample,139459,0,"29C#3.ogg",50
Sample,139574,0,"53C#5.ogg",100
Sample,139690,0,"48G#4.ogg",50
Sample,139805,0,"65C#6.ogg",100
Sample,139921,0,"LR_Drum Hit Open 2.wav",50
Sample,139921,0,"41C#4.ogg",50
Sample,140151,0,"65C#6.ogg",100
Sample,140151,0,"29C#3.ogg",50
Sample,140382,0,"m_65.ogg",100
Sample,140382,0,"LR_Drum Rpd x2.wav",70
Sample,140382,0,"SVF_F#5ss.ogg",30
Sample,140382,0,"34F#3.ogg",50
Sample,140382,0,"22F#2.ogg",50
Sample,140613,0,"41C#4.ogg",50
Sample,140844,0,"SVF_G#5ss.ogg",30
Sample,140844,0,"33F3.ogg",50
Sample,140844,0,"21F2.ogg",50
Sample,141074,0,"33F3.ogg",50
Sample,141305,0,"31D#3.ogg",50
Sample,141305,0,"19D#2.ogg",50
Sample,141305,0,"m_65.ogg",50
Sample,141305,0,"m_70.ogg",50
Sample,141305,0,"m_62.ogg",50
Sample,141305,0,"58F#5.ogg",100
Sample,141536,0,"57F5.ogg",100
Sample,141767,0,"65C#6.ogg",50
Sample,141767,0,"70F#6.ogg",50
Sample,141767,0,"62A#5.ogg",50
Sample,141767,0,"38A#3.ogg",50
Sample,141767,0,"34F#3.ogg",50
Sample,141767,0,"58F#5.ogg",100
Sample,141998,0,"31D#3.ogg",50
Sample,141998,0,"72G#6.ogg",50
Sample,141998,0,"60G#5.ogg",100
Sample,142228,0,"m_70.ogg",50
Sample,142228,0,"27B2.ogg",50
Sample,142228,0,"39B3.ogg",50
Sample,142228,0,"m_74.ogg",50
Sample,142228,0,"62A#5.ogg",100
Sample,142459,0,"57F5.ogg",100
Sample,142690,0,"39B3.ogg",50
Sample,142690,0,"43D#4.ogg",50
Sample,142690,0,"m_70.ogg",50
Sample,142690,0,"58F#5.ogg",100
Sample,142921,0,"34F#3.ogg",50
Sample,142921,0,"67D#6.ogg",100
Sample,143151,0,"41C#4.ogg",50
Sample,143151,0,"29C#3.ogg",50
Sample,143151,0,"m_72.ogg",50
Sample,143151,0,"m_60.ogg",50
Sample,143151,0,"65C#6.ogg",100
Sample,143382,0,"58F#5.ogg",100
Sample,143613,0,"41C#4.ogg",50
Sample,143613,0,"46F#4.ogg",50
Sample,143613,0,"58F#5.ogg",100
Sample,143844,0,"m_62.ogg",50
Sample,143844,0,"m_74.ogg",50
Sample,143844,0,"29C#3.ogg",50
Sample,143844,0,"60G#5.ogg",100
Sample,143873,0,"63B5.ogg",50
Sample,144074,0,"34F#3.ogg",50
Sample,144074,0,"m_74.ogg",50
Sample,144074,0,"m_62.ogg",50
Sample,144074,0,"m_58.ogg",100
Sample,144305,0,"LR_Drum Hit Drop High.wav",50
Sample,144305,0,"29C#3.ogg",50
Sample,144421,0,"LR_Drum Rpd x2.wav",70
Sample,144536,0,"33F3.ogg",50
Sample,144536,0,"58F#5.ogg",100
Sample,144651,0,"60G#5.ogg",100
Sample,144767,0,"LR_Drum Hit Drop High.wav",50
Sample,144767,0,"29C#3.ogg",50
Sample,144767,0,"58F#5.ogg",100
Sample,144882,0,"LR_Drum Hit Drop High.wav",50
Sample,144998,0,"LR_Drum Hit Echo.wav",30
Sample,144998,0,"19D#2.ogg",50
Sample,144998,0,"31D#3.ogg",50
Sample,145228,0,"31D#3.ogg",50
Sample,145344,0,"63B5.ogg",100
Sample,145459,0,"38A#3.ogg",50
Sample,145459,0,"34F#3.ogg",50
Sample,145459,0,"LR_Drum Hit Open 2.wav",50
Sample,145690,0,"31D#3.ogg",50
Sample,145805,0,"67D#6.ogg",100
Sample,145921,0,"LR_Drum Rpd x2.wav",70
Sample,145921,0,"39B3.ogg",50
Sample,145921,0,"27B2.ogg",50
Sample,146151,0,"34F#3.ogg",50
Sample,146267,0,"67D#6.ogg",100
Sample,146382,0,"LR_Drum Hit Open 2.wav",50
Sample,146382,0,"39B3.ogg",50
Sample,146382,0,"43D#4.ogg",50
Sample,146613,0,"34F#3.ogg",50
Sample,146728,0,"62A#5.ogg",100
Sample,146844,0,"LR_Drum Rpd x2.wav",70
Sample,146844,0,"SVF_F5s.ogg",30
Sample,146844,0,"41C#4.ogg",50
Sample,146844,0,"29C#3.ogg",50
Sample,147074,0,"36G#3.ogg",50
Sample,147190,0,"62A#5.ogg",100
Sample,147305,0,"LR_Drum Hit Open 2.wav",50
Sample,147305,0,"41C#4.ogg",50
Sample,147305,0,"46F#4.ogg",50
Sample,147536,0,"29C#3.ogg",50
Sample,147651,0,"60G#5.ogg",100
Sample,147767,0,"LR_Drum Rpd x2.wav",70
Sample,147767,0,"SVF_F#5ss.ogg",30
Sample,147767,0,"34F#3.ogg",50
Sample,147767,0,"22F#2.ogg",50
Sample,147998,0,"29C#3.ogg",50
Sample,148228,0,"LR_Drum Hit Open 2.wav",50
Sample,148228,0,"SVF_G#5ss.ogg",30
Sample,148228,0,"33F3.ogg",50
Sample,148228,0,"21F2.ogg",50
Sample,148459,0,"29C#3.ogg",50
Sample,148690,0,"19D#2.ogg",50
Sample,148690,0,"31D#3.ogg",50
Sample,148690,0,"62A#5.ogg",50
Sample,148690,0,"m_58.ogg",100
Sample,148921,0,"31D#3.ogg",50
Sample,148921,0,"62A#5.ogg",50
Sample,149036,0,"63B5.ogg",50
Sample,149151,0,"34F#3.ogg",50
Sample,149151,0,"38A#3.ogg",50
Sample,149151,0,"62A#5.ogg",50
Sample,149151,0,"58F#5.ogg",100
Sample,149382,0,"31D#3.ogg",50
Sample,149382,0,"62A#5.ogg",50
Sample,149382,0,"60G#5.ogg",100
Sample,149498,0,"67D#6.ogg",50
Sample,149613,0,"27B2.ogg",50
Sample,149613,0,"65C#6.ogg",50
Sample,149613,0,"m_58.ogg",100
Sample,149844,0,"34F#3.ogg",50
Sample,149844,0,"65C#6.ogg",50
Sample,149959,0,"67D#6.ogg",50
Sample,150074,0,"43D#4.ogg",50
Sample,150074,0,"39B3.ogg",50
Sample,150074,0,"58F#5.ogg",100
Sample,150305,0,"34F#3.ogg",50
Sample,150305,0,"58F#5.ogg",50
Sample,150305,0,"67D#6.ogg",100
Sample,150421,0,"62A#5.ogg",50
Sample,150536,0,"41C#4.ogg",50
Sample,150536,0,"29C#3.ogg",50
Sample,150536,0,"60G#5.ogg",50
Sample,150536,0,"m_65.ogg",100
Sample,150767,0,"36G#3.ogg",50
Sample,150767,0,"60G#5.ogg",50
Sample,150882,0,"62A#5.ogg",50
Sample,150998,0,"41C#4.ogg",50
Sample,150998,0,"46F#4.ogg",50
Sample,150998,0,"60G#5.ogg",50
Sample,150998,0,"58F#5.ogg",100
Sample,151228,0,"29C#3.ogg",50
Sample,151228,0,"58F#5.ogg",50
Sample,151228,0,"67D#6.ogg",100
Sample,151344,0,"57F5.ogg",50
Sample,151459,0,"34F#3.ogg",50
Sample,151459,0,"58F#5.ogg",50
Sample,151459,0,"m_65.ogg",100
Sample,151574,0,"LR_Drum Rpd x2.wav",50
Sample,151690,0,"53C#5.ogg",70
Sample,151690,0,"50A#4.ogg",100
Sample,151690,0,"LR_Drum Hit HAT.wav",30
Sample,151690,0,"38A#3.ogg",50
Sample,151921,0,"LR_Drum Hit Drop High.wav",50
Sample,151921,0,"36G#3.ogg",50
Sample,152036,0,"LR_Drum Rpd x2.wav",50
Sample,152151,0,"LR_Drum Hit HAT.wav",30
Sample,152151,0,"34F#3.ogg",50
Sample,153074,0,"l_27.ogg",80
Sample,153074,0,"l_15.ogg",80
Sample,153239,0,"55D#5.ogg",100
Sample,153371,0,"58F#5.ogg",100
Sample,153437,0,"62A#5.ogg",100
Sample,153536,0,"67D#6.ogg",100
Sample,153594,0,"70F#6.ogg",100
Sample,153651,0,"74A#6.ogg",100
Sample,153709,0,"m_79.ogg",100

[TimingPoints]
998,461.538461538462,4,2,1,30,1,0
34228,-100,4,2,1,30,0,1
48998,-100,4,2,1,30,0,0
108074,-100,4,2,1,30,0,1
137613,-100,4,2,1,30,0,0

[HitObjects]
192,192,305,5,0,0:0:0:100:50A#4.ogg
320,192,536,1,0,0:0:0:100:55D#5.ogg
448,192,767,1,0,0:0:0:100:57F5.ogg
192,192,998,1,0,0:0:0:100:m_59.ogg
320,192,1228,1,0,0:0:0:100:59G5.ogg
109,192,1459,128,0,1921:0:0:0:100:59G5.ogg
320,192,1921,1,0,0:0:0:100:62A#5.ogg
192,192,2151,1,0,0:0:0:100:62A#5.ogg
475,192,2382,128,0,2844:0:0:0:100:55D#5.ogg
109,192,2844,1,0,0:0:0:100:57F5.ogg
320,192,3074,1,0,0:0:0:100:57F5.ogg
192,192,3305,128,0,3767:0:0:0:100:57F5.ogg
402,192,3767,128,0,4228:0:0:0:100:59G5.ogg
320,192,4228,128,0,4690:0:0:0:100:57F5.ogg
448,192,4690,1,0,0:0:0:100:59G5.ogg
64,192,4921,1,0,0:0:0:100:59G5.ogg
192,192,5151,128,0,5613:0:0:0:100:59G5.ogg
64,192,5613,1,0,0:0:0:100:62A#5.ogg
448,192,5844,1,0,0:0:0:100:62A#5.ogg
320,192,6074,128,0,6536:0:0:0:100:55D#5.ogg
448,192,6536,1,0,0:0:0:100:57F5.ogg
192,192,6767,1,0,0:0:0:100:57F5.ogg
64,192,6998,128,0,7459:0:0:0:100:57F5.ogg
192,192,7459,128,0,7921:0:0:0:100:55D#5.ogg
448,192,7921,128,0,8382:0:0:0:100:55D#5.ogg
320,192,8382,1,0,0:0:0:100:59G5.ogg
192,192,8613,1,0,0:0:0:100:59G5.ogg
64,192,8844,128,0,9305:0:0:0:100:59G5.ogg
192,192,9305,1,0,0:0:0:100:62A#5.ogg
320,192,9536,1,0,0:0:0:100:62A#5.ogg
448,192,9767,128,0,10228:0:0:0:100:55D#5.ogg
64,192,10228,1,0,0:0:0:100:57F5.ogg
192,192,10459,1,0,0:0:0:100:57F5.ogg
448,192,10690,128,0,11151:0:0:0:100:57F5.ogg
64,192,11151,128,0,11613:0:0:0:100:59G5.ogg
320,192,11613,128,0,12074:0:0:0:100:57F5.ogg
448,192,12074,1,0,0:0:0:100:59G5.ogg
64,192,12305,1,0,0:0:0:100:59G5.ogg
320,192,12536,128,0,12998:0:0:0:100:59G5.ogg
192,192,12998,1,0,0:0:0:100:62A#5.ogg
109,192,13228,1,0,0:0:0:100:62A#5.ogg
448,192,13459,128,0,13921:0:0:0:100:55D#5.ogg
192,192,13921,1,0,0:0:0:100:57F5.ogg
64,192,14151,1,0,0:0:0:100:57F5.ogg
320,192,14382,128,0,14844:0:0:0:100:57F5.ogg
192,192,14844,128,0,15305:0:0:0:100:55D#5.ogg
448,192,15305,128,0,15767:0:0:0:70:50A#4.ogg
64,192,15767,1,0,0:0:0:50:62A#5.ogg
192,192,15998,1,0,0:0:0:50:43D#4.ogg
320,192,16228,1,0,0:0:0:30:Clap Normal.wav
448,192,16459,1,0,0:0:0:50:50A#4.ogg
320,192,16690,1,0,0:0:0:50:54D5.ogg
182,192,16921,1,0,0:0:0:70:59G5.ogg
329,192,17151,1,0,0:0:0:70:57F5.ogg
64,192,17382,1,0,0:0:0:50:50A#4.ogg
192,192,17613,128,0,18074:0:0:0:70:m_55.ogg
64,192,18074,1,0,0:0:0:30:Clap Normal.wav
192,192,18305,1,0,0:0:0:70:64C6.ogg
320,192,18536,128,0,18998:0:0:0:70:m_62.ogg
475,192,18998,1,0,0:0:0:30:Clap Normal.wav
192,192,19228,1,0,0:0:0:50:50A#4.ogg
64,192,19459,1,0,0:0:0:70:55D#5.ogg
448,192,19690,1,0,0:0:0:50:43D#4.ogg
192,192,19921,1,0,0:0:0:50:48G#4.ogg
320,192,20151,1,0,0:0:0:50:50A#4.ogg
64,192,20613,1,0,0:0:0:50:62A#5.ogg
320,192,20844,1,0,0:0:0:50:m_38.ogg
192,192,21074,1,0,0:0:0:70:54D5.ogg
402,192,21305,128,0,21767:0:0:0:70:m_55.ogg
64,192,21767,1,0,0:0:0:50:m_52.ogg
320,192,21998,1,0,0:0:0:50:59G5.ogg
192,192,22228,128,0,22690:0:0:0:50:m_35.ogg
64,192,22690,1,0,0:0:0:30:Clap Normal.wav
192,192,22921,1,0,0:0:0:70:52C5.ogg
448,192,23151,1,0,0:0:0:70:50A#4.ogg
320,192,23382,1,0,0:0:0:50:43D#4.ogg
192,192,23613,1,0,0:0:0:50:48G#4.ogg
36,192,23844,1,0,0:0:0:50:55D#5.ogg
320,192,24074,1,0,0:0:0:50:m_36.ogg
192,192,24305,1,0,0:0:0:50:50A#4.ogg
109,192,24536,1,0,0:0:0:50:m_38.ogg
448,192,24767,1,0,0:0:0:50:57F5.ogg
182,192,24998,128,0,25459:0:0:0:50:52C5.ogg
329,192,25459,1,0,0:0:0:50:m_52.ogg
448,192,25690,1,0,0:0:0:70:64C6.ogg
64,192,25921,128,0,26382:0:0:0:50:54D5.ogg
192,192,26382,1,0,0:0:0:50:50A#4.ogg
320,192,26613,1,0,0:0:0:50:42D4.ogg
448,192,26844,1,0,0:0:0:50:m_36.ogg
192,192,27074,1,0,0:0:0:50:43D#4.ogg
320,192,27305,1,0,0:0:0:50:48G#4.ogg
448,192,27536,1,0,0:0:0:50:43D#4.ogg
64,192,27536,1,0,0:0:0:50:62A#5.ogg
320,192,27998,1,0,0:0:0:50:57F5.ogg
448,192,28228,1,0,0:0:0:50:m_38.ogg
64,192,28459,1,0,0:0:0:50:57F5.ogg
182,192,28690,128,0,29151:0:0:0:50:m_40.ogg
36,192,29151,1,0,0:0:0:50:m_52.ogg
448,192,29382,1,0,0:0:0:70:57F5.ogg
320,192,29613,128,0,30074:0:0:0:50:35G3.ogg
192,192,30074,1,0,0:0:0:50:m_50.ogg
448,192,30536,128,0,31459:0:0:0:30:SVF_A#5.ogg
192,192,30536,1,0,0:0:0:50:m_43.ogg
320,192,31459,1,0,0:0:0:50:m_38.ogg
64,192,31459,128,0,32382:0:0:0:50:m_31.ogg
320,192,32382,128,0,33305:0:0:0:50:m_33.ogg
448,192,32382,1,0,0:0:0:50:m_26.ogg
64,192,33305,1,0,0:0:0:50:m_47.ogg
192,192,33305,128,0,34228:0:0:0:50:m_51.ogg
64,192,34228,128,0,34690:0:0:0:70:LR_Drum Rpd x2.wav
320,192,34228,1,0,0:0:0:50:28C3.ogg
192,192,34690,1,0,0:0:0:50:40C4.ogg
475,192,34921,1,0,0:0:0:50:35G3.ogg
320,192,35151,1,0,0:0:0:50:24G#2.ogg
64,192,35151,1,0,0:0:0:50:m_62.ogg
64,192,35613,1,0,0:0:0:50:36G#3.ogg
402,192,35844,1,0,0:0:0:50:31D#3.ogg
320,192,36074,1,0,0:0:0:50:26A#2.ogg
192,192,36074,1,0,0:0:0:50:38A#3.ogg
448,192,36536,1,0,0:0:0:50:38A#3.ogg
64,192,36767,1,0,0:0:0:50:33F3.ogg
192,192,36998,1,0,0:0:0:50:43D#4.ogg
320,192,36998,1,0,0:0:0:50:31D#3.ogg
448,192,37459,1,0,0:0:0:50:30D3.ogg
192,192,37690,1,0,0:0:0:50:38A#3.ogg
64,192,37921,1,0,0:0:0:50:40C4.ogg
320,192,37921,128,0,38382:0:0:0:50:28C3.ogg
448,192,38382,1,0,0:0:0:50:43D#4.ogg
64,192,38613,1,0,0:0:0:50:40C4.ogg
448,192,38844,128,0,39305:0:0:0:50:24G#2.ogg
192,192,38844,1,0,0:0:0:50:36G#3.ogg
64,192,39305,1,0,0:0:0:50:40C4.ogg
192,192,39536,1,0,0:0:0:50:31D#3.ogg
475,192,39767,1,0,0:0:0:50:38A#3.ogg
192,192,39998,1,0,0:0:0:50:33F3.ogg
64,192,40228,1,0,0:0:0:50:43D#4.ogg
320,192,40459,1,0,0:0:0:50:26A#2.ogg
64,192,40690,1,0,0:0:0:50:31D#3.ogg
448,192,40690,1,0,0:0:0:50:19D#2.ogg
64,192,41151,1,0,0:0:0:50:LR_Drum Hit Drop High.wav
192,192,41382,1,0,0:0:0:50:26A#2.ogg
320,192,41613,128,0,42074:0:0:0:50:16C2.ogg
448,192,41613,1,0,0:0:0:50:28C3.ogg
192,192,42074,1,0,0:0:0:50:35G3.ogg
64,192,42305,1,0,0:0:0:50:24G#2.ogg
320,192,42536,1,0,0:0:0:50:36G#3.ogg
448,192,42536,1,0,0:0:0:50:24G#2.ogg
448,192,42998,1,0,0:0:0:50:40C4.ogg
192,192,43228,1,0,0:0:0:50:31D#3.ogg
320,192,43459,1,0,0:0:0:50:38A#3.ogg
64,192,43459,1,0,0:0:0:50:26A#2.ogg
64,192,43921,1,0,0:0:0:50:38A#3.ogg
320,192,44151,1,0,0:0:0:50:26A#2.ogg
192,192,44382,1,0,0:0:0:50:31D#3.ogg
448,192,44382,1,0,0:0:0:70:LR_Drum Rpd x2.wav
320,192,44844,1,0,0:0:0:50:30D3.ogg
448,192,45074,1,0,0:0:0:50:26A#2.ogg
64,192,45305,128,0,45767:0:0:0:50:16C2.ogg
192,192,45305,1,0,0:0:0:50:28C3.ogg
448,192,45767,1,0,0:0:0:50:31D#3.ogg
320,192,45998,1,0,0:0:0:50:28C3.ogg
448,192,46228,128,0,46690:0:0:0:50:24G#2.ogg
64,192,46228,1,0,0:0:0:50:36G#3.ogg
192,192,46690,1,0,0:0:0:50:40C4.ogg
448,192,46921,1,0,0:0:0:50:31D#3.ogg
64,192,47151,1,0,0:0:0:50:38A#3.ogg
192,192,47382,1,0,0:0:0:50:33F3.ogg
448,192,47613,1,0,0:0:0:50:43D#4.ogg
320,192,47844,1,0,0:0:0:50:33F3.ogg
192,192,48074,1,0,0:0:0:50:43D#4.ogg
64,192,48074,1,0,0:0:0:50:31D#3.ogg
320,192,48536,128,0,48998:0:0:0:50:42D4.ogg
64,192,48536,1,0,0:0:0:50:30D3.ogg
64,192,48998,128,0,49459:0:0:0:100:m_59.ogg
448,192,48998,1,0,0:0:0:100:m_47.ogg
320,192,49228,1,0,0:0:0:30:LR_Drum Hit Open.wav
192,192,49459,1,0,0:0:0:100:55D#5.ogg
64,192,49921,1,0,0:0:0:100:m_62.ogg
448,192,49921,128,0,50382:0:0:0:100:m_55.ogg
192,192,50151,1,0,0:0:0:30:LR_Drum Hit Open.wav
320,192,50382,1,0,0:0:0:100:55D#5.ogg
64,192,50844,128,0,51305:0:0:0:100:m_57.ogg
192,192,50844,1,0,0:0:0:100:m_50.ogg
320,192,51074,1,0,0:0:0:30:LR_Drum Hit Open.wav
475,192,51305,1,0,0:0:0:100:55D#5.ogg
320,192,51536,1,0,0:0:0:100:57F5.ogg
192,192,51767,128,0,52228:0:0:0:100:m_59.ogg
64,192,51767,1,0,0:0:0:100:m_55.ogg
448,192,52228,1,0,0:0:0:100:m_50.ogg
320,192,52228,128,0,52690:0:0:0:100:m_57.ogg
192,192,52690,1,0,0:0:0:100:m_59.ogg
64,192,52690,128,0,53151:0:0:0:100:m_50.ogg
320,192,52921,1,0,0:0:0:30:LR_Drum Hit Open.wav
448,192,53151,1,0,0:0:0:100:55D#5.ogg
448,192,53613,128,0,54074:0:0:0:100:m_62.ogg
320,192,53613,1,0,0:0:0:100:m_55.ogg
192,192,53844,1,0,0:0:0:30:LR_Drum Hit Open.wav
64,192,54074,1,0,0:0:0:100:64C6.ogg
448,192,54536,1,0,0:0:0:100:m_50.ogg
64,192,54536,128,0,54998:0:0:0:100:m_57.ogg
320,192,54767,1,0,0:0:0:30:LR_Drum Hit Open.wav
192,192,54998,1,0,0:0:0:100:50A#4.ogg
320,192,55228,1,0,0:0:0:100:48G#4.ogg
448,192,55459,1,0,0:0:0:30:LR_Drum Hit Echo.wav
192,192,55690,1,0,0:0:0:30:LR_Drum Hit Drop High.wav
320,192,55921,1,0,0:0:0:50:m_50.ogg
64,192,56151,1,0,0:0:0:30:LR_Drum Hit Echo.wav
320,192,56382,1,0,0:0:0:100:m_59.ogg
448,192,56382,128,0,56844:0:0:0:100:m_47.ogg
192,192,56613,1,0,0:0:0:30:LR_Drum Hit Open.wav
64,192,56844,1,0,0:0:0:100:55D#5.ogg
320,192,56844,1,0,0:0:0:50:LR_Drum Finish.wav
64,192,57305,128,0,57767:0:0:0:100:m_62.ogg
448,192,57305,1,0,0:0:0:100:m_55.ogg
320,192,57536,1,0,0:0:0:30:LR_Drum Hit Open.wav
192,192,57767,1,0,0:0:0:100:55D#5.ogg
64,192,58228,128,0,58690:0:0:0:30:SVF_D5s.ogg
192,192,58228,1,0,0:0:0:100:m_57.ogg
320,192,58459,1,0,0:0:0:30:LR_Drum Hit Open.wav
448,192,58690,1,0,0:0:0:100:55D#5.ogg
320,192,58921,1,0,0:0:0:100:57F5.ogg
192,192,59151,128,0,59613:0:0:0:100:m_59.ogg
64,192,59151,1,0,0:0:0:100:m_55.ogg
448,192,59613,1,0,0:0:0:100:m_50.ogg
320,192,59613,128,0,60074:0:0:0:100:m_57.ogg
64,192,60074,1,0,0:0:0:100:m_59.ogg
448,192,60074,128,0,60536:0:0:0:100:m_50.ogg
192,192,60305,1,0,0:0:0:30:LR_Drum Hit Open.wav
320,192,60536,1,0,0:0:0:100:55D#5.ogg
448,192,60998,1,0,0:0:0:100:55D#5.ogg
64,192,60998,1,0,0:0:0:100:62A#5.ogg
320,192,61228,1,0,0:0:0:100:67D#6.ogg
192,192,61459,1,0,0:0:0:100:66D6.ogg
64,192,61690,1,0,0:0:0:100:64C6.ogg
448,192,61921,1,0,0:0:0:100:m_62.ogg
320,192,61921,128,0,62382:0:0:0:100:m_54.ogg
192,192,62382,1,0,0:0:0:100:50A#4.ogg
64,192,62613,1,0,0:0:0:100:48G#4.ogg
320,192,62844,1,0,0:0:0:100:m_55.ogg
475,192,62844,128,0,63305:0:0:0:100:m_47.ogg
192,192,63305,1,0,0:0:0:100:50A#4.ogg
329,192,63536,1,0,0:0:0:30:LR_Drum Hit Open.wav
448,192,63767,1,0,0:0:0:50:36G#3.ogg
192,192,63767,1,0,0:0:0:50:LR4_GreatDrumBS2.wav
64,192,63998,1,0,0:0:0:50:43D#4.ogg
448,192,64228,1,0,0:0:0:50:LR4_GreatDrumBS2.wav
64,192,64459,1,0,0:0:0:50:50A#4.ogg
320,192,64459,1,0,0:0:0:50:55D#5.ogg
64,192,64921,1,0,0:0:0:50:43D#4.ogg
192,192,65151,1,0,0:0:0:50:LR4_GreatDrumBS2.wav
256,192,65382,1,0,0:0:0:100:54D5.ogg
192,192,65613,1,0,0:0:0:60:52C5.ogg
402,192,65613,128,0,66074:0:0:0:50:LR4_GreatDrumBS2.wav
320,192,66074,1,0,0:0:0:60:74A#6.ogg
192,192,66305,1,0,0:0:0:60:69F6.ogg
320,192,66536,1,0,0:0:0:60:67D#6.ogg
64,192,66536,128,0,66998:0:0:0:50:LR4_GreatDrumBS2.wav
448,192,66998,1,0,0:0:0:60:69F6.ogg
192,192,67228,1,0,0:0:0:60:66D6.ogg
448,192,67459,1,0,0:0:0:60:67D#6.ogg
64,192,67459,1,0,0:0:0:60:64C6.ogg
320,192,67690,1,0,0:0:0:50:43D#4.ogg
192,192,67921,1,0,0:0:0:70:74A#6.ogg
64,192,68151,1,0,0:0:0:50:50A#4.ogg
448,192,68151,1,0,0:0:0:50:62A#5.ogg
182,192,68613,1,0,0:0:0:50:43D#4.ogg
402,192,68844,1,0,0:0:0:50:LR4_GreatDrumBS2.wav
64,192,69074,1,0,0:0:0:100:54D5.ogg
192,192,69305,1,0,0:0:0:50:LR4_GreatDrumBS2.wav
320,192,69305,128,0,69767:0:0:0:50:40C4.ogg
448,192,69767,1,0,0:0:0:60:67D#6.ogg
320,192,69998,1,0,0:0:0:60:64C6.ogg
192,192,70228,1,0,0:0:0:60:62A#5.ogg
64,192,70228,128,0,70690:0:0:0:60:59G5.ogg
320,192,70690,1,0,0:0:0:60:62A#5.ogg
192,192,70921,1,0,0:0:0:60:57F5.ogg
64,192,71151,1,0,0:0:0:60:59G5.ogg
448,192,71151,1,0,0:0:0:60:55D#5.ogg
192,192,71382,1,0,0:0:0:30:LR_Drum Hit HAT.wav
320,192,71613,1,0,0:0:0:70:83G7.ogg
448,192,71844,1,0,0:0:0:30:LR_Drum Hit HAT.wav
64,192,71844,1,0,0:0:0:50:50A#4.ogg
192,192,72305,1,0,0:0:0:30:LR_Drum Hit HAT.wav
64,192,72536,1,0,0:0:0:30:LR_Drum Rpd x2.wav
320,192,72767,1,0,0:0:0:30:LR_Drum Hit HAT.wav
448,192,72998,1,0,0:0:0:30:LR_Drum Rpd x2.wav
192,192,72998,128,0,73459:0:0:0:50:40C4.ogg
64,192,73459,1,0,0:0:0:60:74A#6.ogg
448,192,73690,1,0,0:0:0:60:69F6.ogg
192,192,73921,1,0,0:0:0:60:67D#6.ogg
320,192,74151,1,0,0:0:0:60:67D#6.ogg
448,192,74382,1,0,0:0:0:60:69F6.ogg
192,192,74613,1,0,0:0:0:60:66D6.ogg
64,192,74844,1,0,0:0:0:60:67D#6.ogg
320,192,74844,1,0,0:0:0:60:64C6.ogg
448,192,75074,1,0,0:0:0:30:LR_Drum Hit HAT.wav
64,192,75305,1,0,0:0:0:70:74A#6.ogg
448,192,75536,1,0,0:0:0:30:LR_Drum Hit HAT.wav
192,192,75536,1,0,0:0:0:50:50A#4.ogg
320,192,75998,5,0,0:0:0:100:59G5.ogg
36,192,76228,1,0,0:0:0:100:57F5.ogg
448,192,76228,1,0,0:0:0:50:m_35.ogg
182,192,76459,5,0,0:0:0:100:54D5.ogg
329,192,76690,1,0,0:0:0:50:m_33.ogg
448,192,76690,128,0,77151:0:0:0:30:LR_Drum Rpd x2.wav
192,192,77151,128,0,77613:0:0:0:50:m_48.ogg
64,192,77151,1,0,0:0:0:70:69F6.ogg
448,192,77613,1,0,0:0:0:50:m_38.ogg
320,192,77613,128,0,78074:0:0:0:70:69F6.ogg
64,192,78074,128,0,78536:0:0:0:50:m_39.ogg
192,192,78074,1,0,0:0:0:70:74A#6.ogg
192,192,78536,1,0,0:0:0:100:71G6.ogg
320,192,78767,1,0,0:0:0:70:m_47.ogg
475,192,78998,128,0,79459:0:0:0:100:74A#6.ogg
320,192,79459,1,0,0:0:0:100:74A#6.ogg
192,192,79690,1,0,0:0:0:70:m_55.ogg
64,192,79921,128,0,80382:0:0:0:100:78D7.ogg
448,192,80382,1,0,0:0:0:70:m_50.ogg
192,192,80613,1,0,0:0:0:100:69F6.ogg
448,192,80844,128,0,81305:0:0:0:100:72G#6.ogg
320,192,81305,128,0,81767:0:0:0:100:71G6.ogg
64,192,81767,128,0,82228:0:0:0:100:69F6.ogg
475,192,82228,1,0,0:0:0:100:67D#6.ogg
320,192,82459,1,0,0:0:0:100:64C6.ogg
192,192,82690,128,0,83151:0:0:0:100:m_67.ogg
64,192,83151,1,0,0:0:0:70:m_48.ogg
192,192,83382,1,0,0:0:0:100:66D6.ogg
329,192,83613,128,0,84074:0:0:0:100:64C6.ogg
64,192,84074,1,0,0:0:0:20:SVF_D5s.ogg
192,192,84305,1,0,0:0:0:70:m_45.ogg
320,192,84536,128,0,84998:0:0:0:100:69F6.ogg
475,192,84998,128,0,85459:0:0:0:100:69F6.ogg
192,192,85459,128,0,85921:0:0:0:100:m_67.ogg
320,192,85921,1,0,0:0:0:100:62A#5.ogg
64,192,86151,1,0,0:0:0:70:m_50.ogg
448,192,86382,128,0,86844:0:0:0:100:70F#6.ogg
109,192,86844,1,0,0:0:0:70:m_51.ogg
192,192,87074,1,0,0:0:0:100:77C#7.ogg
320,192,87305,128,0,87767:0:0:0:100:67D#6.ogg
448,192,87767,1,0,0:0:0:70:m_53.ogg
320,192,87998,1,0,0:0:0:70:m_60.ogg
192,192,88228,128,0,88690:0:0:0:100:77C#7.ogg
448,192,88690,128,0,89151:0:0:0:100:74A#6.ogg
64,192,89151,128,0,89613:0:0:0:100:72G#6.ogg
320,192,89613,1,0,0:0:0:70:m_43.ogg
448,192,89844,1,0,0:0:0:70:m_50.ogg
192,192,90074,128,0,90536:0:0:0:70:m_58.ogg
64,192,90536,1,0,0:0:0:70:m_51.ogg
320,192,90767,1,0,0:0:0:70:m_58.ogg
448,192,90998,128,0,91459:0:0:0:100:63B5.ogg
64,192,91459,1,0,0:0:0:70:m_53.ogg
192,192,91690,1,0,0:0:0:70:m_60.ogg
320,192,91921,128,0,92382:0:0:0:100:75B6.ogg
64,192,92382,1,0,0:0:0:70:m_42.ogg
448,192,92382,1,0,0:0:0:100:m_66.ogg
182,192,93305,1,0,0:0:0:70:m_53.ogg
320,192,93305,128,0,94228:0:0:0:100:m_65.ogg
448,192,94228,1,0,0:0:0:50:m_39.ogg
109,192,94228,128,0,95151:0:0:0:50:m_46.ogg
192,192,95151,1,0,0:0:0:70:m_53.ogg
475,192,95151,128,0,96074:0:0:0:70:m_58.ogg
320,192,96074,1,0,0:0:0:50:m_53.ogg
64,192,96074,128,0,96536:0:0:0:50:m_65.ogg
448,192,96536,128,0,96998:0:0:0:70:m_53.ogg
192,192,96998,128,0,97921:0:0:0:70:m_53.ogg
320,192,97921,1,0,0:0:0:70:m_53.ogg
64,192,97921,128,0,98844:0:0:0:100:m_65.ogg
448,192,98844,1,0,0:0:0:70:m_53.ogg
320,192,98844,128,0,99767:0:0:0:50:m_41.ogg
64,192,99767,1,0,0:0:0:50:m_53.ogg
192,192,99767,128,0,100228:0:0:0:70:LR4_GreatDrumBS2.wav
448,192,100228,1,0,0:0:0:50:m_53.ogg
64,192,100459,1,0,0:0:0:100:63B5.ogg
320,192,100690,128,0,101151:0:0:0:70:Kalimba_A#4.ogg
448,192,101151,1,0,0:0:0:70:Kalimba_C#4.ogg
64,192,101382,1,0,0:0:0:70:Kalimba_G#4.ogg
192,192,101613,128,0,102074:0:0:0:70:Kalimba_C#5.ogg
448,192,102074,1,0,0:0:0:70:Kalimba_F#4.ogg
320,192,102305,1,0,0:0:0:40:LR_Drum Fast Hit Click.wav
64,192,102536,128,0,102998:0:0:0:70:Kalimba_A#4.ogg
320,192,102998,1,0,0:0:0:70:Kalimba_C#4.ogg
448,192,103228,1,0,0:0:0:70:Kalimba_G#4.ogg
192,192,103459,128,0,103921:0:0:0:70:Kalimba_C#5.ogg
64,192,103921,1,0,0:0:0:70:Kalimba_G#4.ogg
320,192,104151,1,0,0:0:0:40:LR_Drum Fast Hit Click.wav
448,192,104382,128,0,104844:0:0:0:70:Kalimba_D#4.ogg
320,192,104844,1,0,0:0:0:70:Kalimba_C#4.ogg
64,192,105074,1,0,0:0:0:70:Kalimba_G#4.ogg
448,192,105305,1,0,0:0:0:70:Kalimba_C#5.ogg
192,192,105536,1,0,0:0:0:70:Kalimba_F#3.ogg
320,192,105767,1,0,0:0:0:70:Kalimba_F#4.ogg
182,192,105998,1,0,0:0:0:40:LR_Drum Fast Hit Click.wav
475,192,106228,1,0,0:0:0:70:Kalimba_C#4.ogg
64,192,106228,1,0,0:0:0:40:LR_Drum Kick Low.wav
192,192,106459,1,0,0:0:0:70:Kalimba_C#3.ogg
256,192,106690,1,0,0:0:0:70:Kalimba_C#3.ogg
448,192,106921,1,0,0:0:0:50:LR_Tom Hit.wav
64,192,107151,128,0,108074:0:0:0:50:RevCyCV2.wav
192,192,107151,128,0,108074:0:0:0:50:m_30.ogg
320,192,108074,128,0,108536:0:0:0:70:LR_Drum Rpd x2.wav
475,192,108074,1,0,0:0:0:50:m_60.ogg
64,192,108536,1,0,0:0:0:50:LR_Drum Hit Drop High.wav
448,192,108767,1,0,0:0:0:70:LR_Drum Rpd x2.wav
64,192,108998,1,0,0:0:0:70:LR_Drum Rpd x2.wav
192,192,108998,1,0,0:0:0:50:m_65.ogg
448,192,109459,1,0,0:0:0:50:LR_Drum Hit Drop High.wav
320,192,109690,1,0,0:0:0:70:LR_Drum Rpd x2.wav
192,192,109921,1,0,0:0:0:70:LR_Drum Rpd x2.wav
64,192,109921,1,0,0:0:0:50:m_60.ogg
64,192,110382,1,0,0:0:0:50:LR_Drum Hit Drop High.wav
192,192,110613,1,0,0:0:0:70:LR_Drum Rpd x2.wav
320,192,110844,1,0,0:0:0:70:LR_Drum Rpd x2.wav
448,192,110844,1,0,0:0:0:50:34F#3.ogg
448,192,111305,1,0,0:0:0:50:LR_Drum Hit Drop High.wav
320,192,111536,1,0,0:0:0:70:LR_Drum Rpd x2.wav
64,192,111767,128,0,112228:0:0:0:70:LR_Drum Rpd x2.wav
192,192,111767,1,0,0:0:0:50:31D#3.ogg
192,192,112228,1,0,0:0:0:50:LR_Drum Hit Drop High.wav
475,192,112459,1,0,0:0:0:70:LR_Drum Rpd x2.wav
320,192,112690,128,0,113151:0:0:0:70:LR_Drum Rpd x2.wav
64,192,112690,1,0,0:0:0:50:27B2.ogg
448,192,113151,1,0,0:0:0:100:58F#5.ogg
64,192,113382,1,0,0:0:0:70:LR_Drum Rpd x2.wav
448,192,113613,1,0,0:0:0:70:LR_Drum Rpd x2.wav
320,192,113844,1,0,0:0:0:70:LR_Drum Rpd x2.wav
64,192,114074,1,0,0:0:0:50:LR_Drum Hit Drop High.wav
192,192,114305,1,0,0:0:0:70:LR_Drum Rpd x2.wav
448,192,114536,1,0,0:0:0:70:LR_Drum Rpd x2.wav
320,192,114536,1,0,0:0:0:50:22F#2.ogg
64,192,114998,1,0,0:0:0:50:21F2.ogg
320,192,115228,1,0,0:0:0:50:LR_Drum Hit Drop High.wav
192,192,115459,128,0,115921:0:0:0:70:LR_Drum Rpd x2.wav
64,192,115459,1,0,0:0:0:50:31D#3.ogg
402,192,115921,1,0,0:0:0:50:LR_Drum Hit Drop High.wav
64,192,116151,1,0,0:0:0:70:LR_Drum Rpd x2.wav
448,192,116382,1,0,0:0:0:70:LR_Drum Rpd x2.wav
320,192,116382,1,0,0:0:0:50:39B3.ogg
192,192,116844,1,0,0:0:0:50:LR_Drum Hit Drop High.wav
320,192,117074,1,0,0:0:0:70:LR_Drum Rpd x2.wav
64,192,117305,1,0,0:0:0:70:LR_Drum Rpd x2.wav
448,192,117305,1,0,0:0:0:50:41C#4.ogg
320,192,117767,1,0,0:0:0:50:LR_Drum Hit Drop High.wav
192,192,117998,1,0,0:0:0:70:LR_Drum Rpd x2.wav
64,192,118228,1,0,0:0:0:70:LR_Drum Rpd x2.wav
448,192,118228,1,0,0:0:0:50:34F#3.ogg
192,192,118690,1,0,0:0:0:50:LR_Drum Hit Drop High.wav
320,192,118921,1,0,0:0:0:70:LR_Drum Rpd x2.wav
109,192,119151,128,0,119613:0:0:0:70:LR_Drum Rpd x2.wav
448,192,119151,1,0,0:0:0:50:19D#2.ogg
448,192,119613,1,0,0:0:0:50:LR_Drum Hit Drop High.wav
192,192,119844,1,0,0:0:0:70:LR_Drum Rpd x2.wav
320,192,120074,128,0,120536:0:0:0:70:LR_Drum Rpd x2.wav
448,192,120074,1,0,0:0:0:50:39B3.ogg
192,192,120536,1,0,0:0:0:50:LR_Drum Hit Drop High.wav
448,192,120767,1,0,0:0:0:70:LR_Drum Rpd x2.wav
64,192,120998,1,0,0:0:0:70:LR_Drum Rpd x2.wav
320,192,121228,1,0,0:0:0:70:LR_Drum Rpd x2.wav
448,192,121459,1,0,0:0:0:50:LR_Drum Hit Drop High.wav
192,192,121690,1,0,0:0:0:70:LR_Drum Rpd x2.wav
64,192,121921,128,0,122382:0:0:0:40:LR_Drum Hit Drop High.wav
320,192,121921,128,0,122382:0:0:0:50:22F#2.ogg
320,192,122844,128,0,123305:0:0:0:40:LR_Drum Hit Drop High.wav
475,192,122844,1,0,0:0:0:50:31D#3.ogg
192,192,123305,1,0,0:0:0:50:LR_Drum Hit Drop High.wav
448,192,123536,1,0,0:0:0:70:LR_Drum Rpd x2.wav
192,192,123767,1,0,0:0:0:70:LR_Drum Rpd x2.wav
64,192,123767,1,0,0:0:0:50:27B2.ogg
64,192,124228,1,0,0:0:0:50:LR_Drum Hit Drop High.wav
192,192,124459,1,0,0:0:0:70:LR_Drum Rpd x2.wav
320,192,124690,1,0,0:0:0:70:LR_Drum Rpd x2.wav
64,192,124690,1,0,0:0:0:50:41C#4.ogg
448,192,125151,1,0,0:0:0:50:LR_Drum Hit Drop High.wav
320,192,125382,1,0,0:0:0:70:LR_Drum Rpd x2.wav
192,192,125613,1,0,0:0:0:70:LR_Drum Rpd x2.wav
448,192,125613,1,0,0:0:0:50:34F#3.ogg
64,192,126074,1,0,0:0:0:50:Koto_C#4.ogg
192,192,126305,1,0,0:0:0:50:Koto_F#4.ogg
320,192,126536,1,0,0:0:0:50:Koto_G#4.ogg
64,192,126536,1,0,0:0:0:70:LR_Drum Rpd x2.wav
448,192,126767,1,0,0:0:0:50:Koto_F#4.ogg
320,192,126882,1,0,0:0:0:50:Koto_F#4.ogg
192,192,126998,1,0,0:0:0:50:Koto_C#4.ogg
320,192,127228,1,0,0:0:0:50:Koto_A#3.ogg
64,192,127459,128,0,127921:0:0:0:50:Koto_G#3.ogg
448,192,127921,1,0,0:0:0:50:Koto_C#3.ogg
192,192,128382,1,0,0:0:0:50:Koto_G#2.ogg
475,192,128382,1,0,0:0:0:70:LR_Drum Rpd x2.wav
64,192,128613,1,0,0:0:0:50:Koto_C#3.ogg
320,192,128844,1,0,0:0:0:50:Koto_F#3.ogg
192,192,129074,1,0,0:0:0:50:Koto_G#3.ogg
402,192,129305,1,0,0:0:0:50:Koto_A#3.ogg
320,192,129536,1,0,0:0:0:50:Koto_C#4.ogg
64,192,129767,1,0,0:0:0:70:LR_Drum Rpd x2.wav
192,192,129998,1,0,0:0:0:50:Koto_F#4.ogg
320,192,130228,1,0,0:0:0:30:LR_Drum Hit Echo.wav
475,192,130228,128,0,130690:0:0:0:50:19D#2.ogg
64,192,130690,1,0,0:0:0:50:LR_Drum Hit Drop High.wav
320,192,130921,1,0,0:0:0:70:LR_Drum Rpd x2.wav
64,192,131151,1,0,0:0:0:70:LR_Drum Rpd x2.wav
448,192,131151,1,0,0:0:0:50:27B2.ogg
192,192,131613,1,0,0:0:0:50:LR_Drum Hit Drop High.wav
448,192,131844,1,0,0:0:0:70:LR_Drum Rpd x2.wav
320,192,132074,1,0,0:0:0:70:LR_Drum Rpd x2.wav
64,192,132074,1,0,0:0:0:50:29C#3.ogg
320,192,132536,1,0,0:0:0:50:LR_Drum Hit Drop High.wav
64,192,132767,1,0,0:0:0:70:LR_Drum Rpd x2.wav
448,192,132998,1,0,0:0:0:70:LR_Drum Rpd x2.wav
192,192,132998,1,0,0:0:0:50:34F#3.ogg
320,192,133459,1,0,0:0:0:50:LR_Drum Hit Drop High.wav
64,192,133690,1,0,0:0:0:70:LR_Drum Rpd x2.wav
448,192,133921,128,0,134382:0:0:0:70:LR_Drum Rpd x2.wav
192,192,133921,1,0,0:0:0:50:31D#3.ogg
64,192,134382,1,0,0:0:0:50:LR_Drum Hit Drop High.wav
192,192,134613,1,0,0:0:0:70:LR_Drum Rpd x2.wav
329,192,134844,128,0,135305:0:0:0:70:LR_Drum Rpd x2.wav
448,192,134844,1,0,0:0:0:50:27B2.ogg
64,192,135305,1,0,0:0:0:50:LR_Drum Hit Drop High.wav
448,192,135536,1,0,0:0:0:70:LR_Drum Rpd x2.wav
192,192,135767,1,0,0:0:0:70:LR_Drum Rpd x2.wav
64,192,135998,1,0,0:0:0:70:LR_Drum Rpd x2.wav
320,192,136228,1,0,0:0:0:50:LR_Drum Hit Drop High.wav
448,192,136459,1,0,0:0:0:50:36G#3.ogg
64,192,136690,128,0,137151:0:0:0:70:LR_Drum Rpd x2.wav
192,192,136690,1,0,0:0:0:50:34F#3.ogg
448,192,137151,128,0,137382:0:0:0:50:m_57.ogg
320,192,137151,1,0,0:0:0:50:21F2.ogg
320,192,137613,5,0,0:0:0:100:62A#5.ogg
192,192,137844,1,0,0:0:0:50:31D#3.ogg
64,192,138074,1,0,0:0:0:30:LR_Drum Finish.wav
448,192,138074,1,0,0:0:0:50:LR_Drum Hit Open 2.wav
192,192,138190,1,0,0:0:0:100:62A#5.ogg
320,192,138305,1,0,0:0:0:100:67D#6.ogg
448,192,138536,1,0,0:0:0:100:m_58.ogg
192,192,138767,1,0,0:0:0:50:34F#3.ogg
320,192,138998,1,0,0:0:0:50:LR_Drum Hit Open 2.wav
64,192,139228,1,0,0:0:0:50:34F#3.ogg
320,192,139459,1,0,0:0:0:30:SVF_F5s.ogg
64,192,139690,1,0,0:0:0:100:60G#5.ogg
448,192,139921,1,0,0:0:0:100:60G#5.ogg
320,192,140036,1,0,0:0:0:100:65C#6.ogg
192,192,140151,1,0,0:0:0:100:72G#6.ogg
64,192,140382,1,0,0:0:0:100:m_74.ogg
448,192,140613,1,0,0:0:0:50:29C#3.ogg
448,192,140844,1,0,0:0:0:50:LR_Drum Hit Open 2.wav
192,192,141074,1,0,0:0:0:50:29C#3.ogg
64,192,141305,1,0,0:0:0:70:LR_Drum Rpd x2.wav
448,192,141305,1,0,0:0:0:30:SVF_F#5s.ogg
192,192,141536,1,0,0:0:0:50:31D#3.ogg
448,192,141767,1,0,0:0:0:50:LR_Drum Hit Open 2.wav
320,192,141998,1,0,0:0:0:23:SVF_F#5s.ogg
64,192,142228,1,0,0:0:0:70:LR_Drum Rpd x2.wav
448,192,142459,1,0,0:0:0:50:34F#3.ogg
192,192,142690,1,0,0:0:0:50:LR_Drum Hit Open 2.wav
320,192,142921,1,0,0:0:0:15:SVF_D#6ss.ogg
64,192,143151,1,0,0:0:0:70:LR_Drum Rpd x2.wav
192,192,143151,1,0,0:0:0:15:SVF_C#6s.ogg
320,192,143382,1,0,0:0:0:50:36G#3.ogg
448,192,143613,1,0,0:0:0:50:LR_Drum Hit Open 2.wav
320,192,143844,1,0,0:0:0:15:SVF_C#6s.ogg
192,192,144074,1,0,0:0:0:70:LR_Drum Rpd x2.wav
64,192,144074,128,0,144536:0:0:0:50:22F#2.ogg
320,192,144536,1,0,0:0:0:70:LR_Drum Rpd x2.wav
448,192,144536,128,0,144998:0:0:0:50:21F2.ogg
64,192,144998,5,0,0:0:0:100:62A#5.ogg
192,192,145228,1,0,0:0:0:100:62A#5.ogg
448,192,145459,1,0,0:0:0:100:62A#5.ogg
64,192,145459,1,0,0:0:0:50:LR_Drum Finish.wav
320,192,145690,1,0,0:0:0:100:62A#5.ogg
192,192,145921,1,0,0:0:0:100:65C#6.ogg
64,192,146151,1,0,0:0:0:100:65C#6.ogg
320,192,146382,1,0,0:0:0:100:58F#5.ogg
448,192,146613,1,0,0:0:0:100:58F#5.ogg
64,192,146844,1,0,0:0:0:100:60G#5.ogg
192,192,147074,1,0,0:0:0:100:60G#5.ogg
448,192,147305,1,0,0:0:0:100:60G#5.ogg
320,192,147536,1,0,0:0:0:100:65C#6.ogg
64,192,147767,1,0,0:0:0:100:62A#5.ogg
448,192,147998,1,0,0:0:0:100:53C#5.ogg
320,192,148228,1,0,0:0:0:100:58F#5.ogg
192,192,148459,1,0,0:0:0:100:60G#5.ogg
475,192,148690,128,0,149151:0:0:0:70:LR_Drum Rpd x2.wav
64,192,148690,1,0,0:0:0:30:SVF_F#5s.ogg
192,192,149151,1,0,0:0:0:50:LR_Drum Hit Open 2.wav
329,192,149382,1,0,0:0:0:23:SVF_F#5s.ogg
192,192,149613,128,0,150074:0:0:0:70:LR_Drum Rpd x2.wav
64,192,149613,1,0,0:0:0:50:39B3.ogg
320,192,150074,1,0,0:0:0:50:LR_Drum Hit Open 2.wav
192,192,150305,1,0,0:0:0:15:SVF_D#6ss.ogg
64,192,150536,128,0,150998:0:0:0:70:LR_Drum Rpd x2.wav
448,192,150536,1,0,0:0:0:15:SVF_C#6s.ogg
192,192,150998,1,0,0:0:0:50:LR_Drum Hit Open 2.wav
320,192,151228,1,0,0:0:0:15:SVF_C#6s.ogg
64,192,151459,1,0,0:0:0:50:LR_Drum Hit Drop High.wav
448,192,151459,128,0,151921:0:0:0:50:22F#2.ogg
192,192,151921,1,0,0:0:0:100:53C#5.ogg
64,192,151921,1,0,0:0:0:70:58F#5.ogg
402,192,152151,1,0,0:0:0:100:57F5.ogg
320,192,152151,1,0,0:0:0:70:60G#5.ogg
448,192,153074,128,0,157690:0:0:0:100:51B4.ogg
64,192,153074,128,0,157690:0:0:0:100:46F#4.ogg
