osu file format v14

[General]
AudioFilename: audio.mp3
AudioLeadIn: 0
PreviewTime: 157983
Countdown: 0
SampleSet: Soft
StackLeniency: 0.5
Mode: 0
LetterboxInBreaks: 0
WidescreenStoryboard: 1

[Editor]
Bookmarks: 648,21747,32296,53395,66582,87681,98230,111417,121967,135153,137791,158890,179989,189219,211637
DistanceSpacing: 0.4
BeatDivisor: 4
GridSize: 32
TimelineZoom: 2.5

[Metadata]
Title:Blizzard
TitleUnicode:ブリザード
Artist:Rokudenashi
ArtistUnicode:ロクデナシ
Creator:Weoweet
Version:Sorrow
Source:
Tags:Perseus MonsieurSebas nooj kyomii- Amami Yuu japanese rock jrock j-rock female vocal vocalist ninzin にんじん
BeatmapID:3877130
BeatmapSetID:1883140

[Difficulty]
HPDrainRate:5
CircleSize:4
OverallDifficulty:9
ApproachRate:9.2
SliderMultiplier:1.5
SliderTickRate:1

[Events]
//Background and Video events
0,0,"94228126_p0.jpg",0,0
//Break Periods
//Storyboard Layer 0 (Background)
//Storyboard Layer 1 (Fail)
//Storyboard Layer 2 (Pass)
//Storyboard Layer 3 (Foreground)
//Storyboard Layer 4 (Overlay)
//Storyboard Sound Samples

[TimingPoints]
648.421962451774,329.67032967033,4,2,2,40,1,0
5758,-100,4,2,1,30,0,0
5923,-100,4,2,2,40,0,0
8395,-100,4,2,1,30,0,0
8560,-100,4,2,2,40,0,0
9714,-100,4,2,1,30,0,0
9879,-100,4,2,1,60,0,0
10208,-100,4,2,2,40,0,0
11197,-100,4,2,2,50,0,0
13670,-100,4,2,1,30,0,0
13835,-100,4,2,2,50,0,0
20263,-100,4,2,1,30,0,0
20346,-100,4,2,1,40,0,0
20428,-100,4,2,1,50,0,0
21087,-100,4,2,2,50,0,0
21747,-66.6666666666667,4,2,1,60,0,0
32296,-83.3333333333333,4,2,1,50,0,0
33450,-83.3333333333333,4,2,1,30,0,0
33615,-83.3333333333333,4,2,1,50,0,0
34769,-83.3333333333333,4,2,1,30,0,0
34934,-83.3333333333333,4,2,1,50,0,0
37406,-83.3333333333333,4,2,1,30,0,0
37571,-83.3333333333333,4,2,1,50,0,0
40044,-83.3333333333333,4,2,1,30,0,0
40208,-83.3333333333333,4,2,1,50,0,0
40703,-83.3333333333333,4,2,1,30,0,0
40868,-83.3333333333333,4,2,1,50,0,0
41362,-83.3333333333333,4,2,1,40,0,0
41445,-83.3333333333333,4,2,1,50,0,0
41527,-83.3333333333333,4,2,1,60,0,0
42846,-66.6666666666667,4,2,1,60,0,0
53066,-66.6666666666667,4,2,2,60,0,0
53148,-66.6666666666667,4,2,1,60,0,0
53395,-133.333333333333,4,2,1,50,0,0
58340,-133.333333333333,4,2,2,50,0,0
58670,-133.333333333333,4,2,1,50,0,0
61307,-133.333333333333,4,2,2,50,0,0
62626,-100,4,2,1,50,0,0
66582,-58.8235294117647,4,2,1,70,0,1
74659,-100,4,2,1,70,0,1
76802,-100,4,2,2,70,0,1
76884,-100,4,2,1,70,0,1
77131,-58.8235294117647,4,2,1,70,0,1
85208,-71.4285714285714,4,2,1,70,0,1
87351,-71.4285714285714,4,2,2,70,0,1
87434,-71.4285714285714,4,2,1,70,0,1
87681,-66.6666666666667,4,2,1,60,0,0
106802,-200,4,2,1,35,0,0
107131,-133.333333333333,4,2,1,40,0,0
107461,-133.333333333333,4,2,1,45,0,0
107791,-133.333333333333,4,2,1,50,0,0
108120,-133.333333333333,4,2,1,55,0,0
108450,-133.333333333333,4,2,1,60,0,0
108780,-147.058823529412,4,2,1,65,0,0
111417,-83.3333333333333,4,2,1,60,0,0
121967,-71.4285714285714,4,2,1,60,0,0
131857,-133.333333333333,4,2,1,50,0,0
132516,-133.333333333333,4,2,1,55,0,0
133175,-100,4,2,1,60,0,0
133505,-100,4,2,1,65,0,0
133835,-100,4,2,1,70,0,0
134494,-200,4,2,1,75,0,0
135153,-238.095238095238,4,2,1,70,0,0
137791,-83.3333333333333,4,2,1,60,0,0
142736,-83.3333333333333,4,2,2,60,0,0
143066,-83.3333333333333,4,2,1,60,0,0
148011,-83.3333333333333,4,2,2,60,0,0
148175,-83.3333333333333,4,2,1,60,0,0
158560,-200,4,2,1,40,0,0
158890,-58.8235294117647,4,2,1,80,0,1
166967,-83.3333333333333,4,2,1,80,0,1
168780,-83.3333333333333,4,2,1,60,0,1
169109,-83.3333333333333,4,2,1,70,0,1
169439,-58.8235294117647,4,2,1,80,0,1
170098,-71.4285714285714,4,2,1,80,0,1
170758,-83.3333333333333,4,2,1,80,0,1
171417,-100,4,2,1,80,0,1
172076,-66.6666666666667,4,2,1,80,0,1
172736,-83.3333333333333,4,2,1,80,0,1
173395,-100,4,2,1,80,0,1
174714,-55.5555555555556,4,2,1,80,0,1
176033,-71.4285714285714,4,2,1,80,0,1
176692,-50,4,2,1,80,0,1
177351,-50,4,2,1,80,0,1
177846,-66.6666666666667,4,2,1,80,0,1
179989,-185.185185185185,4,2,1,70,0,0
182461,-185.185185185185,4,2,1,5,0,0
182626,-1000,4,2,1,60,0,0
184604,-133.333333333333,4,2,1,60,0,0
185098,-133.333333333333,4,2,1,5,0,0
185263,-500,4,2,1,60,0,0
187736,-500,4,2,1,5,0,0
187901,-1000,4,2,1,60,0,0
189219,-1000,4,2,1,15,0,0

[Colours]
Combo1 : 117,175,223
Combo2 : 142,136,172
Combo3 : 170,188,198
Combo4 : 135,190,170

[HitObjects]
5,27,648,6,0,P|45:67|44:98,1,75,2|0,3:2|0:2,0:2:0:0:
227,113,978,2,0,P|194:159|163:163,1,75,2|0,3:2|0:2,0:2:0:0:
101,144,1307,1,2,3:2:0:0:
351,230,1637,5,2,3:2:0:0:
351,230,1802,1,2,0:2:0:0:
351,230,1967,2,0,L|452:212,1,75,2|0,3:2|0:2,0:2:0:0:
308,309,2296,2,0,L|241:230,1,75,2|0,3:2|0:2,0:2:0:0:
397,306,2626,2,0,L|362:402,1,75,2|0,3:3|0:2,0:2:0:0:
0,291,2956,5,10,0:2:0:0:
0,291,3120,1,2,0:2:0:0:
0,291,3285,2,0,P|69:269|68:179,1,150,2|2,3:2|3:2,0:2:0:0:
171,236,3780,1,2,0:2:0:0:
171,236,3945,2,0,P|230:265|231:355,1,150,2|2,3:2|3:2,0:2:0:0:
163,374,4439,2,0,L|88:385,1,75,2|2,0:2|3:3,0:2:0:0:
224,164,4769,5,2,0:2:0:0:
224,164,4934,2,0,P|241:132|253:89,1,75,2|0,3:2|0:2,0:2:0:0:
149,0,5263,2,0,P|159:35|177:68,1,75,2|0,3:3|0:2,0:2:0:0:
512,37,5593,5,8,3:2:0:0:
444,6,5758,5,10,0:2:0:0:
444,6,5840,1,8,0:2:0:0:
444,5,5923,2,0,P|414:27|406:63,1,75,2|0,3:2|0:2,0:2:0:0:
252,95,6252,2,0,P|268:127|302:142,1,75,2|0,3:2|0:2,0:2:0:0:
381,140,6582,1,2,3:2:0:0:
136,257,6912,5,2,3:2:0:0:
136,257,7076,2,0,L|123:167,1,75,2|0,0:2|3:2,0:2:0:0:
184,329,7406,1,2,0:2:0:0:
184,329,7570,2,0,L|268:362,1,75,2|0,3:2|0:2,0:2:0:0:
105,331,7901,2,0,L|33:387,1,75,2|0,3:2|0:2,0:2:0:0:
114,30,8230,5,10,0:2:0:0:
69,109,8395,5,8,0:2:0:0:
69,109,8478,1,8,0:2:0:0:
69,109,8560,2,0,B|143:98|120:51|199:39,1,150,2|0,3:2|3:2,0:2:0:0:
455,198,9055,1,2,0:2:0:0:
455,198,9220,2,0,B|381:187|404:140|325:128,1,150,2|0,3:2|3:2,0:2:0:0:
239,107,9714,5,10,0:2:0:0:
250,112,9796,1,8,0:2:0:0:
253,101,9879,1,10,0:2:0:0:
231,260,10208,5,2,0:2:0:0:
222,0,10538,5,2,0:2:0:0:
261,378,10868,5,2,0:2:0:0:
69,307,11197,6,0,P|35:290|-19:281,1,75,2|0,3:2|0:2,0:2:0:0:
108,234,11527,2,0,P|144:225|177:208,1,75,2|0,3:2|0:2,0:2:0:0:
442,290,11857,6,0,P|423:353|372:360,1,112.5,2|0,3:2|0:2,0:2:0:0:
374,357,12186,2,0,P|362:322|331:303,1,75,2|0,3:2|0:2,0:2:0:0:
221,121,12516,6,0,L|231:46,1,75,2|0,3:2|0:2,0:2:0:0:
300,147,12846,2,0,L|310:221,1,75,2|0,3:2|0:2,0:2:0:0:
138,339,13175,6,0,L|4:309,1,112.5,0|0,3:3|0:2,0:2:0:0:
18,322,13505,1,10,0:2:0:0:
99,241,13670,5,8,0:2:0:0:
99,241,13752,1,8,0:2:0:0:
99,241,13835,2,0,P|139:230|163:196,1,75,2|0,3:2|0:2,0:2:0:0:
62,24,14164,2,0,P|79:61|117:79,1,75,2|0,3:2|0:2,0:2:0:0:
180,127,14494,5,2,3:2:0:0:
180,127,14659,1,2,0:2:0:0:
259,113,14824,1,2,3:2:0:0:
259,113,14989,1,2,0:2:0:0:
365,200,15153,6,0,P|419:214|496:256,1,112.5,2|0,3:2|0:2,0:2:0:0:
470,247,15483,2,0,P|436:211|449:184,1,75,2|0,3:2|0:2,0:2:0:0:
461,115,15813,2,0,B|426:97|426:97|404:125,1,75,2|0,3:2|0:2,0:2:0:0:
186,378,16142,5,10,0:2:0:0:
186,378,16307,1,2,0:2:0:0:
334,338,16472,1,2,3:2:0:0:
334,338,16802,2,0,L|249:317,1,75,2|0,3:2|0:2,0:2:0:0:
59,244,17131,6,0,P|26:228|5:196,1,75,2|0,3:2|0:2,0:2:0:0:
92,340,17461,2,0,P|112:309|145:292,1,75,2|0,3:2|0:2,0:2:0:0:
246,169,17791,6,0,B|256:113|291:137|302:76,1,112.5,2|0,3:2|0:2,0:2:0:0:
269,8,18120,1,2,3:2:0:0:
269,8,18285,1,2,0:2:0:0:
371,118,18450,2,0,L|466:130,1,75,2|0,3:3|0:2,0:2:0:0:
265,289,18780,5,10,0:2:0:0:
265,289,18945,1,2,0:2:0:0:
171,209,19109,2,0,L|96:218,1,75,2|0,3:2|0:2,0:2:0:0:
6,80,19439,5,2,3:2:0:0:
6,80,19604,1,2,0:2:0:0:
85,91,19769,1,2,3:2:0:0:
85,91,19934,1,2,0:2:0:0:
35,153,20098,5,2,3:2:0:0:
45,13,20263,1,10,0:2:0:0:
52,20,20346,1,8,0:2:0:0:
52,20,20428,1,10,0:2:0:0:
281,247,21087,6,0,B|291:287|257:323|249:308|210:337|224:378,1,150,2|8,0:3|0:2,0:2:0:0:
486,189,21747,6,0,B|400:209|400:209|379:196,1,112.500004291535,2|0,3:2|3:2,0:2:0:0:
271,76,22076,1,10,0:2:0:0:
395,119,22241,1,2,0:2:0:0:
317,139,22406,1,2,3:2:0:0:
321,144,22571,1,0,3:2:0:0:
359,26,22736,5,10,0:2:0:0:
286,219,22901,2,0,L|298:330,1,112.500004291535,2|0,0:2|3:2,0:2:0:0:
368,241,23230,5,2,3:2:0:0:
233,148,23395,2,0,B|178:135|178:135|153:186,1,112.500004291535,10|0,0:2|0:2,0:2:0:0:
286,219,23725,5,2,3:2:0:0:
286,219,23890,1,0,3:2:0:0:
104,253,24055,2,0,B|49:266|49:266|24:215,1,112.500004291535,8|0,0:2|0:2,0:2:0:0:
114,4,24384,6,0,B|98:93|98:93|79:105,1,112.500004291535,2|0,3:2|3:2,0:2:0:0:
34,0,24714,1,10,0:2:0:0:
179,98,24879,1,2,0:2:0:0:
256,72,25044,1,2,3:2:0:0:
256,72,25208,1,0,3:2:0:0:
341,173,25373,5,10,0:2:0:0:
242,332,25538,2,0,L|127:305,1,112.500004291535,2|0,0:2|3:2,0:2:0:0:
209,242,25868,5,2,3:2:0:0:
370,384,26033,2,0,B|421:359|421:359|408:304,1,112.500004291535,10|0,0:2|0:2,0:2:0:0:
328,311,26362,5,2,3:2:0:0:
328,311,26527,1,0,3:2:0:0:
463,232,26692,5,8,0:2:0:0:
456,193,26774,1,8,0:2:0:0:
448,153,26857,1,8,0:2:0:0:
441,114,26939,1,8,0:2:0:0:
434,74,27022,6,0,B|398:30|398:30|345:49,1,112.500004291535,2|0,3:2|3:2,0:2:0:0:
177,221,27351,1,10,0:2:0:0:
307,255,27516,1,2,0:2:0:0:
255,200,27681,1,2,3:2:0:0:
255,200,27846,1,0,3:2:0:0:
224,305,28011,5,10,0:2:0:0:
274,122,28175,2,0,L|255:2,1,112.500004291535,2|0,0:2|3:2,0:2:0:0:
186,69,28505,5,2,3:2:0:0:
339,175,28670,2,0,B|348:158|348:158|442:136,1,112.500004291535,10|0,0:2|0:2,0:2:0:0:
340,13,29000,5,2,3:2:0:0:
340,13,29164,1,0,3:2:0:0:
144,143,29329,2,0,B|53:121|53:121|44:104,1,112.500004291535,8|0,0:2|0:2,0:2:0:0:
100,307,29659,6,0,B|155:296|155:296|184:345,1,112.500004291535,2|0,3:2|3:2,0:2:0:0:
70,384,29989,1,10,0:2:0:0:
238,283,30153,1,2,0:2:0:0:
260,209,30318,1,2,3:2:0:0:
260,209,30483,1,0,3:2:0:0:
171,97,30648,5,10,0:2:0:0:
323,263,30813,2,0,L|456:241,1,112.500004291535,2|0,0:2|3:2,0:2:0:0:
397,331,31142,5,2,3:2:0:0:
247,124,31307,2,0,B|272:41|272:41|296:31,1,112.500004291535,10|0,0:2|0:2,0:2:0:0:
338,105,31637,5,4,0:3:0:0:
341,111,31720,1,4,0:3:0:0:
346,106,31802,1,4,0:3:0:0:
160,181,31967,5,4,0:3:0:0:
172,189,32050,1,4,0:3:0:0:
176,175,32132,1,4,0:3:0:0:
36,367,32296,6,0,P|94:340|99:310,1,89.9999972534181,2|0,3:2|0:2,0:2:0:0:
46,263,32626,1,2,3:2:0:0:
46,263,32791,1,2,0:2:0:0:
175,292,32956,6,0,P|235:314|242:378,1,134.999995880127,2|0,3:2|0:2,0:2:0:0:
235,384,33285,1,2,3:2:0:0:
320,307,33450,1,10,0:2:0:0:
320,307,33533,1,8,0:2:0:0:
320,307,33615,2,0,P|365:297|416:293,1,89.9999972534181,0|2,3:2|0:2,0:2:0:0:
278,104,33945,6,0,B|208:92|235:47|165:34,1,134.999995880127,2|0,3:2|0:2,0:2:0:0:
159,42,34274,2,0,P|214:52|233:28,1,89.9999972534181,2|0,3:2|0:2,0:2:0:0:
85,4,34604,1,2,3:2:0:0:
5,92,34769,5,10,0:2:0:0:
5,92,34851,1,8,0:2:0:0:
4,92,34934,2,0,P|68:101|88:162,1,134.999995880127,2|0,3:2|0:2,0:2:0:0:
82,168,35263,1,2,3:2:0:0:
149,209,35428,1,2,0:2:0:0:
27,295,35593,6,0,L|11:206,1,89.9999972534181,2|0,3:2|0:2,0:2:0:0:
242,102,35923,1,2,3:2:0:0:
242,102,36087,2,0,L|226:190,1,89.9999972534181,2|0,0:2|3:2,0:2:0:0:
407,372,36417,5,2,0:2:0:0:
407,372,36582,2,0,P|470:359|491:279,1,134.999995880127,2|0,3:2|0:2,0:2:0:0:
501,290,36912,2,0,B|473:269|473:269|328:294,1,179.999994506836,2|0,3:2|3:2,0:2:0:0:
172,71,37406,5,10,0:2:0:0:
172,71,37489,1,8,0:2:0:0:
172,71,37571,2,0,B|151:67|151:67|114:1,1,89.9999972534181,2|0,3:2|0:2,0:2:0:0:
248,89,37901,2,0,B|335:14|335:14|356:14,1,134.999995880127,2|0,3:2|0:2,0:2:0:0:
365,21,38230,1,2,3:2:0:0:
82,364,38560,5,2,3:2:0:0:
82,364,38725,2,0,B|37:376|37:376|8:343,1,89.9999972534181,2|0,0:2|3:2,0:2:0:0:
193,144,39055,1,2,0:2:0:0:
193,144,39220,2,0,B|238:132|238:132|267:165,1,89.9999972534181,2|0,3:2|0:2,0:2:0:0:
148,320,39549,6,0,L|125:177,1,134.999995880127,2|0,3:2|0:2,0:2:0:0:
121,182,39879,1,2,3:2:0:0:
236,271,40044,5,8,0:2:0:0:
236,271,40126,1,8,0:2:0:0:
236,271,40208,2,0,B|289:289|324:245|304:235|340:192|392:211,1,179.999994506836,2|0,3:2|3:2,0:2:0:0:
279,384,40703,5,10,0:2:0:0:
279,384,40785,1,8,0:2:0:0:
279,384,40867,2,0,B|226:402|191:358|211:348|175:305|123:324,1,179.999994506836,2|0,3:2|3:2,0:2:0:0:
261,101,41362,5,10,0:2:0:0:
275,78,41445,1,8,0:2:0:0:
256,25,41527,1,10,0:2:0:0:
289,180,41857,5,2,0:2:0:0:
226,324,42186,6,0,L|204:330,1,22.4999993133545,2|0,3:3|0:2,0:2:0:0:
306,274,42351,6,0,L|328:280,1,22.4999993133545,2|0,0:3|0:2,0:2:0:0:
151,192,42516,6,0,L|129:186,1,22.4999993133545,2|0,0:3|0:2,0:2:0:0:
350,118,42681,6,0,L|372:112,1,22.4999993133545,2|0,0:3|0:2,0:2:0:0:
50,36,42846,6,0,P|100:53|112:106,1,112.500004291535,2|0,3:2|3:2,0:2:0:0:
236,174,43175,2,0,P|314:158|333:80,1,168.750006437302,10|0,0:2|0:2,0:2:0:0:
314,10,43505,1,2,3:2:0:0:
314,10,43670,1,2,3:2:0:0:
152,178,43835,2,0,P|136:232|119:285,1,112.500004291535,10|2,0:2|0:2,0:2:0:0:
346,369,44164,6,0,B|408:355|384:323|441:313,1,112.500004291535,2|0,3:2|3:2,0:2:0:0:
119,285,44494,2,0,B|57:271|81:239|24:229,1,112.500004291535,10|0,0:2|0:2,0:2:0:0:
121,370,44824,1,2,3:2:0:0:
121,370,44989,1,2,3:2:0:0:
327,284,45153,1,10,0:2:0:0:
327,284,45318,1,2,0:2:0:0:
201,384,45483,6,0,P|247:338|231:277,1,112.500004291535,2|2,3:2|3:2,0:2:0:0:
101,95,45813,2,0,P|117:157|178:174,1,112.500004291535,10|2,0:2|0:2,0:2:0:0:
401,152,46142,2,0,P|338:135|293:179,1,112.500004291535,2|2,3:2|3:2,0:2:0:0:
238,214,46472,5,10,0:2:0:0:
238,214,46637,1,2,0:2:0:0:
408,341,46802,6,0,L|429:230,1,112.500004291535,2|0,3:2|3:2,0:2:0:0:
334,55,47131,1,10,0:2:0:0:
334,55,47461,5,2,3:2:0:0:
410,36,47626,1,0,3:2:0:0:
184,308,47791,5,10,0:2:0:0:
132,310,47873,1,8,0:2:0:0:
91,279,47956,1,8,0:2:0:0:
78,230,48038,1,8,0:2:0:0:
101,185,48120,6,0,P|166:198|228:215,1,112.500004291535,2|0,3:2|3:2,0:2:0:0:
114,24,48450,2,0,P|59:38|4:48,1,112.500004291535,10|0,0:2|0:2,0:2:0:0:
144,109,48780,5,2,3:2:0:0:
144,109,48945,1,0,3:2:0:0:
336,65,49109,2,0,P|388:49|415:1,1,112.500004291535,10|2,0:2|0:2,0:2:0:0:
415,1,49439,1,0,3:2:0:0:
272,153,49604,5,2,3:2:0:0:
205,22,49769,1,10,0:2:0:0:
205,22,49934,1,2,0:2:0:0:
9,237,50098,5,2,3:2:0:0:
83,250,50263,1,2,3:2:0:0:
57,176,50428,1,10,0:2:0:0:
166,317,50593,5,2,0:2:0:0:
166,317,50675,1,0,0:2:0:0:
166,317,50758,2,0,L|284:295,1,112.500004291535,2|0,3:2|3:2,0:2:0:0:
381,191,51087,1,8,0:2:0:0:
302,215,51252,5,2,0:2:0:0:
348,336,51417,2,0,L|459:357,1,112.500004291535,2|0,3:2|3:2,0:2:0:0:
202,72,51747,5,10,0:2:0:0:
279,87,51912,1,2,0:2:0:0:
191,70,52076,1,2,0:2:0:0:
381,161,52736,5,10,3:2:0:0:
351,186,52818,1,8,0:2:0:0:
339,223,52901,1,8,3:2:0:0:
344,261,52983,1,8,0:2:0:0:
335,279,53066,5,8,3:2:0:0:
389,267,53148,1,8,0:2:0:0:
440,291,53230,1,8,3:2:0:0:
469,338,53313,1,8,0:2:0:0:
462,348,53395,6,0,L|386:361,1,56.2500021457673,2|0,3:2|0:2,0:2:0:0:
460,241,53725,2,0,L|400:290,1,56.2500021457673,2|0,3:2|0:2,0:2:0:0:
404,149,54055,2,0,L|377:221,1,56.2500021457673,2|0,3:2|0:2,0:2:0:0:
220,330,54384,6,0,L|125:315,1,84.3750032186509,2|0,3:2|0:2,0:2:0:0:
128,320,54714,6,0,P|99:339|92:366,1,56.2500021457673,2|0,3:2|0:2,0:2:0:0:
15,341,55044,2,0,P|13:306|-6:286,1,56.2500021457673,2|0,3:2|0:2,0:2:0:0:
54,233,55373,2,0,P|84:248|111:241,1,56.2500021457673,2|0,3:2|0:2,0:2:0:0:
192,133,55703,5,2,3:2:0:0:
192,133,56033,6,0,L|186:71,2,56.2500021457673,2|0|0,3:2|0:2|3:2,0:2:0:0:
277,132,56527,5,2,0:2:0:0:
277,132,56692,2,0,B|286:159|286:159|266:177,1,56.2500021457673,2|0,3:2|0:2,0:2:0:0:
108,77,57022,2,0,B|98:50|98:50|119:31,1,56.2500021457673,2|0,3:2|0:2,0:2:0:0:
294,50,57351,6,0,L|364:36,1,56.2500021457673,2|0,3:2|0:2,0:2:0:0:
93,159,57681,2,0,L|37:147,1,56.2500021457673,2|0,3:2|0:2,0:2:0:0:
194,103,58011,1,2,3:2:0:0:
419,371,58340,5,8,0:2:0:0:
419,370,58670,6,0,P|436:349|460:333,1,56.2500021457673,2|0,3:2|0:2,0:2:0:0:
332,251,59000,2,0,P|355:266|373:288,1,56.2500021457673,10|0,0:2|0:2,0:2:0:0:
250,282,59329,6,0,P|230:318|193:337,1,84.3750032186509,2|0,3:2|0:2,0:2:0:0:
185,330,59659,2,0,P|144:319|102:314,1,84.3750032186509,10|0,0:2|0:2,0:2:0:0:
71,243,59989,6,0,L|63:181,1,56.2500021457673,2|0,3:2|0:2,0:2:0:0:
140,165,60318,1,10,0:2:0:0:
140,165,60483,1,2,0:2:0:0:
216,147,60648,2,0,L|224:85,1,56.2500021457673,2|0,3:2|0:2,0:2:0:0:
234,17,60978,1,10,0:2:0:0:
355,109,61142,5,0,3:2:0:0:
355,109,61225,1,0,3:2:0:0:
355,109,61307,2,0,P|391:94|427:86,1,56.2500021457673,10|0,0:2|0:2,0:2:0:0:
505,174,61802,5,0,3:2:0:0:
505,174,61885,1,0,3:2:0:0:
505,174,61967,2,0,P|478:165|452:154,1,56.2500021457673,10|0,0:2|0:2,0:2:0:0:
186,125,62461,5,0,3:2:0:0:
186,125,62544,1,0,3:2:0:0:
186,125,62626,2,0,B|190:85|156:61|145:80|109:51|116:4,1,150,10|0,0:2|0:2,0:2:0:0:
309,269,63120,5,0,3:2:0:0:
309,269,63203,1,0,3:2:0:0:
309,269,63285,2,0,B|304:229|338:205|349:224|385:195|378:148,1,150,10|0,0:2|0:2,0:2:0:0:
370,343,63780,5,0,3:2:0:0:
370,343,63862,1,0,3:2:0:0:
370,343,63945,1,10,0:2:0:0:
154,302,64192,1,0,3:2:0:0:
259,384,64439,5,0,3:2:0:0:
259,384,64522,1,0,3:2:0:0:
259,384,64604,1,10,0:2:0:0:
320,50,64934,5,0,3:2:0:0:
205,77,65098,1,0,3:2:0:0:
205,77,65181,1,0,3:2:0:0:
205,77,65263,1,10,0:2:0:0:
256,0,65593,5,8,0:2:0:0:
429,230,65923,6,0,P|465:223|501:212,1,75,2|0,3:2|0:2,0:2:0:0:
192,156,66252,1,10,0:2:0:0:
192,156,66582,5,6,3:2:0:0:
269,177,66747,1,0,3:2:0:0:
120,379,66912,2,0,B|111:314|63:335|57:271,1,127.50000243187,10|0,0:2|0:2,0:2:0:0:
366,163,67241,6,0,P|347:232|333:311,1,127.50000243187,2|0,3:2|3:2,0:2:0:0:
111,202,67571,2,0,P|98:139|81:78,1,127.50000243187,10|0,0:2|0:2,0:2:0:0:
290,82,67901,5,2,3:2:0:0:
187,234,68066,1,0,3:2:0:0:
18,162,68230,1,10,0:2:0:0:
233,1,68395,5,0,3:2:0:0:
233,1,68478,1,0,3:2:0:0:
233,1,68560,2,0,P|188:51|206:117,1,127.50000243187,2|0,3:2|3:2,0:2:0:0:
334,260,68890,6,0,B|391:270|418:228|395:207|429:161|486:175,1,191.250003647804,10|0,0:2|0:2,0:2:0:0:
493,184,69219,1,2,3:2:0:0:
483,263,69384,1,0,3:2:0:0:
276,364,69549,6,0,P|251:297|138:295,1,191.250003647804,10|0,0:2|0:2,0:2:0:0:
138,298,69879,1,2,3:2:0:0:
113,224,70044,1,0,3:2:0:0:
359,343,70208,6,0,P|430:355|521:376,1,127.50000243187,10|0,0:2|0:2,0:2:0:0:
362,99,70538,2,0,P|299:112|236:122,1,127.50000243187,2|0,3:2|3:2,0:2:0:0:
361,221,70868,5,8,0:2:0:0:
492,64,71033,1,0,3:2:0:0:
492,64,71115,1,0,3:2:0:0:
492,64,71197,1,2,3:2:0:0:
481,185,71362,1,0,3:2:0:0:
150,17,71527,5,10,0:2:0:0:
100,7,71609,1,8,0:2:0:0:
54,28,71692,1,8,0:2:0:0:
27,71,71774,1,8,0:2:0:0:
31,121,71857,6,0,B|97:129|71:173|139:183,1,127.50000243187,2|0,3:2|3:2,0:2:0:0:
439,268,72186,2,0,B|373:276|399:320|331:330,1,127.50000243187,10|0,0:2|0:2,0:2:0:0:
213,143,72516,5,2,3:2:0:0:
380,200,72681,1,0,3:2:0:0:
311,249,72846,2,0,L|290:123,1,127.50000243187,10|0,0:2|0:2,0:2:0:0:
460,42,73175,6,0,P|433:97|373:108,1,127.50000243187,2|0,3:2|3:2,0:2:0:0:
152,358,73505,2,0,P|178:302|238:291,1,127.50000243187,10|0,0:2|3:2,0:2:0:0:
250,304,73752,1,0,3:2:0:0:
250,304,73835,1,2,3:2:0:0:
269,378,74000,1,0,3:2:0:0:
72,303,74164,5,10,0:2:0:0:
83,252,74247,1,8,0:2:0:0:
94,202,74329,1,8,0:2:0:0:
105,152,74412,1,8,0:2:0:0:
117,102,74494,5,10,3:2:0:0:
314,251,74659,2,0,P|367:236|423:231,1,112.5,8|0,0:2|0:2,0:2:0:0:
434,235,74989,1,2,3:2:0:0:
181,36,75153,2,0,P|127:20|71:15,1,112.5,10|0,0:2|0:2,0:2:0:0:
62,21,75483,1,0,3:2:0:0:
34,92,75648,1,10,0:2:0:0:
260,326,75813,5,2,3:2:0:0:
215,127,75978,1,8,0:2:0:0:
178,274,76142,5,2,3:2:0:0:
299,179,76307,1,0,3:2:0:0:
372,384,76472,5,10,3:2:0:0:
401,381,76555,1,8,0:2:0:0:
427,366,76637,1,8,3:2:0:0:
444,341,76719,1,8,0:2:0:0:
465,343,76802,5,8,3:2:0:0:
436,304,76884,1,8,0:2:0:0:
433,254,76967,1,8,3:2:0:0:
455,210,77049,1,8,0:2:0:0:
496,185,77131,5,6,3:2:0:0:
481,111,77296,1,0,3:2:0:0:
261,234,77461,2,0,P|321:247|349:302,1,127.50000243187,10|0,0:2|0:2,0:2:0:0:
196,374,77791,6,0,P|184:311|168:249,1,127.50000243187,2|0,3:2|3:2,0:2:0:0:
400,54,78120,2,0,P|384:116|372:179,1,127.50000243187,10|0,0:2|0:2,0:2:0:0:
2,383,78450,5,2,3:2:0:0:
94,215,78615,1,0,3:2:0:0:
263,298,78780,1,10,0:2:0:0:
8,290,78945,5,0,3:2:0:0:
8,290,79027,1,0,3:2:0:0:
9,290,79109,2,0,P|67:310|85:369,1,127.50000243187,2|0,3:2|3:2,0:2:0:0:
210,176,79439,6,0,B|200:119|242:92|263:115|309:81|295:24,1,191.250003647804,10|0,0:2|0:2,0:2:0:0:
287,21,79769,1,2,3:2:0:0:
209,0,79934,1,0,3:2:0:0:
157,269,80098,6,0,P|252:254|347:242,1,191.250003647804,10|0,0:2|0:2,0:2:0:0:
358,245,80428,1,2,3:2:0:0:
378,172,80593,1,0,3:2:0:0:
105,16,80758,6,0,P|95:75|145:110,1,127.50000243187,10|0,0:2|0:2,0:2:0:0:
473,325,81087,2,0,P|483:265|433:231,1,127.50000243187,2|0,3:2|3:2,0:2:0:0:
96,202,81417,5,8,0:2:0:0:
263,162,81582,1,0,3:2:0:0:
263,162,81664,1,0,3:2:0:0:
263,162,81747,1,2,3:2:0:0:
195,247,81912,1,0,3:2:0:0:
341,13,82076,5,10,0:2:0:0:
391,3,82158,1,8,0:2:0:0:
437,24,82241,1,8,0:2:0:0:
464,67,82323,1,8,0:2:0:0:
460,117,82406,6,0,B|394:125|420:169|352:179,1,127.50000243187,2|0,3:2|3:2,0:2:0:0:
68,268,82736,2,0,B|134:276|108:320|176:330,1,127.50000243187,10|0,0:2|0:2,0:2:0:0:
331,305,83066,5,2,3:2:0:0:
183,198,83230,1,0,3:2:0:0:
267,164,83395,2,0,L|253:290,1,127.50000243187,10|0,0:2|0:2,0:2:0:0:
0,145,83725,5,2,3:2:0:0:
62,32,83890,1,0,3:2:0:0:
199,66,84055,1,10,0:2:0:0:
117,143,84219,5,0,3:2:0:0:
117,143,84302,1,0,3:2:0:0:
117,143,84384,1,2,3:2:0:0:
58,24,84549,1,0,3:2:0:0:
418,91,84714,5,10,0:2:0:0:
407,153,84796,1,8,0:2:0:0:
396,216,84879,1,8,0:2:0:0:
386,278,84961,1,8,0:2:0:0:
376,341,85044,5,2,3:2:0:0:
136,257,85208,2,0,B|90:266|65:230|81:222|59:186|6:189,1,157.499995193482,8|0,0:2|0:2,0:2:0:0:
1,193,85538,1,2,3:2:0:0:
260,31,85703,5,10,0:2:0:0:
215,132,85868,1,0,3:2:0:0:
147,50,86033,1,0,3:2:0:0:
427,180,86197,5,10,0:2:0:0:
277,341,86362,1,2,3:2:0:0:
215,132,86527,1,8,0:2:0:0:
308,226,86692,5,0,3:2:0:0:
308,226,86857,1,2,3:2:0:0:
57,7,87022,5,10,3:2:0:0:
30,26,87104,1,8,0:2:0:0:
15,53,87186,1,8,3:2:0:0:
15,85,87269,1,8,0:2:0:0:
1,104,87351,5,8,3:2:0:0:
51,120,87434,1,8,0:2:0:0:
90,154,87516,1,10,3:2:0:0:
116,200,87598,1,8,0:2:0:0:
118,252,87681,6,0,B|63:268|63:268|30:223,1,112.500004291535,2|0,3:2|3:2,0:2:0:0:
169,102,88011,2,0,B|213:134|213:134|197:189,1,112.500004291535,10|0,0:2|0:2,0:2:0:0:
204,272,88340,5,2,3:2:0:0:
204,272,88505,1,2,3:2:0:0:
332,357,88670,5,10,0:2:0:0:
403,328,88835,1,2,0:2:0:0:
278,241,89000,5,2,3:2:0:0:
258,384,89164,1,2,3:2:0:0:
350,187,89329,5,10,0:2:0:0:
422,249,89494,1,2,0:2:0:0:
367,104,89659,5,2,3:2:0:0:
452,90,89824,1,2,3:2:0:0:
452,90,89906,1,0,3:2:0:0:
452,90,89989,1,10,0:2:0:0:
358,104,90153,1,2,0:2:0:0:
240,0,90318,6,0,B|260:11|260:11|274:100,1,112.500004291535,2|0,3:2|3:2,0:2:0:0:
189,362,90648,2,0,B|169:351|169:351|155:262,1,112.500004291535,10|0,0:2|0:2,0:2:0:0:
124,127,90978,5,2,3:2:0:0:
206,144,91142,1,2,3:2:0:0:
206,144,91225,1,0,3:2:0:0:
206,144,91307,1,10,0:2:0:0:
226,218,91472,1,2,0:2:0:0:
61,191,91637,5,2,3:2:0:0:
113,50,91802,1,2,3:2:0:0:
112,262,91967,5,10,0:2:0:0:
226,218,92131,1,2,0:2:0:0:
132,344,92296,5,2,3:2:0:0:
208,366,92461,1,2,3:2:0:0:
346,175,92626,5,10,0:2:0:0:
367,129,92708,1,8,0:2:0:0:
357,78,92791,1,10,0:2:0:0:
314,50,92873,1,8,0:2:0:0:
263,57,92956,6,0,B|211:74|211:74|177:28,1,112.500004291535,2|0,3:2|3:2,0:2:0:0:
427,185,93285,2,0,B|467:221|467:221|444:273,1,112.500004291535,10|0,0:2|0:2,0:2:0:0:
284,362,93615,5,2,3:2:0:0:
264,292,93780,1,2,3:2:0:0:
264,292,93862,1,0,3:2:0:0:
264,292,93945,1,10,0:2:0:0:
325,247,94109,1,2,0:2:0:0:
177,188,94274,5,2,3:2:0:0:
201,350,94439,1,2,3:2:0:0:
100,160,94604,5,10,0:2:0:0:
19,259,94769,1,2,0:2:0:0:
81,83,94934,5,2,3:2:0:0:
5,114,95098,1,2,3:2:0:0:
5,114,95181,1,0,3:2:0:0:
5,114,95263,1,10,0:2:0:0:
91,80,95428,1,2,0:2:0:0:
94,369,95593,6,0,B|111:283|111:283|132:270,1,112.500004291535,6|0,3:2|0:2,0:2:0:0:
350,131,95923,2,0,B|332:216|332:216|311:229,1,112.500004291535,10|0,0:2|0:2,0:2:0:0:
213,285,96252,5,2,3:2:0:0:
197,214,96417,1,2,3:2:0:0:
197,214,96500,1,0,3:2:0:0:
197,214,96582,1,10,0:2:0:0:
257,166,96747,1,2,0:2:0:0:
482,293,96912,5,2,3:2:0:0:
462,384,97076,1,2,3:2:0:0:
421,228,97241,5,10,0:2:0:0:
294,303,97406,1,2,0:2:0:0:
409,146,97571,5,2,3:2:0:0:
205,105,97736,1,2,3:2:0:0:
449,15,97901,5,10,0:2:0:0:
397,0,97983,1,8,0:2:0:0:
349,15,98066,1,10,0:2:0:0:
319,57,98148,1,8,0:2:0:0:
323,107,98230,6,0,B|411:127|411:127|422:146,1,112.500004291535,6|0,3:2|3:2,0:2:0:0:
356,261,98560,1,10,0:2:0:0:
329,187,98725,1,2,0:2:0:0:
133,381,98890,1,2,3:3:0:0:
133,381,99219,5,10,0:2:0:0:
261,292,99384,2,0,B|314:275|314:275|347:321,1,112.500004291535,2|0,3:2|0:2,0:2:0:0:
215,225,99714,5,2,3:2:0:0:
415,366,99879,2,0,B|468:382|468:382|501:336,1,112.500004291535,10|0,0:2|0:2,0:2:0:0:
178,305,100208,6,0,L|7:267,1,168.750006437302,6|0,3:2|0:2,0:2:0:0:
0,192,100538,5,8,0:2:0:0:
0,141,100620,1,8,0:2:0:0:
35,104,100703,1,8,0:2:0:0:
85,101,100785,1,8,0:2:0:0:
127,129,100868,5,6,3:2:0:0:
114,206,101033,1,0,3:2:0:0:
207,105,101197,2,0,B|295:80|295:80|304:62,1,112.500004291535,10|0,0:2|0:2,0:2:0:0:
149,49,101527,1,2,3:2:0:0:
308,369,101774,5,0,3:2:0:0:
308,369,101857,1,10,0:2:0:0:
478,257,102022,1,2,3:2:0:0:
469,338,102351,5,14,0:2:0:0:
283,162,102516,1,10,0:2:0:0:
335,230,102846,5,4,0:3:0:0:
344,233,102928,1,4,0:3:0:0:
343,223,103011,1,4,0:3:0:0:
496,181,103175,5,8,0:2:0:0:
488,142,103258,1,8,0:2:0:0:
480,103,103340,1,8,0:2:0:0:
473,63,103423,1,8,0:2:0:0:
466,24,103505,6,0,B|412:11|412:11|380:57,1,112.500004291535,2|0,3:2|3:2,0:2:0:0:
248,161,103835,2,0,B|194:174|194:174|162:128,1,112.500004291535,10|0,0:2|0:2,0:2:0:0:
314,112,104164,1,2,3:3:0:0:
56,350,104412,5,2,0:3:0:0:
48,356,104494,2,0,B|47:382|47:382|60:356,1,56.2500021457673,10|0,0:2|0:2,0:2:0:0:
30,266,104659,2,0,B|7:251|7:251|23:276,1,56.2500021457673,2|0,3:3|0:2,0:2:0:0:
106,287,104989,5,2,3:2:0:0:
304,369,105153,2,0,L|436:345,1,112.500004291535,10|0,0:2|0:2,0:2:0:0:
215,384,105483,6,0,B|244:301|244:301|182:248,1,168.750006437302,6|0,3:2|0:2,0:2:0:0:
119,204,105813,5,8,0:2:0:0:
113,165,105895,1,8,0:2:0:0:
107,125,105978,1,8,0:2:0:0:
101,86,106060,1,8,0:2:0:0:
95,47,106142,5,6,3:2:0:0:
185,110,106472,5,2,3:2:0:0:
33,200,106802,6,8,L|13:206,3,18.75,10|8|8|8,3:2|0:2|0:2|0:2,0:2:0:0:
96,304,107131,6,8,L|64:336,3,28.1250010728836,10|8|8|8,3:2|0:2|0:2|0:2,0:2:0:0:
216,362,107461,5,10,3:2:0:0:
216,369,107544,1,8,0:2:0:0:
206,377,107626,1,8,0:2:0:0:
190,376,107708,1,8,0:2:0:0:
176,365,107791,1,8,3:2:0:0:
168,341,107873,1,8,0:2:0:0:
175,317,107956,1,8,0:2:0:0:
196,297,108038,1,8,0:2:0:0:
227,289,108120,1,10,3:2:0:0:
265,297,108203,1,8,0:2:0:0:
307,296,108285,1,8,0:2:0:0:
343,257,108368,1,8,0:2:0:0:
357,202,108450,1,8,3:2:0:0:
331,143,108533,1,8,0:2:0:0:
270,115,108615,1,8,0:2:0:0:
203,141,108697,1,8,0:2:0:0:
182,214,108780,6,0,B|220:174|267:195|267:195|290:191|355:160|369:90|359:14|359:14|364:90|342:133|286:158|277:115|208:141|184:171|180:189|181:211,1,612.000003735352,6|2,3:2|0:2,0:2:0:0:
180,207,111087,1,2,3:2:0:0:
464,163,111417,6,0,P|441:150|428:124,1,44.999998626709,2|0,3:2|0:2,0:2:0:0:
355,138,111582,1,2,0:2:0:0:
355,138,111664,2,0,P|354:111|370:87,1,44.999998626709,2|8,0:2|3:2,0:2:0:0:
322,31,111830,1,2,0:2:0:0:
322,31,111912,2,0,P|344:17|373:19,1,44.999998626709,2|0,0:2|0:2,0:2:0:0:
154,126,112076,6,0,L|109:118,1,44.999998626709,2|0,3:2|0:2,0:2:0:0:
7,190,112241,1,2,0:2:0:0:
7,190,112324,2,0,L|35:155,1,44.999998626709,2|8,3:2|3:2,0:2:0:0:
25,31,112488,1,2,0:2:0:0:
25,31,112571,2,0,L|40:73,1,44.999998626709,2|0,0:2|0:2,0:2:0:0:
277,252,112736,6,0,P|299:252|316:238,1,44.999998626709,2|0,3:2|0:2,0:2:0:0:
192,241,112901,1,2,0:2:0:0:
192,241,112983,2,0,P|203:222|199:200,1,44.999998626709,2|8,0:2|3:2,0:2:0:0:
139,309,113148,1,2,0:2:0:0:
139,309,113230,2,0,P|128:289|107:281,1,44.999998626709,2|0,0:2|0:2,0:2:0:0:
341,325,113395,6,0,L|396:336,1,44.999998626709,2|0,3:2|0:2,0:2:0:0:
267,344,113560,1,2,0:2:0:0:
267,344,113642,2,0,L|229:386,1,44.999998626709,2|8,3:2|3:2,0:2:0:0:
287,270,113808,1,2,0:2:0:0:
287,270,113890,2,0,L|269:216,1,44.999998626709,2|0,0:2|0:2,0:2:0:0:
60,348,114055,6,0,P|37:346|21:331,1,44.999998626709,2|0,3:2|0:2,0:2:0:0:
41,221,114219,1,2,0:2:0:0:
40,221,114302,2,0,P|63:220|102:305,1,89.9999972534181,2|0,0:2|0:2,0:2:0:0:
102,276,114549,2,0,P|96:248|108:220,1,44.999998626709,2|0,0:2|0:2,0:2:0:0:
240,147,114714,6,0,P|270:140|292:117,1,44.999998626709,2|0,3:2|0:2,0:2:0:0:
276,8,114879,1,2,0:2:0:0:
276,8,114961,2,0,P|266:37|275:67,1,44.999998626709,2|8,3:2|3:2,0:2:0:0:
378,109,115126,1,2,0:2:0:0:
378,109,115208,2,0,P|356:85|326:78,1,44.999998626709,2|0,0:2|0:2,0:2:0:0:
140,136,115373,6,0,B|74:130|98:74|26:66,1,134.999995880127,2|2,3:2|0:2,0:2:0:0:
20,72,115703,1,0,3:2:0:0:
151,56,115868,1,2,0:2:0:0:
275,278,116033,5,10,0:2:0:0:
105,241,116197,1,8,0:2:0:0:
218,106,116362,5,8,0:2:0:0:
171,356,116527,1,8,0:2:0:0:
448,371,116692,6,0,P|442:338|412:320,1,44.999998626709,2|0,3:2|0:2,0:2:0:0:
472,261,116857,1,2,0:2:0:0:
472,261,116939,2,0,P|440:249|409:266,1,44.999998626709,2|8,0:2|3:2,0:2:0:0:
388,185,117104,1,2,0:2:0:0:
388,185,117186,2,0,P|362:206|361:241,1,44.999998626709,2|0,0:2|0:2,0:2:0:0:
171,356,117351,6,0,L|127:347,1,44.999998626709,2|0,3:2|0:2,0:2:0:0:
304,327,117516,1,2,0:2:0:0:
304,327,117598,2,0,L|333:293,1,44.999998626709,2|8,3:2|3:2,0:2:0:0:
226,289,117763,1,2,0:2:0:0:
226,289,117845,2,0,L|211:246,1,44.999998626709,2|0,0:2|0:2,0:2:0:0:
322,38,118011,6,0,P|336:21|341:0,1,44.999998626709,2|0,3:2|0:2,0:2:0:0:
400,76,118175,1,2,0:2:0:0:
400,76,118258,2,0,P|421:80|442:73,1,44.999998626709,2|8,0:2|3:2,0:2:0:0:
406,162,118422,1,2,0:2:0:0:
406,162,118505,2,0,P|413:183|429:197,1,44.999998626709,2|0,0:2|0:2,0:2:0:0:
198,68,118670,6,0,L|204:23,1,44.999998626709,2|0,3:2|0:2,0:2:0:0:
146,130,118835,1,2,0:2:0:0:
146,130,118917,2,0,L|104:146,1,44.999998626709,2|8,3:2|3:2,0:2:0:0:
227,148,119082,1,2,0:2:0:0:
227,148,119164,2,0,L|262:175,1,44.999998626709,2|0,0:2|0:2,0:2:0:0:
103,236,119329,6,0,P|87:252|82:274,1,44.999998626709,2|0,3:2|0:2,0:2:0:0:
171,359,119494,1,2,0:2:0:0:
171,359,119576,2,0,P|164:337|148:322,1,44.999998626709,2|8,0:2|3:2,0:2:0:0:
30,356,119742,1,2,0:2:0:0:
30,356,119824,2,0,P|51:360|73:354,1,44.999998626709,2|0,0:2|0:2,0:2:0:0:
48,166,119989,6,0,L|35:115,1,44.999998626709,2|0,3:2|0:2,0:2:0:0:
125,150,120153,1,2,0:2:0:0:
125,150,120236,2,0,L|112:99,1,44.999998626709,2|0,3:2|0:2,0:2:0:0:
202,135,120401,1,2,0:2:0:0:
202,135,120483,2,0,L|189:84,1,44.999998626709,2|0,0:2|0:2,0:2:0:0:
351,13,120648,6,0,P|407:23|436:97,1,134.999995880127,2|2,3:2|0:2,0:2:0:0:
436,98,120978,2,0,P|395:69|405:28,1,89.9999972534181,8|2,3:2|0:2,0:2:0:0:
493,155,121307,1,10,0:2:0:0:
230,232,121637,5,10,0:2:0:0:
230,232,121802,1,2,0:2:0:0:
362,292,121967,6,0,P|287:296|262:366,1,157.499995193482,2|0,3:2|0:2,0:2:0:0:
270,377,122296,1,0,3:2:0:0:
353,376,122461,5,2,0:2:0:0:
181,316,122626,2,0,P|130:289|119:233,1,104.999996795654,2|0,3:2|0:2,0:2:0:0:
166,187,122873,1,0,3:2:0:0:
166,187,122956,1,8,3:2:0:0:
130,77,123120,5,2,0:2:0:0:
312,161,123285,2,0,P|390:174|466:190,1,157.499995193482,2|0,3:2|0:2,0:2:0:0:
471,198,123615,1,10,3:2:0:0:
401,99,123780,1,2,0:2:0:0:
314,239,123945,2,0,P|262:251|211:260,1,104.999996795654,2|0,3:2|0:2,0:2:0:0:
150,316,124191,5,0,3:2:0:0:
150,316,124274,1,10,3:2:0:0:
225,339,124439,1,2,0:2:0:0:
49,377,124604,6,0,P|5:359|10:298,1,104.999996795654,2|2,3:2|0:2,0:2:0:0:
139,188,124934,2,0,P|183:170|178:109,1,104.999996795654,2|2,3:2|0:2,0:2:0:0:
53,161,125263,6,0,L|72:264,1,104.999996795654,2|2,3:2|0:2,0:2:0:0:
241,311,125511,1,0,3:2:0:0:
241,311,125593,2,0,L|260:207,1,104.999996795654,10|2,3:2|0:2,0:2:0:0:
234,40,125923,5,2,3:2:0:0:
234,40,126087,1,2,0:2:0:0:
0,92,126252,1,10,3:2:0:0:
0,92,126417,1,2,0:2:0:0:
182,103,126582,6,0,B|142:109|112:73|127:59|102:21|57:28,1,157.499995193482,10|0,3:2|0:2,0:2:0:0:
49,33,126912,1,10,0:2:0:0:
325,163,127076,5,8,0:2:0:0:
325,163,127159,1,8,0:2:0:0:
325,163,127241,2,0,P|386:132|374:37,1,157.499995193482,10|0,3:2|0:2,0:2:0:0:
378,49,127571,1,0,3:2:0:0:
300,70,127736,5,2,0:2:0:0:
468,149,127901,2,0,P|508:178|507:229,1,104.999996795654,2|0,3:2|0:2,0:2:0:0:
512,311,128148,1,0,3:2:0:0:
512,311,128230,2,0,L|397:330,1,104.999996795654,8|0,3:2|0:2,0:2:0:0:
188,127,128560,6,0,B|238:112|238:112|267:155,1,104.999996795654,2|0,3:2|0:2,0:2:0:0:
101,357,128890,2,0,B|51:372|51:372|21:328,1,104.999996795654,10|2,3:2|0:2,0:2:0:0:
132,185,129219,6,0,L|146:288,1,104.999996795654,2|0,3:2|0:2,0:2:0:0:
223,316,129467,1,0,3:2:0:0:
223,316,129549,1,10,0:2:0:0:
295,290,129714,1,2,0:2:0:0:
403,123,129879,6,0,P|354:135|340:191,1,104.999996795654,2|0,3:2|0:2,0:2:0:0:
390,251,130126,1,2,0:2:0:0:
390,251,130208,2,0,P|427:245|470:241,1,52.4999983978272,0|0,3:2|0:2,0:2:0:0:
280,101,130373,5,2,0:2:0:0:
280,101,130456,1,2,0:2:0:0:
280,101,130538,2,0,P|221:71|222:18,1,104.999996795654,2|0,3:2|0:2,0:2:0:0:
285,1,130785,1,2,3:2:0:0:
285,1,130868,2,0,P|315:8|356:12,1,52.4999983978272,8|0,3:2|0:2,0:2:0:0:
258,183,131033,5,2,0:2:0:0:
122,145,131197,2,0,L|12:173,1,104.999996795654,2|0,3:2|0:2,0:2:0:0:
8,251,131445,1,2,0:2:0:0:
8,251,131527,2,0,P|41:260|54:300,1,52.4999983978272,0|0,3:2|0:2,0:2:0:0:
106,64,131692,2,0,P|126:47|132:22,1,52.4999983978272,2|0,0:2|0:2,0:2:0:0:
181,211,131857,6,8,L|176:240,3,28.1250010728836,10|8|8|8,3:2|0:2|0:2|0:2,0:2:0:0:
323,80,132186,2,8,L|318:51,3,28.1250010728836,10|8|10|8,3:2|0:2|0:2|0:2,0:2:0:0:
368,223,132516,5,10,3:2:0:0:
384,219,132598,1,8,0:2:0:0:
392,205,132681,1,8,0:2:0:0:
382,180,132763,1,8,0:2:0:0:
350,160,132846,1,8,3:2:0:0:
307,161,132928,1,8,0:2:0:0:
269,191,133011,1,8,0:2:0:0:
263,247,133093,1,8,0:2:0:0:
293,296,133175,6,8,L|330:301,3,37.5,10|8|8|8,3:2|0:2|0:2|0:2,0:2:0:0:
185,127,133505,2,8,L|147:132,3,37.5,8|8|8|8,3:2|0:2|0:2|0:2,0:2:0:0:
454,33,133835,5,10,3:2:0:0:
479,37,133917,1,8,0:2:0:0:
504,58,134000,1,8,0:2:0:0:
511,99,134082,1,8,0:2:0:0:
490,140,134164,1,8,3:2:0:0:
442,154,134247,1,8,0:2:0:0:
384,140,134329,1,8,0:2:0:0:
346,89,134412,1,8,0:2:0:0:
357,29,134494,5,10,3:2:0:0:
401,76,134576,1,8,0:2:0:0:
399,142,134659,1,8,0:2:0:0:
352,188,134741,1,8,0:2:0:0:
286,195,134824,1,8,3:2:0:0:
228,226,134906,1,8,0:2:0:0:
196,284,134989,1,8,0:2:0:0:
207,348,135071,1,8,0:2:0:0:
260,379,135153,6,2,P|250:190|238:1,1,377.999988464356,2|0,0:2|0:1,0:1:0:0:
0,139,137791,6,0,B|50:153|85:116|70:103|103:64|158:84,1,179.999994506836,6|2,3:2|0:2,0:2:0:0:
157,83,138285,1,0,3:2:0:0:
295,208,138450,2,0,P|377:192|389:109,1,179.999994506836,14|2,0:2|0:2,0:2:0:0:
219,156,138945,5,0,3:2:0:0:
219,155,139109,2,0,P|207:222|201:289,2,134.999995880127,2|0|0,3:2|3:2|3:2,0:2:0:0:
139,343,139769,2,0,P|97:331|80:291,1,89.9999972534181,14|0,0:2|0:2,0:2:0:0:
284,238,140098,2,0,P|319:212|323:168,1,89.9999972534181,2|0,3:2|0:2,0:2:0:0:
512,51,140428,6,0,B|426:27|426:27|378:104,1,179.999994506836,2|2,3:2|0:2,0:2:0:0:
378,105,140923,1,2,3:2:0:0:
490,207,141087,2,0,L|464:120,1,89.9999972534181,14|0,0:2|0:2,0:2:0:0:
348,255,141417,2,0,L|322:168,1,89.9999972534181,0|2,3:2|0:2,0:2:0:0:
383,382,141747,6,0,P|441:355|440:291,2,134.999995880127,2|0|0,3:2|3:2|3:2,3:2:0:0:
242,266,142406,2,0,P|185:255|140:248,1,89.9999972534181,14|0,0:2|0:2,0:2:0:0:
218,351,142736,2,0,P|262:343|306:334,1,89.9999972534181,10|0,3:2|0:2,0:2:0:0:
92,189,143066,6,0,P|21:142|45:62,1,179.999994506836,2|2,3:2|0:2,0:2:0:0:
45,62,143560,1,0,3:2:0:0:
153,249,143725,2,0,P|156:292|126:324,1,89.9999972534181,14|0,0:2|0:2,0:2:0:0:
174,171,144055,2,0,P|210:146|252:155,1,89.9999972534181,2|0,3:2|0:2,0:2:0:0:
373,259,144384,6,0,L|507:239,2,134.999995880127,2|0|0,3:2|3:2|3:2,3:2:0:0:
285,373,145044,1,14,0:2:0:0:
285,373,145208,1,2,0:2:0:0:
356,338,145373,2,0,L|454:365,1,89.9999972534181,2|2,3:2|0:2,0:2:0:0:
478,139,145703,6,0,P|466:56|383:46,1,179.999994506836,2|0,3:2|0:2,0:2:0:0:
383,46,146197,1,2,3:2:0:0:
246,115,146362,2,0,P|261:180|270:247,1,134.999995880127,14|0,0:2|0:2,0:2:0:0:
262,255,146692,2,0,P|226:229|223:184,1,89.9999972534181,2|2,3:2|0:2,0:2:0:0:
105,61,147022,6,0,P|72:5|8:11,2,134.999995880127,2|0|2,3:2|3:2|3:2,3:2:0:0:
86,198,147681,2,0,P|58:232|65:275,1,89.9999972534181,6|0,3:2|0:2,0:2:0:0:
137,138,147928,1,0,3:2:0:0:
137,138,148011,1,8,0:2:0:0:
59,125,148175,1,8,0:2:0:0:
250,379,148340,6,0,L|375:360,1,89.9999972534181,2|0,3:2|0:2,0:2:0:0:
236,304,148670,2,0,L|361:285,1,89.9999972534181,2|0,3:2|0:2,0:2:0:0:
475,52,149000,6,0,P|431:59|406:95,1,89.9999972534181,14|0,0:2|0:2,0:2:0:0:
301,60,149329,2,0,P|301:103|331:135,1,89.9999972534181,2|0,3:2|0:2,0:2:0:0:
495,231,149659,6,0,B|468:167|468:167|402:178,2,134.999995880127,2|0|0,3:2|3:2|3:2,3:2:0:0:
331,135,150318,6,0,L|343:45,1,89.9999972534181,14|0,0:2|0:2,0:2:0:0:
422,256,150648,2,0,L|409:345,1,89.9999972534181,2|0,3:2|0:2,0:2:0:0:
203,380,150978,6,0,P|162:362|147:321,1,89.9999972534181,2|0,3:2|0:2,0:2:0:0:
228,190,151307,2,0,P|232:233|204:267,1,89.9999972534181,2|0,3:2|0:2,0:2:0:0:
50,263,151637,2,0,P|85:237|128:244,1,89.9999972534181,14|0,0:2|0:2,0:2:0:0:
202,380,151967,2,0,P|161:362|146:321,1,89.9999972534181,2|0,3:2|2:2,2:2:0:0:
227,105,152296,6,0,B|298:96|269:47|340:39,2,134.999995880127,2|0|2,3:2|3:2|3:2,3:2:0:0:
87,22,152956,6,0,P|132:24|163:54,1,89.9999972534181,14|0,0:2|0:2,0:2:0:0:
269,260,153285,2,0,P|279:217|260:178,1,89.9999972534181,10|0,0:2|0:2,0:2:0:0:
0,362,153615,6,0,P|44:366|88:378,1,89.9999972534181,2|0,3:2|0:2,0:2:0:0:
164,269,153945,2,0,P|119:281|75:285,1,89.9999972534181,2|0,3:2|0:2,0:2:0:0:
346,371,154274,6,0,P|416:340|401:258,1,134.999995880127,14|0,0:2|0:2,0:2:0:0:
416,280,154604,2,0,P|377:299|371:341,1,89.9999972534181,2|0,3:2|0:2,0:2:0:0:
474,220,154934,6,0,L|459:124,1,89.9999972534181,10|0,0:2|0:2,0:2:0:0:
292,56,155263,2,0,L|278:144,1,89.9999972534181,2|0,3:2|0:2,0:2:0:0:
476,53,155593,5,14,0:2:0:0:
476,53,155758,1,2,0:2:0:0:
362,111,155923,2,0,P|392:79|388:35,1,89.9999972534181,2|0,3:2|0:2,0:2:0:0:
52,118,156252,5,2,3:2:0:0:
189,141,156417,2,0,P|247:169|258:233,1,134.999995880127,8|0,0:2|0:2,0:2:0:0:
255,244,156747,1,2,3:2:0:0:
371,356,156912,5,10,0:2:0:0:
432,304,157076,1,0,3:2:0:0:
402,231,157241,1,0,3:2:0:0:
205,364,157406,5,10,0:2:0:0:
281,384,157571,1,2,3:2:0:0:
179,187,157736,5,8,0:2:0:0:
103,207,157901,1,0,3:2:0:0:
191,273,158066,5,2,3:2:0:0:
315,153,158230,5,10,3:2:0:0:
324,108,158313,1,8,0:2:0:0:
353,74,158395,1,8,3:2:0:0:
394,55,158478,1,8,0:2:0:0:
406,36,158560,5,10,3:2:0:0:
416,51,158642,1,8,0:2:0:0:
432,60,158725,1,8,3:2:0:0:
448,54,158807,1,8,0:2:0:0:
458,46,158890,5,6,3:2:0:0:
314,2,159055,1,0,3:2:0:0:
400,197,159219,2,0,B|470:186|446:147|512:135,1,127.50000243187,10|0,0:2|0:2,0:2:0:0:
193,384,159549,6,0,P|183:321|169:258,1,127.50000243187,2|0,3:2|3:2,0:2:0:0:
330,109,159879,2,0,P|316:171|306:234,1,127.50000243187,10|0,0:2|0:2,0:2:0:0:
91,260,160208,5,2,3:2:0:0:
225,196,160373,1,0,3:2:0:0:
313,315,160538,1,10,0:2:0:0:
156,111,160703,5,0,3:2:0:0:
156,111,160785,1,0,3:2:0:0:
156,111,160868,1,10,0:2:0:0:
136,185,161033,1,8,0:2:0:0:
383,261,161197,5,10,0:2:0:0:
427,265,161280,1,8,0:2:0:0:
461,292,161362,1,8,0:2:0:0:
471,336,161445,1,8,0:2:0:0:
457,377,161527,5,2,3:2:0:0:
378,362,161692,1,0,3:2:0:0:
342,188,161857,6,0,P|340:109|444:74,1,191.250003647804,10|0,0:2|0:2,0:2:0:0:
437,79,162186,1,2,3:2:0:0:
512,64,162351,1,0,3:2:0:0:
265,252,162516,6,0,P|202:240|138:233,1,127.50000243187,10|0,0:2|0:2,0:2:0:0:
194,33,162846,2,0,P|257:26|320:15,1,127.50000243187,2|0,3:2|3:2,0:2:0:0:
222,143,163175,5,8,0:2:0:0:
85,18,163340,1,0,3:2:0:0:
389,112,163505,1,10,0:2:0:0:
389,112,163670,1,8,0:2:0:0:
44,384,163835,5,10,0:2:0:0:
37,347,163917,1,8,0:2:0:0:
30,310,163999,1,8,0:2:0:0:
24,273,164082,1,8,0:2:0:0:
18,236,164164,6,0,B|84:224|61:187|128:175,1,127.50000243187,2|0,3:2|3:2,0:2:0:0:
508,202,164494,2,0,B|442:190|465:153|398:141,1,127.50000243187,10|0,0:2|0:2,0:2:0:0:
172,97,164824,5,2,3:2:0:0:
330,195,164989,1,0,3:2:0:0:
265,28,165153,2,0,L|254:155,1,127.50000243187,10|0,0:2|0:2,0:2:0:0:
311,275,165483,5,2,3:2:0:0:
386,251,165648,1,0,3:2:0:0:
188,332,165813,5,10,0:2:0:0:
115,311,165978,1,0,3:2:0:0:
115,311,166060,1,0,3:2:0:0:
115,311,166142,1,10,0:2:0:0:
256,384,166307,5,8,0:2:0:0:
484,141,166472,5,10,0:2:0:0:
488,98,166555,1,8,0:2:0:0:
472,60,166637,1,8,0:2:0:0:
436,42,166719,1,8,0:2:0:0:
394,47,166802,5,6,3:2:0:0:
219,239,166967,2,0,P|156:209|159:144,1,134.999995880127,8|0,0:2|0:2,0:2:0:0:
164,143,167296,1,2,3:2:0:0:
381,230,167461,2,0,P|365:295|352:361,1,134.999995880127,10|0,0:2|0:2,0:2:0:0:
359,372,167791,1,0,3:2:0:0:
444,316,167956,1,10,0:2:0:0:
300,187,168120,2,0,P|292:137|282:87,1,89.9999972534181,2|8,3:2|0:2,0:2:0:0:
269,25,168450,1,0,3:2:0:0:
269,25,168615,1,0,3:2:0:0:
20,181,168780,5,10,3:2:0:0:
12,188,168862,1,8,0:2:0:0:
15,204,168945,1,8,3:2:0:0:
39,215,169027,1,8,0:2:0:0:
71,204,169109,1,8,3:2:0:0:
114,202,169192,1,8,0:2:0:0:
158,230,169274,1,8,3:2:0:0:
165,292,169357,1,8,0:2:0:0:
125,345,169439,6,0,L|-1:322,1,127.50000243187,14|0,3:2|0:2,0:2:0:0:
375,184,169769,2,0,L|501:161,1,127.50000243187,10|0,0:2|0:2,0:2:0:0:
78,152,170098,6,0,L|91:256,1,104.999996795654,10|0,3:2|0:2,0:2:0:0:
411,361,170428,2,0,L|424:256,1,104.999996795654,10|0,3:2|0:2,0:2:0:0:
178,99,170758,6,0,P|132:82|118:28,1,89.9999972534181,10|0,3:2|0:2,0:2:0:0:
348,187,171087,2,0,P|394:170|408:116,1,89.9999972534181,10|0,3:2|0:2,0:2:0:0:
288,15,171417,6,0,L|280:90,1,75,10|0,3:2|0:2,0:2:0:0:
241,384,171747,2,0,L|232:309,1,75,10|0,3:2|0:2,0:2:0:0:
446,229,172076,6,0,P|494:253|512:305,1,112.500004291535,10|0,3:2|0:2,0:2:0:0:
83,308,172406,2,0,P|34:332|17:384,1,112.500004291535,10|0,3:2|0:2,0:2:0:0:
395,151,172736,6,0,L|483:134,1,89.9999972534181,10|0,3:2|0:2,0:2:0:0:
140,231,173066,2,0,L|51:214,1,89.9999972534181,10|0,3:2|0:2,0:2:0:0:
259,74,173395,6,0,L|269:0,1,75,10|0,3:2|0:2,0:2:0:0:
195,134,173725,5,8,3:2:0:0:
317,256,173890,1,8,0:2:0:0:
163,315,174055,5,10,3:2:0:0:
360,78,174219,1,8,0:2:0:0:
450,214,174384,5,10,3:2:0:0:
65,169,174549,1,8,0:2:0:0:
403,384,174714,6,0,B|478:364|447:322|519:309,1,134.999995880127,14|0,3:2|0:2,0:2:0:0:
111,86,175044,2,0,B|35:66|66:24|-5:11,1,134.999995880127,8|0,3:2|0:2,0:2:0:0:
409,3,175373,6,0,P|390:67|381:134,1,134.999995880127,10|0,3:2|0:2,0:2:0:0:
165,384,175703,2,0,P|155:317|137:252,1,134.999995880127,8|0,3:2|0:2,0:2:0:0:
439,194,176033,6,0,P|487:179|510:133,1,104.999996795654,10|0,3:2|0:2,0:2:0:0:
71,204,176362,2,0,P|22:189|0:143,1,104.999996795654,8|0,3:2|0:2,0:2:0:0:
362,13,176692,6,0,L|510:37,1,150,10|0,3:2|0:2,0:2:0:0:
148,384,177022,2,0,L|0:360,1,150,10|0,3:2|0:2,0:2:0:0:
262,0,177351,5,10,0:2:0:0:
272,30,177433,1,8,0:2:0:0:
280,61,177515,1,8,0:2:0:0:
288,92,177598,1,8,0:2:0:0:
295,124,177680,1,8,0:2:0:0:
300,155,177763,1,8,0:2:0:0:
305,187,177846,2,8,P|294:213|288:240,1,56.2500021457673,10|8,0:2|0:2,0:2:0:0:
107,303,178011,5,10,0:2:0:0:
52,281,178093,1,8,0:2:0:0:
30,236,178175,1,8,0:2:0:0:
45,189,178258,1,8,0:2:0:0:
82,164,178340,1,8,0:2:0:0:
114,168,178423,1,8,0:2:0:0:
131,186,178505,1,8,0:2:0:0:
136,201,178587,1,8,0:2:0:0:
131,210,178670,5,10,0:2:0:0:
73,188,178752,1,8,0:2:0:0:
53,128,178835,1,8,0:2:0:0:
89,78,178917,1,8,0:2:0:0:
150,70,179000,1,8,0:2:0:0:
197,108,179082,1,8,0:2:0:0:
257,116,179164,1,8,0:2:0:0:
310,84,179247,1,8,0:2:0:0:
332,26,179329,5,10,0:2:0:0:
261,47,179412,1,8,0:2:0:0:
230,114,179494,1,8,0:2:0:0:
257,181,179576,1,8,0:2:0:0:
325,208,179659,1,10,0:2:0:0:
394,187,179741,1,8,0:2:0:0:
462,213,179824,1,8,0:2:0:0:
485,281,179906,1,8,0:2:0:0:
459,350,179989,6,2,B|449:372|425:378|394:382|261:346|216:174|257:215|214:37|104:4|68:4|43:9|26:31,1,607.500014831543,2|0,0:2|0:2,0:1:0:0:
8,109,182626,6,2,P|50:112|69:97,1,67.5,2|0,2:2|2:2,2:1:0:0:
68,97,184604,2,2,P|150:80|234:68,1,168.750006437302,2|0,0:2|0:2,0:1:0:0:
404,24,185263,6,2,P|375:126|270:144,1,225,2|0,0:2|0:2,0:1:0:0:
246,68,187901,2,2,P|251:38|254:8,1,60,2|0,0:2|0:2,0:1:0:0:
