osu file format v14

[General]
AudioFilename: audio.mp3
AudioLeadIn: 0
PreviewTime: 157983
Countdown: 0
SampleSet: Soft
StackLeniency: 0.5
Mode: 0
LetterboxInBreaks: 0
WidescreenStoryboard: 1

[Editor]
Bookmarks: 648,21747,32296,53395,66582,77791,87681,98230,111417,121967,135153,137791,158890,179989,189219,211637
DistanceSpacing: 1
BeatDivisor: 2
GridSize: 16
TimelineZoom: 0.7999991

[Metadata]
Title:Blizzard
TitleUnicode:ブリザード
Artist:Rokudenashi
ArtistUnicode:ロクデナシ
Creator:Weoweet
Version:Perseus' Normal
Source:
Tags:Perseus MonsieurSebas nooj kyomii- Amami Yuu japanese rock jrock j-rock female vocal vocalist ninzin にんじん
BeatmapID:3903632
BeatmapSetID:1883140

[Difficulty]
HPDrainRate:3
CircleSize:3.2
OverallDifficulty:4.5
ApproachRate:5.5
SliderMultiplier:1
SliderTickRate:1

[Events]
//Background and Video events
0,0,"94228126_p0.jpg",0,0
//Break Periods
2,88999,96911
//Storyboard Layer 0 (Background)
//Storyboard Layer 1 (Fail)
//Storyboard Layer 2 (Pass)
//Storyboard Layer 3 (Foreground)
//Storyboard Layer 4 (Overlay)
//Storyboard Sound Samples

[TimingPoints]
648,329.67032967033,4,2,2,40,1,0
5758,-100,4,2,1,20,0,0
5923,-100,4,2,2,40,0,0
8395,-100,4,2,1,20,0,0
8560,-100,4,2,2,40,0,0
9714,-100,4,2,1,30,0,0
9879,-100,4,2,1,60,0,0
10208,-100,4,2,2,40,0,0
11197,-100,4,2,2,50,0,0
13670,-100,4,2,1,20,0,0
13835,-100,4,2,2,50,0,0
20263,-100,4,2,1,30,0,0
20346,-100,4,2,1,40,0,0
20428,-100,4,2,1,50,0,0
21087,-100,4,2,2,50,0,0
21747,-100,4,2,1,60,0,0
32296,-100,4,2,1,50,0,0
33450,-100,4,2,1,20,0,0
33615,-100,4,2,1,50,0,0
34769,-100,4,2,1,20,0,0
34934,-100,4,2,1,50,0,0
37406,-100,4,2,1,20,0,0
37571,-100,4,2,1,50,0,0
40044,-100,4,2,1,20,0,0
40208,-100,4,2,1,50,0,0
40703,-100,4,2,1,20,0,0
40868,-100,4,2,1,50,0,0
41362,-100,4,2,1,40,0,0
41445,-100,4,2,1,50,0,0
41527,-100,4,2,1,60,0,0
53066,-100,4,2,2,60,0,0
53148,-100,4,2,1,60,0,0
53395,-100,4,2,1,50,0,0
58340,-100,4,2,2,50,0,0
58670,-100,4,2,1,50,0,0
61307,-100,4,2,2,50,0,0
62626,-100,4,2,1,50,0,0
66582,-100,4,2,1,70,0,1
76802,-100,4,2,2,70,0,1
76884,-100,4,2,1,70,0,1
87351,-100,4,2,2,70,0,1
87516,-100,4,2,1,70,0,1
87680,-100,4,2,1,60,0,0
106802,-100,4,2,1,35,0,0
107131,-100,4,2,1,40,0,0
107461,-100,4,2,1,45,0,0
107791,-100,4,2,1,50,0,0
108120,-100,4,2,1,55,0,0
108450,-100,4,2,1,60,0,0
108780,-100,4,2,1,65,0,0
111417,-100,4,2,1,60,0,0
131857,-100,4,2,1,50,0,0
132516,-100,4,2,1,55,0,0
133175,-100,4,2,1,60,0,0
133505,-100,4,2,1,65,0,0
133835,-100,4,2,1,70,0,0
134494,-100,4,2,1,75,0,0
135153,-100,4,2,1,70,0,0
137791,-100,4,2,1,60,0,0
142736,-100,4,2,2,60,0,0
143066,-100,4,2,1,60,0,0
148011,-100,4,2,2,60,0,0
148175,-100,4,2,1,60,0,0
158560,-100,4,2,1,40,0,0
158889,-90.9090909090909,4,2,1,80,0,1
168780,-90.9090909090909,4,2,1,60,0,1
169109,-90.9090909090909,4,2,1,70,0,1
169439,-90.9090909090909,4,2,1,80,0,1
179988,-100,4,2,1,70,0,0
182461,-100,4,2,1,5,0,0
182626,-100,4,2,1,60,0,0
185098,-100,4,2,1,5,0,0
185263,-100,4,2,1,60,0,0
187736,-100,4,2,1,5,0,0
187901,-100,4,2,1,60,0,0
189219,-100,4,2,1,15,0,0

[Colours]
Combo1 : 117,175,223
Combo2 : 142,136,172
Combo3 : 170,188,198
Combo4 : 135,190,170

[HitObjects]
9,219,648,5,2,3:2:0:0:
94,271,978,1,2,3:2:0:0:
190,246,1307,2,0,P|207:212|171:146,1,100,2|2,3:2|3:2,0:0:0:0:
158,114,1802,2,0,P|152:67|237:21,1,150,2|2,0:2|3:2,0:0:0:0:
321,60,2626,1,2,3:3:0:0:
407,8,2956,1,10,0:2:0:0:
506,8,3285,6,0,L|487:114,1,100,2|2,3:2|3:2,0:2:0:0:
478,158,3780,1,2,0:2:0:0:
478,158,3945,2,0,P|404:150|368:124,1,100,2|2,3:2|3:2,0:2:0:0:
338,115,4439,2,0,L|231:133,1,100,2|2,0:2|0:2,0:2:0:0:
189,139,4934,1,2,3:2:0:0:
211,41,5263,1,2,3:3:0:0:
15,82,5923,5,2,3:2:0:0:
11,182,6253,1,2,3:2:0:0:
100,226,6582,2,0,P|117:260|134:328,1,100,2|2,3:2|3:2,0:0:0:0:
162,360,7077,2,0,P|209:366|255:281,1,150,2|2,0:2|3:2,0:2:0:0:
243,188,7901,1,2,3:2:0:0:
332,144,8230,1,10,0:2:0:0:
423,180,8560,6,0,L|400:330,1,150,2|2,3:2|0:2,0:2:0:0:
390,377,9219,2,0,P|322:367|295:280,1,150,2|10,3:2|0:2,0:2:0:0:
287,248,9879,1,10,0:2:0:0:
246,156,10209,1,2,0:2:0:0:
147,141,10538,1,2,0:2:0:0:
328,54,11197,6,0,P|376:31|422:56,1,100,2|2,3:2|3:2,0:2:0:0:
469,133,11857,1,2,3:2:0:0:
429,224,12186,2,0,L|438:280,1,50,2|0,3:2|0:2,0:2:0:0:
445,323,12516,2,0,B|408:328|408:328|393:349|393:349|356:355,1,100,2|2,3:2|3:2,0:2:0:0:
270,304,13175,2,0,B|233:298|233:298|218:277|218:277|181:271,1,100,0|10,3:3|0:2,0:2:0:0:
82,257,13835,5,2,3:2:0:0:
41,165,14164,2,0,L|49:115,1,50,2|0,3:2|0:2,0:2:0:0:
72,70,14494,2,0,L|175:51,1,100,2|2,3:2|3:2,0:0:0:0:
220,44,14989,1,2,0:2:0:0:
219,44,15153,2,0,P|254:92|232:142,2,100,2|2|2,3:2|3:2|3:2,0:2:0:0:
123,15,16142,2,0,L|59:5,1,50,10|2,0:2|0:2,0:0:0:0:
23,0,16472,5,2,3:2:0:0:
61,92,16802,1,2,3:2:0:0:
26,184,17132,1,2,3:2:0:0:
61,276,17461,1,2,3:2:0:0:
26,368,17791,6,0,L|128:354,1,100,2|2,3:2|3:2,0:2:0:0:
173,336,18285,1,2,0:2:0:0:
173,336,18450,2,0,P|225:366|265:350,1,100,2|10,3:3|0:2,0:2:0:0:
336,290,19109,5,2,3:2:0:0:
413,227,19439,2,0,L|476:237,1,50,2|2,3:2|0:2,0:0:0:0:
497,198,19769,2,0,P|500:136|460:109,2,100,2|2|10,3:2|3:2|0:2,0:0:0:0:
297,203,21087,2,0,B|316:256|284:306|260:277|229:327|249:383,1,200,2|2,0:3|3:2,0:2:0:0:
160,352,22076,6,0,L|96:362,1,50,10|2,0:2|0:2,0:0:0:0:
60,362,22406,2,0,P|18:312|26:271,1,100,2|10,3:2|0:2,0:0:0:0:
40,234,22901,1,2,0:2:0:0:
11,143,23230,1,2,3:2:0:0:
11,143,23395,1,10,0:2:0:0:
89,80,23725,2,0,P|141:88|191:96,1,100,2|8,3:2|0:2,0:0:0:0:
286,110,24384,6,0,P|329:84|399:105,1,100,2|10,3:2|0:2,0:2:0:0:
418,120,24879,1,2,0:2:0:0:
418,120,25044,2,0,L|433:218,1,100,2|10,3:2|0:2,0:0:0:0:
452,265,25538,1,2,0:2:0:0:
366,325,25868,1,2,3:2:0:0:
366,325,26033,1,10,0:2:0:0:
287,264,26362,2,0,P|248:243|189:266,1,100,2|8,3:2|0:2,0:0:0:0:
97,248,27022,6,0,L|126:364,1,100,2|10,3:2|0:2,0:2:0:0:
167,375,27516,1,2,0:2:0:0:
167,375,27681,2,0,P|219:374|250:328,1,100,2|10,3:2|0:2,0:0:0:0:
250,289,28175,1,2,0:2:0:0:
339,240,28505,1,2,3:2:0:0:
339,240,28670,1,10,0:2:0:0:
367,143,29000,2,0,L|342:2,1,100,2|8,3:2|0:2,0:0:0:0:
449,36,29659,6,0,P|496:48|507:110,1,100,2|10,3:2|0:2,0:2:0:0:
488,138,30153,1,2,0:2:0:0:
488,138,30318,2,0,L|361:158,1,100,2|10,3:2|0:2,0:0:0:0:
348,123,30813,1,2,0:2:0:0:
270,185,31142,1,2,3:2:0:0:
270,185,31307,1,10,0:2:0:0:
185,132,31637,2,0,L|170:33,1,100,4|4,0:3|0:3,0:0:0:0:
265,8,32296,6,0,L|281:115,1,100,2|2,3:2|3:2,0:2:0:0:
289,156,32791,1,2,0:2:0:0:
289,156,32956,2,0,P|230:203|203:186,1,100,2|2,3:2|3:2,0:2:0:0:
182,161,33450,1,10,0:2:0:0:
126,245,33780,1,2,0:2:0:0:
126,245,33945,1,2,3:2:0:0:
178,329,34274,1,2,3:2:0:0:
275,304,34604,2,0,L|340:314,1,50,2|10,3:2|0:2,0:0:0:0:
373,321,34934,6,0,P|434:302|451:269,1,100,2|2,3:2|3:2,0:2:0:0:
455,223,35428,1,2,0:2:0:0:
455,223,35593,1,2,3:2:0:0:
395,149,35923,1,2,3:2:0:0:
395,149,36087,2,0,L|273:129,1,100,2|2,0:2|0:2,0:2:0:0:
246,126,36582,1,2,3:2:0:0:
290,36,36912,1,2,3:2:0:0:
473,8,37571,5,2,3:2:0:0:
426,96,37901,1,2,3:2:0:0:
499,164,38230,1,2,3:2:0:0:
452,252,38560,1,2,3:2:0:0:
452,252,38724,2,0,L|339:268,1,100,2|2,0:2|0:2,0:2:0:0:
303,273,39219,1,2,3:2:0:0:
211,232,39549,2,0,P|164:257|169:312,1,100,2|2,3:2|3:2,0:2:0:0:
237,364,40208,6,0,L|395:338,1,150,2|10,3:2|0:2,0:2:0:0:
409,295,40868,2,0,L|250:269,1,150,2|10,3:2|0:2,0:2:0:0:
211,278,41527,1,10,0:2:0:0:
241,182,41857,1,2,0:2:0:0:
193,94,42186,2,0,L|183:36,1,50,2|2,3:3|0:3,0:2:0:0:
150,7,42516,2,0,L|92:-3,1,50,2|2,0:3|0:3,0:2:0:0:
57,24,42846,6,0,L|74:122,1,100,2|10,3:2|0:2,0:2:0:0:
23,209,43505,2,0,P|64:240|129:221,1,100,2|10,3:2|0:2,0:0:0:0:
162,226,44000,1,2,0:2:0:0:
162,226,44164,2,0,L|172:164,2,50,2|0|10,3:2|3:2|0:2,0:2:0:0:
222,306,44824,2,0,L|213:355,2,50,2|2|10,3:2|3:2|0:2,0:0:0:0:
282,225,45483,6,0,P|356:217|389:257,1,100,2|10,3:2|0:2,0:2:0:0:
414,320,46142,2,0,L|476:332,1,50,2|2,3:2|3:2,0:2:0:0:
512,338,46472,1,10,0:2:0:0:
481,242,46802,2,0,L|460:115,2,100,2|10|2,3:2|0:2|3:2,0:2:0:0:
402,304,47791,1,10,0:2:0:0:
321,245,48120,6,0,P|272:213|210:235,1,100,2|10,3:2|0:2,0:2:0:0:
170,296,48780,2,0,L|68:311,1,100,2|10,3:2|0:2,0:0:0:0:
21,319,49274,1,2,0:2:0:0:
47,222,49604,1,2,3:2:0:0:
47,222,49769,2,0,L|59:160,1,50,10|2,0:2|0:2,0:0:0:0:
93,139,50098,2,0,L|81:77,2,50,2|2|10,3:2|3:2|0:2,0:0:0:0:
191,157,50758,6,0,P|262:157|293:77,1,150,2|2,3:2|0:2,0:2:0:0:
278,46,51417,1,2,3:2:0:0:
376,62,51747,2,0,L|448:51,1,50,10|2,0:2|0:2,0:0:0:0:
475,48,52076,2,0,L|449:206,1,150,2|0,0:2|0:0,0:0:0:0:
443,245,52736,1,10,3:2:0:0:
288,371,53395,6,0,P|250:365|220:343,1,50,2|0,3:2|0:2,0:2:0:0:
198,331,53725,2,0,P|160:337|130:359,1,50,2|0,3:2|0:2,0:2:0:0:
105,365,54055,2,0,P|29:359|7:305,1,100,2|2,3:2|3:2,0:2:0:0:
0,256,54714,6,0,L|10:192,1,50,2|0,3:2|0:2,0:2:0:0:
32,160,55044,2,0,L|21:96,1,50,2|0,3:2|0:2,0:2:0:0:
0,64,55373,1,2,3:2:0:0:
91,22,55703,1,2,3:2:0:0:
182,64,56033,1,2,3:2:0:0:
377,105,56692,6,0,B|340:110|340:110|325:131|325:131|288:137,1,100,2|2,3:2|3:2,0:2:0:0:
191,161,57351,1,2,3:2:0:0:
245,244,57681,1,2,3:2:0:0:
343,227,58011,1,2,3:2:0:0:
488,363,58670,6,0,P|482:325|460:295,1,50,2|0,3:2|0:2,0:2:0:0:
448,273,59000,2,0,P|454:235|476:205,1,50,10|0,0:2|0:2,0:2:0:0:
482,180,59330,2,0,P|476:104|422:82,1,100,2|10,3:2|0:2,0:2:0:0:
399,14,59989,6,0,L|335:24,1,50,2|0,3:2|0:2,0:2:0:0:
303,46,60319,2,0,L|239:35,1,50,10|2,0:2|0:2,0:0:0:0:
207,14,60648,1,2,3:2:0:0:
165,105,60978,1,10,0:2:0:0:
207,196,61308,5,10,0:2:0:0:
13,245,61967,1,10,0:2:0:0:
195,326,62626,2,0,L|350:349,1,150,10|0,0:2|3:2,0:2:0:0:
392,356,63285,2,0,P|434:316|380:241,1,150,10|0,0:2|3:2,0:2:0:0:
352,219,63945,6,0,B|352:138|405:165|405:84,1,150,10|0,0:2|3:2,0:0:0:0:
411,34,64604,2,0,L|312:18,1,100,10|0,0:2|3:2,0:0:0:0:
219,56,65263,1,10,0:2:0:0:
235,154,65593,1,8,0:2:0:0:
251,252,65923,2,0,P|213:267|194:264,1,50,2|0,3:2|0:2,0:2:0:0:
155,273,66252,2,0,P|124:300|118:318,1,50,10|0,0:2|0:0,0:0:0:0:
104,355,66582,6,0,P|47:355|18:321,1,100,6|10,3:2|0:2,0:0:0:0:
6,227,67241,2,0,L|16:163,1,50,2|0,3:2|3:2,0:2:0:0:
21,127,67571,1,10,0:2:0:0:
104,181,67901,6,0,P|165:185|184:151,1,100,2|10,3:2|0:2,0:0:0:0:
197,112,68395,1,0,3:2:0:0:
197,112,68560,2,0,L|185:54,1,50,2|0,3:2|3:2,0:2:0:0:
205,16,68890,1,10,0:2:0:0:
292,64,69219,6,0,L|411:82,2,100,2|10|2,3:2|0:2|3:2,0:0:0:0:
203,110,70208,1,10,0:2:0:0:
235,204,70538,2,0,P|292:201|310:156,1,100,2|8,3:2|0:2,0:2:0:0:
355,78,71197,1,2,3:2:0:0:
271,22,71527,1,10,0:2:0:0:
170,18,71857,6,0,P|183:80|190:128,1,100,2|10,3:2|0:2,0:2:0:0:
107,176,72516,2,0,P|99:126|88:77,1,100,2|10,3:2|0:2,0:0:0:0:
23,1,73175,1,2,3:2:0:0:
0,98,73505,1,10,0:2:0:0:
73,165,73835,1,2,3:2:0:0:
169,138,74164,1,10,0:2:0:0:
227,56,74494,6,0,P|294:59|338:132,1,150,10|2,3:2|3:2,0:0:0:0:
331,172,75153,2,0,L|310:298,1,100,10|0,0:2|3:2,0:2:0:0:
278,305,75648,1,10,0:2:0:0:
278,305,75813,2,0,L|285:354,1,50,2|8,3:2|0:2,0:0:0:0:
331,376,76142,2,0,L|380:383,1,50,2|0,3:2|3:2,0:0:0:0:
422,357,76472,2,0,L|437:258,1,100,10|8,3:2|3:2,0:0:0:0:
447,158,77131,6,0,P|385:153|353:183,1,100,6|10,3:2|0:2,0:0:0:0:
281,239,77791,2,0,P|219:244|187:214,1,100,2|10,3:2|0:2,0:2:0:0:
107,168,78450,2,0,L|127:41,1,100,2|10,3:2|0:2,0:0:0:0:
129,19,78945,1,0,3:2:0:0:
129,19,79109,2,0,L|190:9,1,50,2|0,3:2|3:2,0:2:0:0:
226,24,79439,1,10,0:2:0:0:
278,108,79769,6,0,P|216:123|194:165,2,100,2|10|2,3:2|0:2|3:2,0:0:0:0:
352,175,80758,1,10,0:2:0:0:
450,158,81087,2,0,L|470:31,1,100,2|8,3:2|0:2,0:2:0:0:
374,0,81747,1,2,3:2:0:0:
275,18,82077,1,10,0:2:0:0:
222,103,82407,6,0,P|235:165|242:213,1,100,2|10,3:2|0:2,0:2:0:0:
158,258,83066,2,0,P|150:208|139:159,1,100,2|10,3:2|0:2,0:0:0:0:
130,60,83725,1,2,3:2:0:0:
43,108,84055,1,10,0:2:0:0:
42,207,84385,1,2,3:2:0:0:
126,260,84714,1,10,0:2:0:0:
226,248,85044,6,0,P|253:310|231:349,1,100,2|0,3:2|0:0,0:0:0:0:
205,369,85538,1,2,3:2:0:0:
205,369,85703,2,0,L|139:379,1,50,10|0,0:2|3:2,0:0:0:0:
64,355,86197,1,10,0:2:0:0:
64,355,86362,2,0,P|37:293|59:254,1,100,2|0,3:2|3:2,0:0:0:0:
82,230,86857,1,2,3:2:0:0:
82,230,87022,2,0,L|92:166,1,50,10|8,3:2|3:2,0:0:0:0:
124,144,87351,2,0,L|113:80,1,50,8|10,3:2|3:2,0:0:0:0:
96,48,87680,5,6,3:2:0:0:
318,121,98230,5,6,3:2:0:0:
352,32,98560,2,0,L|415:21,1,50,10|2,0:2|0:2,0:0:0:0:
452,22,98890,2,0,P|494:72|486:113,1,100,2|10,3:3|0:2,0:0:0:0:
472,150,99385,1,2,3:2:0:0:
501,241,99714,1,2,3:2:0:0:
501,241,99879,1,10,0:2:0:0:
423,304,100209,2,0,P|370:295|320:287,1,100,6|8,3:2|0:2,0:2:0:0:
226,274,100868,6,0,P|182:299|112:278,1,100,6|10,3:2|0:2,0:0:0:0:
94,264,101363,1,0,0:2:0:0:
94,264,101527,2,0,L|78:165,1,100,2|10,3:2|0:2,0:0:0:0:
60,119,102022,1,2,3:2:0:0:
146,59,102352,1,14,0:2:0:0:
146,59,102517,1,10,0:2:0:0:
225,120,102846,2,0,P|263:140|323:118,1,100,4|8,0:3|0:2,0:0:0:0:
414,147,103506,6,0,L|385:31,1,100,2|10,3:2|0:2,0:2:0:0:
371,9,104000,1,0,0:2:0:0:
371,9,104165,2,0,P|319:10|288:56,1,100,2|10,3:3|0:2,0:0:0:0:
269,90,104659,1,2,3:3:0:0:
181,133,104989,1,2,3:2:0:0:
181,133,105154,1,10,0:2:0:0:
147,227,105484,2,0,L|171:367,1,100,6|8,3:2|0:2,0:2:0:0:
66,352,106143,6,0,P|19:340|8:278,1,100,6|2,3:2|3:2,0:0:0:0:
12,250,106637,1,0,0:0:0:0:
12,250,106802,1,10,3:2:0:0:
60,162,107131,1,10,3:2:0:0:
23,68,107461,2,0,P|87:36|148:86,1,150,10|8,3:2|0:2,0:0:0:0:
185,107,108121,2,0,L|342:83,1,150,10|8,3:2|0:2,0:0:0:0:
374,56,108780,1,6,3:2:0:0:
10,336,110923,2,0,L|0:274,2,50,0|2|0,0:0|3:2|0:0,0:0:0:0:
51,363,111417,6,0,P|105:374|135:331,1,100,2|8,3:2|3:2,0:2:0:0:
220,297,112076,2,0,P|274:286|304:329,1,100,2|8,3:2|3:2,0:2:0:0:
383,372,112736,1,2,3:2:0:0:
459,306,113066,1,8,3:2:0:0:
435,209,113395,2,0,L|455:82,1,100,2|8,3:2|3:2,0:2:0:0:
388,31,114055,6,0,P|324:29|284:54,1,100,2|8,3:2|3:2,0:2:0:0:
259,138,114714,2,0,P|323:136|363:161,1,100,2|8,3:2|3:2,0:2:0:0:
435,209,115373,2,0,L|419:307,1,100,2|0,3:2|3:2,0:2:0:0:
411,357,115868,1,2,3:2:0:0:
411,357,116033,2,0,L|361:364,1,50,10|8,3:2|3:2,0:0:0:0:
318,339,116362,2,0,L|268:346,1,50,8|8,3:2|3:2,0:0:0:0:
224,321,116692,6,0,P|200:280|209:230,1,100,2|8,3:2|3:2,0:2:0:0:
276,155,117351,2,0,P|285:106|261:63,1,100,2|8,3:2|3:2,0:2:0:0:
170,20,118011,1,2,3:2:0:0:
94,86,118341,1,8,3:2:0:0:
118,183,118670,2,0,L|98:310,1,100,2|8,3:2|3:2,0:2:0:0:
29,350,119329,6,0,B|66:355|66:355|81:376|81:376|118:382,1,100,2|8,3:2|3:2,0:2:0:0:
204,331,119988,2,0,B|241:325|241:325|256:304|256:304|293:298,1,100,2|8,3:2|3:2,0:2:0:0:
376,352,120648,2,0,L|470:367,2,75,2|2|2,3:2|0:2|0:2,0:2:0:0:
330,373,121307,1,10,3:2:0:0:
295,278,121637,2,0,L|305:209,1,50,10|2,3:2|0:2,0:0:0:0:
309,178,121967,6,0,P|284:135|208:143,1,100,2|8,3:2|3:2,0:2:0:0:
191,145,122461,1,2,0:2:0:0:
191,145,122626,2,0,L|66:125,1,100,2|8,3:2|3:2,0:2:0:0:
54,36,123285,2,0,L|152:51,1,100,2|10,3:2|3:2,0:2:0:0:
197,28,123780,1,2,0:2:0:0:
197,28,123945,2,0,L|246:20,1,50,2|0,3:2|0:2,0:2:0:0:
287,48,124274,6,0,L|279:97,2,50,10|2|2,3:2|0:2|3:2,0:0:0:0:
387,48,124934,2,0,L|394:-1,2,50,10|2|2,3:2|0:2|3:2,0:2:0:0:
451,124,125593,1,10,3:2:0:0:
369,182,125923,2,0,P|348:245|377:284,1,100,2|10,3:2|3:2,0:0:0:0:
409,287,126417,1,2,0:2:0:0:
409,287,126582,2,0,L|512:270,1,100,2|10,3:2|3:2,0:2:0:0:
471,364,127241,6,0,L|372:380,1,100,2|8,3:2|3:2,0:2:0:0:
324,363,127736,1,2,0:2:0:0:
324,363,127901,2,0,P|250:329|216:337,1,100,2|8,3:2|3:2,0:2:0:0:
149,383,128560,2,0,L|140:327,1,50,2|0,3:2|0:2,0:2:0:0:
107,296,128890,2,0,L|114:246,1,50,10|2,3:2|0:2,0:2:0:0:
153,215,129219,1,2,3:2:0:0:
253,215,129549,6,0,L|260:165,2,50,10|2|2,0:2|0:2|3:2,0:0:0:0:
153,215,130209,2,0,L|145:264,2,50,2|2|2,3:2|0:2|3:2,0:2:0:0:
89,139,130868,1,10,3:2:0:0:
150,60,131198,2,0,P|213:39|252:68,1,100,2|2,3:2|3:2,0:2:0:0:
278,92,131692,1,2,0:2:0:0:
278,92,131857,2,8,L|381:75,1,100,10|10,3:2|3:2,0:2:0:0:
406,35,132351,1,10,0:2:0:0:
406,35,132516,6,0,P|474:70|433:188,1,200,10|10,3:2|3:2,0:0:0:0:
285,284,133835,2,0,B|245:264|206:284|225:303|186:323|147:303,1,150,10|8,3:2|0:2,0:0:0:0:
107,271,134494,2,0,L|132:112,1,150,10|8,3:2|0:2,0:0:0:0:
137,73,135153,1,2,0:2:0:0:
256,192,135483,12,0,137131,0:1:0:0:
256,192,137791,6,0,L|273:85,1,100,6|2,3:2|0:2,0:2:0:0:
371,75,138450,2,0,L|354:173,1,100,14|2,0:2|0:2,0:2:0:0:
340,272,139109,1,2,3:2:0:0:
250,317,139439,1,0,0:0:0:0:
159,274,139769,2,0,P|136:216|173:164,1,100,14|2,0:2|3:2,0:2:0:0:
186,90,140428,6,0,L|59:69,1,100,2|2,3:2|0:2,0:2:0:0:
37,65,140923,1,2,3:2:0:0:
37,65,141087,2,0,P|-5:131|33:196,1,150,14|2,0:2|0:2,0:2:0:0:
56,227,141747,1,2,3:2:0:0:
187,377,142406,2,0,L|236:369,1,50,14|0,0:2|0:2,0:2:0:0:
275,337,142736,1,10,3:2:0:0:
369,369,143066,6,0,L|467:384,1,100,2|2,3:2|0:2,0:2:0:0:
510,293,143725,2,0,L|411:277,1,100,14|2,0:2|3:2,0:2:0:0:
312,261,144384,1,2,3:2:0:0:
267,171,144714,1,0,0:0:0:0:
310,80,145044,2,0,L|318:24,2,50,14|2|2,0:2|0:2|3:2,0:0:0:0:
210,89,145703,6,0,L|182:263,1,150,2|2,3:2|3:2,0:2:0:0:
175,285,146362,2,0,P|95:302|51:237,1,150,14|2,0:2|0:2,0:2:0:0:
41,208,147022,2,0,L|60:84,1,100,2|0,3:2|0:0,3:2:0:0:
64,59,147516,1,2,3:2:0:0:
64,59,147681,1,6,3:2:0:0:
241,151,148340,6,0,P|297:166|336:111,1,100,2|2,3:2|3:2,0:2:0:0:
348,44,149000,2,0,P|403:29|442:84,1,100,14|2,0:2|3:2,0:2:0:0:
499,128,149659,1,2,3:2:0:0:
484,228,149989,1,2,3:2:0:0:
468,327,150318,2,0,L|361:344,1,100,14|2,0:2|3:2,0:2:0:0:
273,372,150978,6,0,L|174:355,1,100,2|2,3:2|3:2,0:2:0:0:
161,256,151637,2,0,L|259:272,1,100,14|2,0:2|3:2,0:2:0:0:
327,199,152296,2,0,P|344:131|248:81,1,150,2|2,3:2|3:2,3:2:0:0:
244,61,152956,1,14,0:2:0:0:
147,86,153285,1,10,0:2:0:0:
54,47,153615,6,0,L|70:150,1,100,2|2,3:2|3:2,0:2:0:0:
15,230,154274,2,0,P|67:284|76:327,1,100,14|2,0:2|3:2,0:2:0:0:
130,223,154934,2,0,P|159:292|152:335,1,100,10|2,0:2|3:2,0:2:0:0:
239,257,155593,2,0,P|244:306|239:321,1,50,14|2,0:2|3:2,0:0:0:0:
233,354,155922,1,2,3:2:0:0:
332,359,156252,5,2,3:2:0:0:
332,359,156417,2,0,P|403:357|415:323,1,100,8|2,0:2|3:2,0:2:0:0:
432,292,156912,2,0,L|406:133,1,150,10|10,0:2|0:2,0:0:0:0:
403,94,157571,1,2,3:2:0:0:
263,237,158230,2,0,P|183:270|159:238,1,100,10|10,3:2|3:2,0:0:0:0:
95,201,158889,6,0,L|77:92,1,110.000003356934,6|10,3:2|0:2,0:0:0:0:
186,107,159549,2,0,L|201:13,1,55.0000016784668,2|0,3:2|3:2,0:2:0:0:
204,0,159879,1,10,0:2:0:0:
286,70,160208,1,2,3:2:0:0:
386,24,160538,1,10,0:2:0:0:
482,77,160868,2,0,L|464:185,1,110.000003356934,10|10,0:2|0:2,0:0:0:0:
403,277,161527,6,0,P|344:296|300:265,2,110.000003356934,2|10|2,3:2|0:2|3:2,0:0:0:0:
464,185,162516,1,10,0:2:0:0:
390,102,162846,2,0,L|281:119,1,110.000003356934,2|8,3:2|0:2,0:2:0:0:
179,78,163505,2,0,L|168:141,1,55.0000016784668,10|8,0:2|0:2,0:0:0:0:
136,175,163835,2,0,L|146:238,1,55.0000016784668,10|8,0:2|0:2,0:0:0:0:
172,276,164164,6,0,P|123:322|67:293,1,110.000003356934,2|10,3:2|0:2,0:2:0:0:
10,233,164824,2,0,L|18:178,1,55.0000016784668,2|0,3:2|3:2,0:0:0:0:
27,124,165153,1,10,0:2:0:0:
123,176,165483,2,0,P|188:166|206:114,1,110.000003356934,2|10,3:2|0:2,0:0:0:0:
232,84,165978,1,0,3:2:0:0:
232,84,166142,2,0,L|356:64,1,110.000003356934,10|10,0:2|0:2,0:0:0:0:
446,33,166802,6,0,P|425:90|417:165,1,110.000003356934,6|0,3:2|0:0,0:0:0:0:
425,192,167296,1,2,3:2:0:0:
425,192,167461,2,0,P|446:249|454:324,1,110.000003356934,10|0,0:2|3:2,0:2:0:0:
429,348,167956,1,10,0:2:0:0:
429,348,168120,2,0,P|349:366|327:339,1,110.000003356934,2|0,3:2|3:2,0:2:0:0:
245,289,168780,2,0,B|249:267|249:267|230:148|230:148|234:127,1,165.000005035401,10|8,3:2|3:2,0:0:0:0:
257,76,169439,5,14,3:2:0:0:
365,55,169769,1,10,0:2:0:0:
403,157,170098,2,0,L|511:174,1,110.000003356934,10|10,3:2|3:2,0:2:0:0:
464,274,170758,5,10,3:2:0:0:
356,295,171088,1,10,3:2:0:0:
318,193,171417,2,0,L|209:175,1,110.000003356934,10|10,3:2|3:2,0:2:0:0:
100,193,172076,5,10,3:2:0:0:
197,148,172406,1,10,3:2:0:0:
292,196,172736,1,10,3:2:0:0:
313,300,173066,1,10,3:2:0:0:
246,381,173395,2,0,L|137:363,1,110.000003356934,10|8,3:2|3:2,0:2:0:0:
95,328,173890,1,8,0:2:0:0:
95,328,174055,2,0,L|40:319,1,55.0000016784668,10|8,3:2|0:2,0:0:0:0:
7,275,174384,2,0,L|-1:220,1,55.0000016784668,10|8,3:2|0:2,0:0:0:0:
21,170,174714,5,14,3:2:0:0:
93,87,175044,1,8,3:2:0:0:
186,144,175373,1,10,3:2:0:0:
259,60,175702,1,8,3:2:0:0:
352,117,176033,6,0,L|327:273,1,110.000003356934,10|8,3:2|3:2,0:2:0:0:
432,277,176692,2,0,L|449:168,1,110.000003356934,10|10,3:2|3:2,0:2:0:0:
436,59,177351,6,0,L|490:50,2,55.0000016784668,10|8|8,0:2|0:2|0:2,0:0:0:0:
384,39,177846,1,10,0:2:0:0:
384,39,178010,2,0,L|264:19,1,110.000003356934,10|8,0:2|0:2,0:0:0:0:
224,17,178505,1,0,0:0:0:0:
224,17,178670,2,0,P|175:73|219:144,1,165.000005035401,10|8,0:2|0:2,0:0:0:0:
267,158,179329,1,10,0:2:0:0:
307,259,179658,1,10,0:2:0:0:
269,351,179988,1,2,0:0:0:0:
256,192,180318,12,0,181967,0:0:0:0:
442,268,182626,6,2,B|480:376|480:376|167:304,1,400,2|0,2:2|0:0,2:1:0:0:
13,365,184604,5,2,0:2:0:0:
13,365,184934,2,2,B|86:357|107:281|107:281|82:178|82:178|110:119|171:119|171:119|396:166|396:166|336:187|328:250,1,700,2|2,0:2|0:0,0:1:0:0:
389,60,187901,6,2,B|354:52|333:66|333:66|54:7|54:7|33:20|-1:13,1,400,2|0,0:2|0:2,0:1:0:0:
