osu file format v14

[General]
AudioFilename: audio.mp3
AudioLeadIn: 0
PreviewTime: 63719
Countdown: 0
SampleSet: Soft
StackLeniency: 0.3
Mode: 0
LetterboxInBreaks: 0
WidescreenStoryboard: 1

[Editor]
DistanceSpacing: 1.4
BeatDivisor: 8
GridSize: 8
TimelineZoom: 2.1

[Metadata]
Title:Slan Leat
TitleUnicode:Slán Leat
Artist:Rohi
ArtistUnicode:ろひ
Creator:VINXIS
Version:Hard
Source:osu!
Tags:RLC Irish instrumental celtic electronic short featured artist fa mg mappers guild mapper's
BeatmapID:2577888
BeatmapSetID:1177073

[Difficulty]
HPDrainRate:4
CircleSize:3
OverallDifficulty:6
ApproachRate:8
SliderMultiplier:1.2
SliderTickRate:1

[Events]
//Background and Video events
0,0,"73758444_p1.jpg",0,0
//Break Periods
//Storyboard Layer 0 (Background)
//Storyboard Layer 1 (Fail)
//Storyboard Layer 2 (Pass)
//Storyboard Layer 3 (Foreground)
//Storyboard Layer 4 (Overlay)
//Storyboard Sound Samples

[TimingPoints]
727,250,3,2,1,90,1,0
6727,-83.3333333333333,3,2,1,100,0,0
13977,-100,3,2,1,70,0,0
23227,-100,3,2,1,90,0,0
50227,-100,3,2,1,80,0,0
63727,-100,3,2,1,70,0,0
64227,-100,3,2,1,80,0,0
64477,-83.3333333333333,3,2,1,100,0,0
76477,-71.4285714285714,3,1,1,100,0,0
81914,-71.4285714285714,3,2,1,100,0,0
81977,-71.4285714285714,3,1,1,100,0,0
82164,-71.4285714285714,3,2,1,100,0,0
82227,-71.4285714285714,3,1,1,100,0,0
82414,-71.4285714285714,3,2,1,100,0,0
82477,-71.4285714285714,3,1,1,100,0,0
88477,-100,3,2,2,90,0,0
94477,-100,3,2,1,90,0,0
106477,-83.3333333333333,3,2,1,100,0,0
111727,-100,3,2,1,100,0,0
112477,-100,3,2,1,80,0,0

[Colours]
Combo1 : 17,254,176
Combo2 : 173,255,95
Combo3 : 88,194,255
Combo4 : 255,225,55

[HitObjects]
36,283,727,6,0,P|122:299|155:298,1,120,2|0,0:0|3:0,0:0:0:0:
176,192,1102,2,0,P|90:176|57:177,1,120,0|0,3:0|0:0,0:0:0:0:
12,97,1477,2,0,L|18:32,1,60,2|0,0:0|0:0,0:0:0:0:
105,83,1727,2,0,L|110:23,1,60
198,69,1977,1,0,0:0:0:0:
345,119,2227,6,0,P|431:103|464:104,1,120,2|0,0:0|3:0,0:0:0:0:
485,210,2602,2,0,P|399:226|366:225,1,120,0|0,3:0|0:0,0:0:0:0:
321,305,2977,2,0,L|327:370,1,60,2|0,0:0|0:0,0:0:0:0:
414,319,3227,2,0,L|419:378,1,60
507,333,3477,1,0,0:0:0:0:
270,227,3727,6,0,L|144:243,1,120,2|0,0:0|3:0,0:0:0:0:
142,142,4102,2,0,L|261:126,1,120,0|0,3:0|0:0,0:0:0:0:
347,79,4477,2,0,L|339:17,1,60,2|0,0:0|0:0,0:0:0:0:
442,69,4727,2,0,L|434:7,2,60
460,253,5227,5,6,0:0:0:0:
367,225,5352,1,0,0:0:0:0:
340,320,5477,2,0,L|344:391,1,60,0|0,3:0|3:0,0:0:0:0:
240,324,5727,2,0,L|244:384,1,60,0|0,3:0|3:0,0:0:0:0:
83,327,5977,6,0,L|12:331,1,60,6|0,0:0|0:0,0:0:0:0:
74,219,6227,2,0,L|3:223,1,60,0|0,3:0|3:0,0:0:0:0:
69,120,6477,2,0,L|9:123,1,60,0|0,3:0|3:0,0:0:0:0:
137,31,6727,5,6,1:2:0:0:
137,31,6852,2,0,L|216:24,1,71.9999978027344,0|0,3:0|3:0,0:0:0:0:
280,123,7102,1,0,3:0:0:0:
280,123,7227,2,0,L|359:116,1,71.9999978027344,0|0,1:0|0:0,0:0:0:0:
459,73,7477,6,0,L|448:-8,2,71.9999978027344,2|0|0,1:2|0:0|0:0,0:0:0:0:
455,191,7852,1,0,0:0:0:0:
455,191,7977,2,0,L|445:262,1,71.9999978027344,0|0,1:0|1:0,0:0:0:0:
388,353,8227,5,2,1:2:0:0:
388,353,8352,2,0,L|309:360,1,71.9999978027344,0|0,3:0|3:0,0:0:0:0:
245,261,8602,1,0,0:0:0:0:
245,261,8727,2,0,L|166:268,1,71.9999978027344,0|0,3:0|3:0,0:0:0:0:
86,217,8977,6,0,P|68:174|66:135,1,71.9999978027344,2|0,1:2|0:0,0:0:0:0:
155,123,9227,2,0,P|160:76|178:41,1,71.9999978027344,0|0,0:2|0:0,0:0:0:0:
261,76,9477,2,0,P|289:38|322:17,1,71.9999978027344,0|0,1:0|1:0,0:0:0:0:
379,85,9727,5,2,1:2:0:0:
379,85,9852,2,0,L|386:164,1,71.9999978027344,0|0,3:0|3:0,0:0:0:0:
287,228,10102,1,0,0:0:0:0:
287,228,10227,2,0,L|294:307,1,71.9999978027344,0|0,1:0|0:0,0:0:0:0:
192,362,10477,6,0,L|111:351,2,71.9999978027344,2|0|0,1:2|0:0|0:0,0:0:0:0:
183,246,10852,1,0,0:0:0:0:
183,246,10977,2,0,L|111:236,1,71.9999978027344,0|0,1:0|1:0,0:0:0:0:
51,160,11227,5,2,1:2:0:0:
51,160,11352,1,0,0:0:0:0:
124,96,11477,1,2,0:0:0:0:
124,96,11602,1,0,0:0:0:0:
213,148,11727,1,2,1:2:0:0:
213,148,11852,1,0,0:0:0:0:
281,80,11977,5,6,1:2:0:0:
256,192,12102,12,2,12727,0:0:0:0:
483,40,13977,6,0,L|491:103,2,60
359,13,14477,1,0,0:0:0:0:
359,13,14602,1,0,0:0:0:0:
359,13,14727,1,0,0:0:0:0:
369,147,14977,1,0,0:0:0:0:
5,78,15477,5,0,0:0:0:0:
136,19,15727,1,2,0:0:0:0:
195,150,15977,1,0,0:0:0:0:
64,209,16227,1,0,0:0:0:0:
101,110,16477,5,0,0:0:0:0:
387,262,17227,5,0,0:0:0:0:
369,147,17477,1,0,0:0:0:0:
369,147,17602,1,0,0:0:0:0:
369,147,17727,1,0,0:0:0:0:
479,184,17977,1,0,0:0:0:0:
94,223,18477,5,0,0:0:0:0:
222,234,18727,1,2,0:0:0:0:
118,21,19227,5,2,0:3:0:0:
246,32,19477,1,2,0:3:0:0:
255,345,20227,5,0,0:0:0:0:
403,314,20477,1,0,0:0:0:0:
403,314,20602,1,0,0:0:0:0:
403,314,20727,1,0,0:0:0:0:
429,170,20977,1,0,0:0:0:0:
10,199,21477,5,0,0:0:0:0:
130,291,21727,1,2,0:0:0:0:
171,154,21977,1,0,0:0:0:0:
291,246,22227,1,0,0:0:0:0:
346,111,22477,1,0,0:0:0:0:
62,67,22977,5,0,0:0:0:0:
232,17,23227,2,0,P|319:6|360:10,1,120,14|8,0:0|0:0,0:0:0:0:
431,68,23602,1,0,0:0:0:0:
431,68,23727,1,8,0:0:0:0:
323,199,23977,1,10,0:0:0:0:
474,284,24227,1,8,0:0:0:0:
474,284,24352,1,8,0:0:0:0:
409,351,24477,1,8,0:0:0:0:
409,351,24602,1,8,0:0:0:0:
333,292,24727,6,0,L|262:296,1,60,6|0,1:2|1:0,0:0:0:0:
196,229,24977,2,0,L|125:233,1,60,0|0,1:0|1:0,0:0:0:0:
59,166,25227,2,0,L|-12:170,1,60,0|0,1:0|1:0,0:0:0:0:
46,73,25477,6,0,P|111:54|162:17,1,120,6|0,1:2|1:0,0:0:0:0:
227,89,25852,1,0,1:0:0:0:
306,24,25977,1,0,1:0:0:0:
306,24,26102,1,0,1:0:0:0:
363,108,26227,6,0,P|370:149|368:237,1,120,6|8,1:2|1:0,0:0:0:0:
423,308,26602,1,0,0:0:0:0:
423,308,26727,1,8,1:0:0:0:
265,310,26977,2,0,P|258:269|260:181,1,120,2|8,1:2|1:0,0:0:0:0:
205,110,27352,1,0,1:0:0:0:
205,110,27477,1,8,1:0:0:0:
382,110,27727,6,0,L|441:101,1,60,2|0,1:2|0:0,0:0:0:0:
347,18,27977,2,0,L|287:26,1,60,8|0,1:0|0:0,0:0:0:0:
187,16,28227,2,0,L|127:7,1,60,8|0,1:0|1:0,0:0:0:0:
29,48,28477,1,2,1:2:0:0:
110,184,28727,1,8,1:0:0:0:
110,184,28852,1,0,1:0:0:0:
218,195,28977,1,8,1:0:0:0:
218,195,29102,1,0,1:0:0:0:
156,265,29227,6,0,L|155:393,1,120,2|8,1:2|1:0,0:0:0:0:
253,371,29602,1,0,0:0:0:0:
253,371,29727,1,8,1:0:0:0:
405,384,29977,2,0,L|406:256,1,120,2|8,1:2|1:0,0:0:0:0:
308,278,30352,1,0,1:0:0:0:
308,278,30477,1,8,1:0:0:0:
478,213,30727,6,0,P|468:127|474:82,1,120,2|8,1:2|1:0,0:0:0:0:
333,12,31227,2,0,L|273:14,1,60,8|0,1:0|1:0,0:0:0:0:
209,75,31477,2,0,P|219:161|213:206,1,120,2|8,1:2|1:0,0:0:0:0:
215,193,31852,1,0,1:0:0:0:
271,280,31977,1,8,1:0:0:0:
271,280,32102,1,0,1:0:0:0:
187,350,32227,6,0,P|127:349|66:326,1,120,2|8,1:2|1:0,0:0:0:0:
19,254,32602,1,0,0:0:0:0:
19,254,32727,1,8,1:0:0:0:
55,106,32977,2,0,P|115:107|176:130,1,120,2|8,1:2|1:0,0:0:0:0:
223,202,33352,1,0,1:0:0:0:
223,202,33477,1,8,1:0:0:0:
218,33,33727,6,0,L|285:31,1,60,2|0,1:2|0:0,0:0:0:0:
349,109,33977,2,0,L|409:108,1,60,8|0,1:0|0:0,0:0:0:0:
481,186,34227,2,0,L|482:245,1,60,8|0,1:0|1:0,0:0:0:0:
417,329,34477,1,2,1:2:0:0:
166,340,34727,1,8,1:0:0:0:
166,340,34852,1,0,1:0:0:0:
246,268,34977,1,8,1:0:0:0:
246,268,35102,1,0,1:0:0:0:
188,179,35227,6,0,P|184:152|198:59,1,120,6|8,1:2|1:0,0:0:0:0:
279,12,35602,1,0,1:0:0:0:
367,49,35727,2,0,L|365:108,1,60,8|0,1:0|0:0,0:0:0:0:
471,130,35977,6,0,L|473:71,1,60,6|0,1:2|0:0,0:0:0:0:
390,210,36227,2,0,L|331:208,1,60,8|0,1:0|0:0,0:0:0:0:
451,295,36477,2,0,L|510:293,1,60,8|0,1:0|1:0,0:0:0:0:
372,362,36727,5,6,1:2:0:0:
153,348,36977,1,0,1:2:0:0:
171,133,37227,1,0,1:2:0:0:
171,133,37352,1,0,1:0:0:0:
246,193,37477,6,0,L|311:185,1,60,2|0,1:2|1:2,0:0:0:0:
446,135,37727,2,0,L|381:127,1,60,0|0,1:2|1:0,0:0:0:0:
361,259,37977,2,0,L|368:318,1,60,0|0,1:2|1:0,0:0:0:0:
285,360,38227,6,0,P|228:340|168:338,1,120,6|0,1:2|1:0,0:0:0:0:
91,281,38602,1,0,0:0:0:0:
91,281,38727,1,0,1:0:0:0:
248,235,38977,2,0,P|305:215|365:213,1,120,2|0,1:2|1:0,0:0:0:0:
442,156,39352,1,0,0:0:0:0:
442,156,39477,1,0,1:0:0:0:
200,108,39727,6,0,L|208:37,1,60,2|0,1:2|0:0,0:0:0:0:
100,132,39977,2,0,L|106:72,1,60,2|0,1:2|0:0,0:0:0:0:
0,156,40227,2,0,L|6:96,2,60,2|0|0,1:2|0:0|1:2,0:0:0:0:
22,339,40727,6,0,L|87:332,1,60,0|0,1:0|0:0,0:0:0:0:
141,262,40977,1,0,1:0:0:0:
218,323,41102,1,0,1:0:0:0:
300,269,41227,6,0,P|315:220|311:144,1,120,6|0,1:2|1:0,0:0:0:0:
369,77,41602,1,0,0:0:0:0:
369,77,41727,1,0,1:0:0:0:
504,195,41977,2,0,P|489:146|493:70,1,120,2|0,1:2|1:0,0:0:0:0:
435,3,42352,1,0,0:0:0:0:
435,3,42477,1,0,1:0:0:0:
253,49,42727,6,0,L|124:41,1,120,2|0,1:2|1:0,0:0:0:0:
45,87,43102,1,0,0:0:0:0:
45,87,43227,2,0,L|46:153,1,60,0|0,1:0|0:0,0:0:0:0:
0,232,43477,5,2,1:2:0:0:
145,130,43727,2,0,L|144:195,1,60,0|0,1:0|1:0,0:0:0:0:
206,264,43977,2,0,L|265:264,1,60,0|0,1:0|1:0,0:0:0:0:
315,183,44227,5,6,1:2:0:0:
433,267,44477,2,0,L|495:262,1,60,0|0,1:0|1:0,0:0:0:0:
445,360,44727,2,0,L|504:355,1,60,0|0,1:0|1:0,0:0:0:0:
357,319,44977,5,2,1:2:0:0:
170,364,45227,2,0,L|165:302,1,60,0|0,1:0|1:0,0:0:0:0:
76,370,45477,2,0,L|71:308,1,60,0|0,1:0|1:0,0:0:0:0:
107,230,45727,6,0,P|116:190|121:162,1,60,2|0,1:2|1:0,0:0:0:0:
218,183,45977,2,0,P|205:143|196:117,1,60,0|0,1:2|1:0,0:0:0:0:
290,86,46227,2,0,P|259:58|238:39,1,60,0|0,1:2|1:0,0:0:0:0:
362,12,46477,6,0,P|424:8|484:14,1,120,2|4,1:2|1:2,0:0:0:0:
498,139,46852,1,0,1:0:0:0:
431,215,46977,2,0,L|436:286,1,60,6|0,1:2|1:0,0:0:0:0:
335,223,47227,6,0,L|340:283,1,60,6|0,1:2|1:0,0:0:0:0:
270,353,47477,1,0,1:0:0:0:
270,353,47602,2,0,L|208:343,2,60,0|0|0,1:0|1:0|1:0,0:0:0:0:
234,248,47977,6,0,L|174:252,1,60,6|0,1:2|1:0,0:0:0:0:
104,182,48227,1,0,1:0:0:0:
104,182,48352,2,0,L|114:120,2,60,0|0|0,1:0|1:0|1:0,0:0:0:0:
33,258,48727,5,6,1:2:0:0:
216,121,48977,1,4,1:2:0:0:
40,32,49227,1,0,1:0:0:0:
40,32,49352,1,4,1:2:0:0:
82,127,49477,5,6,1:2:0:0:
273,0,49727,1,4,1:2:0:0:
320,204,49977,1,0,1:2:0:0:
320,204,50102,1,4,1:2:0:0:
249,125,50227,6,0,P|209:162|196:231,2,120,4|0|0,1:2|0:0|1:0,0:0:0:0:
382,84,50977,2,0,L|507:108,2,120,0|0|0,1:0|0:0|1:0,0:0:0:0:
296,17,51602,1,0,1:0:0:0:
296,17,51727,5,2,1:2:0:0:
319,202,51977,1,0,0:0:0:0:
156,133,52227,1,0,1:0:0:0:
339,108,52477,5,0,1:2:0:0:
362,293,52727,1,0,0:0:0:0:
199,224,52977,1,0,1:0:0:0:
199,224,53102,1,0,1:0:0:0:
137,304,53227,6,0,P|96:304|7:288,2,120,0|0|0,1:0|0:0|1:0,0:0:0:0:
348,322,53977,2,0,P|406:310|466:309,2,120,0|0|0,1:0|0:0|1:0,0:0:0:0:
257,370,54602,1,0,1:0:0:0:
257,370,54727,5,2,1:2:0:0:
316,192,54977,1,0,0:0:0:0:
131,168,55227,1,0,1:0:0:0:
267,269,55477,5,0,1:0:0:0:
326,91,55727,1,0,0:0:0:0:
141,67,55977,1,0,1:0:0:0:
141,67,56102,1,0,1:0:0:0:
217,148,56227,6,0,L|192:268,2,120,0|0|0,1:0|0:0|1:0,0:0:0:0:
327,67,56977,2,0,L|447:92,2,120,0|0|0,1:0|0:0|1:0,0:0:0:0:
245,4,57602,1,0,1:0:0:0:
245,4,57727,5,2,1:2:0:0:
189,154,57977,1,0,0:0:0:0:
314,254,58227,1,0,1:0:0:0:
280,117,58477,5,0,1:2:0:0:
224,267,58727,1,0,0:0:0:0:
349,367,58977,1,0,1:0:0:0:
349,367,59102,1,0,1:0:0:0:
436,323,59227,6,0,P|441:256|433:195,1,120,2|2,1:3|0:3,0:0:0:0:
280,117,59727,1,2,1:3:0:0:
512,59,59977,2,0,P|445:54|384:62,1,120,2|2,1:3|0:3,0:0:0:0:
392,60,60352,1,2,0:3:0:0:
320,0,60477,2,0,L|249:5,1,60,2|2,1:3|1:3,0:0:0:0:
195,73,60727,6,0,L|153:67,2,30,2|0|0,1:2|3:0|3:0,3:0:0:0:
279,122,60977,2,0,L|262:243,1,120,0|0,1:0|1:0,1:0:0:0:
465,308,61477,2,0,L|507:314,2,30,2|0|0,1:2|3:0|3:0,0:0:0:0:
381,259,61727,2,0,L|398:138,1,120,0|0,1:0|1:0,0:0:0:0:
496,95,62102,1,0,1:0:0:0:
431,9,62227,5,2,0:0:0:0:
431,9,63727,6,0,L|450:191,1,180,2|0,0:0|0:0,0:0:0:0:
356,204,64227,2,0,L|349:144,1,60
286,57,64477,5,4,1:0:0:0:
205,107,64602,1,0,0:0:0:0:
117,66,64727,2,0,L|30:66,1,71.9999978027344,8|0,1:0|0:0,0:0:0:0:
0,151,64977,2,0,L|0:223,1,71.9999978027344,8|0,1:0|0:0,0:0:0:0:
72,291,65227,5,2,1:2:0:0:
72,291,65352,1,0,0:0:0:0:
135,212,65477,2,0,L|216:217,1,71.9999978027344,8|0,1:0|0:0,0:0:0:0:
296,249,65727,1,8,1:0:0:0:
352,170,65852,1,0,1:0:0:0:
425,232,65977,6,0,P|437:280|431:375,2,143.999995605469,2|8|8,1:2|1:0|1:0,0:0:0:0:
259,144,66727,6,0,L|273:63,1,71.9999978027344,2|0,1:2|0:0,0:0:0:0:
159,129,66977,2,0,L|173:48,1,71.9999978027344,8|0,1:0|0:0,0:0:0:0:
59,114,67227,1,8,1:0:0:0:
59,114,67352,1,8,1:0:0:0:
98,205,67477,6,0,L|85:275,1,71.9999978027344,2|0,1:2|0:0,0:0:0:0:
156,342,67727,2,0,P|206:333|307:335,1,143.999995605469,8|8,1:0|1:0,0:0:0:0:
382,368,68102,1,0,0:0:0:0:
458,302,68227,6,0,L|456:227,1,71.9999978027344,2|0,1:2|0:0,0:0:0:0:
384,159,68477,2,0,P|397:107|394:15,1,143.999995605469,8|8,1:0|1:0,0:0:0:0:
394,17,68852,1,0,1:0:0:0:
492,14,68977,5,2,1:2:0:0:
286,62,69227,1,8,1:0:0:0:
81,11,69477,1,8,1:0:0:0:
310,97,69727,6,2,P|312:168|303:212,1,107.999996704102,6|0,1:2|0:0,0:1:0:0:
277,224,69977,2,2,P|206:226|162:217,1,107.999996704102,6|0,1:2|0:0,0:1:0:0:
145,237,70227,2,2,L|136:308,1,71.9999978027344,6|0,1:2|1:0,0:1:0:0:
90,384,70477,5,6,1:2:0:0:
370,370,70727,2,0,P|441:365|511:348,1,143.999995605469,8|8,1:0|1:0,0:0:0:0:
481,252,71102,1,0,0:0:0:0:
503,136,71227,5,2,1:2:0:0:
341,228,71477,1,8,1:0:0:0:
299,47,71727,1,8,1:0:0:0:
166,135,71977,5,2,1:2:0:0:
166,135,72102,1,0,0:0:0:0:
64,71,72227,1,8,1:0:0:0:
64,71,72352,1,0,0:0:0:0:
0,173,72477,1,8,1:0:0:0:
0,173,72602,1,0,0:0:0:0:
102,237,72727,6,0,P|117:306|113:378,1,143.999995605469,2|8,1:2|1:0,0:0:0:0:
339,361,73227,1,8,1:0:0:0:
339,361,73352,1,8,1:0:0:0:
262,283,73477,6,0,L|269:206,1,71.9999978027344,6|0,1:2|0:0,0:0:0:0:
358,185,73727,2,0,L|365:108,1,71.9999978027344,8|0,1:0|0:0,0:0:0:0:
432,58,73977,1,8,1:0:0:0:
351,10,74102,1,0,0:0:0:0:
267,56,74227,6,0,P|194:57|116:42,2,143.999995605469,6|8|8,1:2|1:0|1:0,0:0:0:0:
351,10,74852,1,0,1:0:0:0:
430,75,74977,6,0,L|430:151,1,71.9999978027344,6|0,1:2|0:0,0:0:0:0:
330,170,75227,2,0,P|339:237|328:324,1,143.999995605469,8|8,1:0|1:0,0:0:0:0:
253,360,75602,1,8,1:0:0:0:
176,310,75727,5,6,1:2:0:0:
10,368,75977,1,6,1:2:0:0:
15,185,76227,1,6,1:2:0:0:
221,184,76477,6,0,P|237:126|206:21,1,167.999994873047,4|8,0:0|0:0,0:0:0:0:
110,33,76852,2,0,P|94:91|125:196,1,167.999994873047
73,267,77227,5,2,0:2:0:0:
152,323,77352,1,0,0:0:0:0:
242,286,77477,2,0,L|329:298,1,83.9999974365235,8|0,0:0|0:0,0:0:0:0:
409,246,77727,2,0,L|496:258,1,83.9999974365235,8|0,0:0|0:0,0:0:0:0:
417,132,77977,6,0,P|357:150|247:151,1,167.999994873047,2|8,0:2|0:0,0:0:0:0:
245,45,78352,2,0,P|305:27|415:26,1,167.999994873047
509,0,78727,6,0,L|497:91,1,83.9999974365235,2|0,0:2|0:0,0:0:0:0:
503,174,78977,2,0,L|491:265,1,83.9999974365235,8|0,0:0|0:0,0:0:0:0:
497,348,79227,1,8,0:0:0:0:
231,335,79477,6,0,P|161:347|51:336,1,167.999994873047,2|8,0:2|0:0,0:0:0:0:
66,232,79852,2,0,P|136:220|246:231,1,167.999994873047
300,158,80227,5,2,0:2:0:0:
242,67,80352,1,0,0:0:0:0:
333,13,80477,2,0,L|420:25,1,83.9999974365235,8|0,0:0|0:0,0:0:0:0:
462,113,80727,2,0,L|450:196,1,83.9999974365235,8|0,0:0|0:0,0:0:0:0:
364,221,80977,6,0,P|364:274|329:393,1,167.999994873047,2|8,0:2|0:0,0:0:0:0:
217,364,81352,2,0,P|217:311|252:192,1,167.999994873047
316,127,81727,6,2,L|452:119,1,125.999996154785,6|0,1:2|0:0,0:1:0:0:
473,139,81977,2,2,L|480:264,1,125.999996154785,6|0,1:2|0:0,0:1:0:0:
461,296,82227,2,2,L|335:303,1,125.999996154785,6|0,1:2|0:0,0:1:0:0:
309,334,82477,6,0,P|227:306|139:306,1,167.999994873047,6|8,0:2|0:0,0:0:0:0:
64,358,82852,1,0,0:0:0:0:
15,267,82977,2,0,L|35:182,1,83.9999974365235,8|0,0:0|0:0,0:0:0:0:
123,148,83227,6,0,L|114:56,1,83.9999974365235,2|0,0:2|0:0,0:0:0:0:
219,133,83477,2,0,L|210:41,1,83.9999974365235,8|0,0:0|0:0,0:0:0:0:
315,118,83727,2,0,L|306:26,1,83.9999974365235,8|0,0:0|0:0,0:0:0:0:
410,12,83977,5,2,1:2:0:0:
410,12,84102,1,0,0:0:0:0:
471,104,84227,1,8,0:0:0:0:
471,104,84352,1,0,0:0:0:0:
406,188,84477,1,8,0:0:0:0:
406,188,84602,1,0,0:0:0:0:
467,280,84727,6,0,P|467:331|461:372,1,83.9999974365235,2|0,0:2|0:0,0:0:0:0:
350,355,84977,2,0,P|350:304|356:263,1,83.9999974365235,8|0,0:0|0:0,0:0:0:0:
284,194,85227,1,8,0:0:0:0:
201,261,85352,1,0,0:0:0:0:
116,207,85477,6,0,P|61:186|19:86,1,167.999994873047,6|8,0:2|0:0,0:0:0:0:
86,19,85852,1,0,0:0:0:0:
86,19,85977,2,0,L|182:30,1,83.9999974365235,8|0,0:0|0:0,0:0:0:0:
306,89,86227,6,0,L|210:100,1,83.9999974365235,6|0,0:2|0:2,0:0:0:0:
225,197,86477,2,0,L|405:172,1,167.999994873047,8|8,0:0|0:0,0:0:0:0:
456,110,86852,1,0,0:0:0:0:
508,185,86977,6,0,P|503:233|491:283,1,83.9999974365235,6|0,0:2|0:0,0:0:0:0:
461,347,87227,2,0,P|376:353|286:340,1,167.999994873047,8|8,0:0|0:0,0:0:0:0:
205,372,87602,1,0,0:0:0:0:
235,262,87727,6,0,L|223:178,1,83.9999974365235,6|0,0:2|0:0,0:0:0:0:
331,245,87977,2,0,L|319:161,1,83.9999974365235,6|0,0:2|0:0,0:0:0:0:
301,71,88227,1,6,0:2:0:0:
301,71,88477,6,0,P|360:43|421:37,2,120,2|0|0,1:2|1:0|1:0,0:0:0:0:
211,313,89227,2,0,P|152:341|91:347,2,120,2|0|0,1:2|1:0|1:0,0:0:0:0:
304,105,89977,5,2,1:2:0:0:
315,273,90227,1,0,1:0:0:0:
147,284,90477,1,0,1:0:0:0:
136,116,90727,1,2,1:2:0:0:
0,235,90977,2,0,L|69:223,2,60,0|0|0,1:0|0:0|1:0,0:0:0:0:
6,340,91352,1,0,1:0:0:0:
6,340,91477,5,2,1:2:0:0:
211,359,91727,1,0,1:0:0:0:
230,154,91977,1,0,1:0:0:0:
25,135,92227,2,0,P|26:86|47:17,2,120,2|0|0,1:2|1:0|1:0,0:0:0:0:
204,253,92977,5,2,1:2:0:0:
417,158,93227,1,0,1:0:0:0:
228,22,93477,1,0,1:0:0:0:
204,253,93727,1,6,1:2:0:0:
305,99,93977,2,0,L|312:171,2,60,0|0|0,1:0|0:0|1:0,0:0:0:0:
212,53,94352,1,0,0:0:0:0:
212,53,94477,5,6,0:0:0:0:
372,40,94727,1,0,0:0:0:0:
445,167,94977,1,2,0:3:0:0:
370,263,95227,5,6,0:0:0:0:
210,276,95477,1,2,0:3:0:0:
137,149,95727,1,2,0:3:0:0:
295,82,95977,6,0,L|304:205,2,120,2|0|2,0:0|0:0|0:3,0:0:0:0:
420,70,96727,2,0,L|428:189,2,120,2|2|2,0:0|0:3|0:3,0:0:0:0:
210,44,97477,6,0,P|150:42|49:176,1,240,2|2,0:0|0:3,0:0:0:0:
120,350,98227,2,0,P|180:352|281:218,1,240,2|2,0:0|0:3,0:0:0:0:
188,208,98977,5,6,0:0:0:0:
294,186,99727,1,4,0:0:0:0:
294,186,100477,6,0,P|310:272|309:305,1,120,4|0,0:0|3:0,0:0:0:0:
203,326,100852,2,0,P|187:240|188:207,1,120,0|0,3:0|0:0,0:0:0:0:
114,157,101227,2,0,L|49:151,1,60,2|0,0:0|0:0,0:0:0:0:
131,62,101477,2,0,L|71:57,1,60
1,0,101727,1,0,0:0:0:0:
230,21,101977,6,0,P|316:5|349:6,1,120,2|0,0:0|3:0,0:0:0:0:
370,112,102352,2,0,P|284:128|251:127,1,120,0|0,3:0|0:0,0:0:0:0:
212,214,102727,2,0,L|218:279,1,60,2|0,0:0|0:0,0:0:0:0:
305,228,102977,2,0,L|310:287,1,60
398,242,103227,1,0,0:0:0:0:
221,113,103477,6,0,L|95:97,1,120,2|0,0:0|3:0,0:0:0:0:
93,198,103852,2,0,L|212:214,1,120,0|0,3:0|0:0,0:0:0:0:
298,261,104227,2,0,L|290:323,1,60,2|0,0:0|0:0,0:0:0:0:
393,271,104477,2,0,L|385:333,2,60
441,42,104977,5,6,0:0:0:0:
348,14,105102,1,0,0:0:0:0:
321,109,105227,2,0,L|325:180,1,60,0|0,3:0|3:0,0:0:0:0:
221,113,105477,2,0,L|225:173,1,60
153,228,105727,6,0,L|91:221,1,60,6|0,0:0|0:0,0:0:0:0:
10,279,105977,2,0,L|6:350,1,60
101,382,106227,2,0,L|161:385,1,60
237,323,106477,5,6,1:2:0:0:
237,323,106602,2,0,L|316:330,1,71.9999978027344,0|0,3:0|3:0,0:0:0:0:
380,231,106852,1,0,0:0:0:0:
380,231,106977,2,0,L|459:238,1,71.9999978027344,0|0,1:0|0:0,0:0:0:0:
503,135,107227,6,2,L|514:54,2,71.9999978027344,2|2|0,1:2|0:0|0:0,0:0:0:0:
388,116,107602,1,0,0:0:0:0:
388,116,107727,2,0,L|398:45,1,71.9999978027344,0|0,1:0|1:0,0:0:0:0:
261,132,107977,5,2,1:2:0:0:
261,132,108102,2,0,L|268:211,1,71.9999978027344,0|0,3:0|3:0,0:0:0:0:
150,194,108352,1,0,0:0:0:0:
150,194,108477,2,0,L|157:273,1,71.9999978027344,0|0,3:0|3:0,0:0:0:0:
207,364,108727,6,0,P|250:382|289:384,1,71.9999978027344,2|0,1:2|0:0,0:0:0:0:
301,295,108977,2,0,P|348:290|383:272,1,71.9999978027344
348,189,109227,2,0,P|386:161|407:128,1,71.9999978027344,0|0,1:0|1:0,0:0:0:0:
365,51,109477,5,2,1:2:0:0:
365,51,109602,2,0,L|286:44,1,71.9999978027344,0|0,3:0|3:0,0:0:0:0:
222,143,109852,1,0,0:0:0:0:
222,143,109977,2,0,L|143:136,1,71.9999978027344,0|0,1:0|0:0,0:0:0:0:
95,232,110227,6,0,L|106:313,2,71.9999978027344,2|0|0,1:2|0:0|0:0,0:0:0:0:
211,241,110602,1,0,0:0:0:0:
211,241,110727,2,0,L|221:313,1,71.9999978027344,0|0,1:0|1:0,0:0:0:0:
310,366,110977,5,6,1:2:0:0:
310,366,111102,1,0,0:0:0:0:
391,298,111227,1,6,0:0:0:0:
391,298,111352,1,0,0:0:0:0:
353,205,111477,1,6,1:2:0:0:
353,205,111602,1,0,0:0:0:0:
420,139,111727,5,6,1:2:0:0:
256,192,111852,12,2,112477,0:0:0:0:
