osu file format v14

[General]
AudioFilename: audio.mp3
AudioLeadIn: 0
PreviewTime: 63719
Countdown: 0
SampleSet: Soft
StackLeniency: 0.3
Mode: 0
LetterboxInBreaks: 0
WidescreenStoryboard: 1

[Editor]
DistanceSpacing: 1.2
BeatDivisor: 4
GridSize: 8
TimelineZoom: 2.1

[Metadata]
Title:Slan Leat
TitleUnicode:Slán Leat
Artist:Rohi
ArtistUnicode:ろひ
Creator:VINXIS
Version:Easy
Source:osu!
Tags:RLC Irish instrumental celtic electronic short featured artist fa mg mappers guild mapper's
BeatmapID:2561288
BeatmapSetID:1177073

[Difficulty]
HPDrainRate:1
CircleSize:2
OverallDifficulty:2
ApproachRate:3
SliderMultiplier:0.8
SliderTickRate:1

[Events]
//Background and Video events
0,0,"73758444_p1.jpg",0,0
//Break Periods
2,88427,92537
//Storyboard Layer 0 (Background)
//Storyboard Layer 1 (Fail)
//Storyboard Layer 2 (Pass)
//Storyboard Layer 3 (Foreground)
//Storyboard Layer 4 (Overlay)
//Storyboard Sound Samples

[TimingPoints]
727,250,3,2,1,90,1,0
6727,-100,3,2,1,100,0,0
13977,-100,3,2,1,70,0,0
23227,-100,3,2,1,90,0,0
50227,-100,3,2,1,80,0,0
63727,-100,3,2,1,70,0,0
64227,-100,3,2,1,80,0,0
64477,-100,3,2,1,100,0,0
76477,-100,3,1,1,100,0,0
81914,-100,3,2,1,100,0,0
81977,-100,3,1,1,100,0,0
82164,-100,3,2,1,100,0,0
82227,-100,3,1,1,100,0,0
82414,-100,3,2,1,100,0,0
82477,-100,3,1,1,100,0,0
88477,-100,3,2,2,90,0,0
94477,-100,3,2,1,90,0,0
106477,-100,3,2,1,100,0,0
111727,-100,3,2,1,100,0,0
112477,-100,3,2,1,80,0,0

[Colours]
Combo1 : 17,254,176
Combo2 : 173,255,95
Combo3 : 88,194,255
Combo4 : 255,225,55

[HitObjects]
14,350,727,6,0,P|85:357|177:341,1,160,2|0,0:0|0:0,0:0:0:0:
230,265,1477,1,2,0:0:0:0:
512,216,2227,2,0,P|519:145|503:53,1,160,2|0,0:0|0:0,0:0:0:0:
427,0,2977,1,2,0:0:0:0:
141,39,3727,6,0,B|132:120|132:120|161:193,1,160,2|0,0:0|0:0,0:0:0:0:
241,244,4477,2,0,L|406:222,1,160,2|0,0:0|0:0,0:0:0:0:
466,153,5227,1,6,0:0:0:0:
263,358,5977,1,6,0:0:0:0:
21,200,6727,6,0,P|21:118|39:37,1,160,6|0,1:2|1:0,0:0:0:0:
132,32,7477,2,0,L|223:26,2,80,2|0|0,1:2|0:0|1:0,0:0:0:0:
126,127,8227,5,2,1:2:0:0:
321,109,8727,1,0,1:0:0:0:
321,109,8977,2,0,L|408:97,2,80,2|0|0,1:2|0:2|1:0,0:0:0:0:
234,150,9727,6,0,P|240:235|253:319,1,160,2|0,1:2|1:0,0:0:0:0:
328,365,10477,2,0,L|407:366,2,80,2|0|0,1:2|0:0|1:0,0:0:0:0:
344,270,11227,5,2,1:2:0:0:
406,197,11477,1,2,0:0:0:0:
384,103,11727,1,2,1:2:0:0:
293,70,11977,2,0,L|54:75,1,240,6|2,1:2|0:0,0:0:0:0:
500,248,13977,5,0,0:0:0:0:
500,248,14227,2,0,L|336:242,1,160
282,319,14977,2,0,L|122:313,1,160
25,310,15727,1,2,0:0:0:0:
148,163,16227,1,0,0:0:0:0:
148,163,16477,1,0,0:0:0:0:
13,25,16977,1,0,0:0:0:0:
13,25,17227,6,0,P|17:88|27:193,1,160
48,277,17977,2,0,P|111:273|216:263,1,160
296,298,18727,1,2,0:0:0:0:
321,107,19227,2,0,L|315:16,1,80,2|2,0:3|0:3,0:0:0:0:
303,314,20227,6,0,P|216:345|138:338,1,160
89,265,20977,2,0,P|86:185|116:111,1,160
206,79,21727,2,0,L|201:0,2,80,2|0|0,0:0|0:0|0:0,0:0:0:0:
285,133,22477,1,0,0:0:0:0:
481,124,22977,1,0,0:0:0:0:
481,124,23227,6,0,L|484:288,1,160,14|8,0:0|0:0,0:0:0:0:
387,287,23977,2,0,L|385:190,2,80,10|8|8,0:0|0:0|0:0,0:0:0:0:
295,315,24727,1,6,1:2:0:0:
200,332,24977,1,0,1:0:0:0:
112,292,25227,1,0,1:0:0:0:
69,205,25477,2,0,L|76:118,2,80,6|0|0,1:2|1:0|1:0,0:0:0:0:
165,199,26227,6,0,L|181:34,1,160,6|8,1:2|1:0,0:0:0:0:
272,13,26977,2,0,L|431:28,1,160,2|8,1:2|1:0,0:0:0:0:
495,99,27727,1,2,1:2:0:0:
461,189,27977,1,8,1:0:0:0:
502,275,28227,2,0,L|486:357,1,80,8|2,1:0|1:2,0:0:0:0:
391,365,28727,2,0,L|312:349,1,80,8|8,1:0|1:0,0:0:0:0:
247,279,29227,5,2,1:2:0:0:
66,343,29727,1,8,1:0:0:0:
66,343,29977,1,2,1:2:0:0:
37,153,30477,1,8,1:0:0:0:
37,153,30727,2,0,P|96:118|201:107,1,160,2|8,1:2|1:0,0:0:0:0:
277,132,31477,2,0,L|371:126,2,80,2|8|8,1:2|1:0|1:0,0:0:0:0:
206,196,32227,6,0,L|200:364,1,160,2|8,1:2|1:0,0:0:0:0:
104,354,32977,2,0,L|109:194,1,160,2|8,1:2|1:0,0:0:0:0:
48,120,33727,1,2,1:2:0:0:
119,55,33977,1,8,1:0:0:0:
214,68,34227,2,0,L|294:57,1,80,8|2,1:0|1:2,0:0:0:0:
373,109,34727,2,0,L|384:189,1,80,8|8,1:0|1:0,0:0:0:0:
479,179,35227,6,0,P|477:258|486:338,1,160,6|8,1:2|1:0,0:0:0:0:
396,372,35977,2,0,P|312:363|231:365,1,160,6|8,1:2|1:0,0:0:0:0:
143,338,36727,1,6,1:2:0:0:
197,259,36977,1,0,1:2:0:0:
121,199,37227,1,0,1:2:0:0:
165,113,37477,2,0,L|165:29,2,80,2|0|0,1:2|1:2|1:2,0:0:0:0:
253,149,38227,6,0,P|300:148|348:144,2,80,6|0|0,1:2|1:0|1:0,0:0:0:0:
185,216,38977,2,0,P|185:263|190:311,2,80,2|0|0,1:2|1:0|1:0,0:0:0:0:
91,191,39727,2,0,P|71:133|86:37,1,160,2|2,1:2|1:2,0:0:0:0:
180,22,40477,1,0,1:2:0:0:
371,27,40977,1,0,1:0:0:0:
371,27,41227,6,0,L|451:32,2,80,6|0|0,1:2|1:0|1:0,0:0:0:0:
365,122,41977,2,0,L|445:127,2,80,2|0|0,1:2|1:0|1:0,0:0:0:0:
292,185,42727,2,0,L|286:356,1,160,2|0,1:2|1:0,0:0:0:0:
195,377,43477,1,2,1:2:0:0:
35,281,43977,1,0,1:0:0:0:
35,281,44227,6,0,L|31:189,2,80,6|0|0,1:2|1:0|1:0,0:0:0:0:
129,267,44977,2,0,L|125:175,2,80,2|0|0,1:2|1:0|1:0,0:0:0:0:
226,294,45727,1,2,1:2:0:0:
226,294,45977,2,0,L|389:285,1,160,0|2,1:2|1:2,0:0:0:0:
452,215,46727,2,0,L|443:134,1,80,4|6,1:2|1:2,0:0:0:0:
391,54,47227,6,0,P|348:30|313:18,2,80,6|0|0,1:2|1:0|1:0,0:0:0:0:
328,127,47977,2,0,P|278:127|242:134,2,80,6|0|0,1:2|1:0|1:0,0:0:0:0:
310,222,48727,6,0,P|288:289|277:383,1,160,6|0,1:2|1:0,0:0:0:0:
180,374,49477,2,0,P|103:349|24:341,1,160,6|0,1:2|1:2,0:0:0:0:
7,246,50227,5,4,1:2:0:0:
194,205,50727,1,0,1:0:0:0:
194,205,50977,1,0,1:0:0:0:
38,103,51477,1,0,1:0:0:0:
38,103,51727,1,2,1:2:0:0:
223,52,52227,1,0,1:0:0:0:
223,52,52477,1,0,1:2:0:0:
408,103,52977,1,0,1:0:0:0:
408,103,53227,6,0,P|413:173|406:263,1,160,0|0,1:0|1:0,0:0:0:0:
310,265,53977,2,0,P|305:195|312:105,1,160,0|0,1:0|1:0,0:0:0:0:
231,53,54727,2,0,P|161:58|71:51,1,160,2|0,1:2|1:0,0:0:0:0:
2,120,55477,2,0,P|7:190|0:280,1,160,0|0,1:0|1:0,0:0:0:0:
58,356,56227,5,0,1:0:0:0:
252,335,56727,1,0,1:0:0:0:
252,335,56977,1,0,1:0:0:0:
269,147,57477,1,0,1:0:0:0:
269,147,57727,1,2,1:2:0:0:
85,109,58227,1,0,1:0:0:0:
85,109,58477,1,0,1:2:0:0:
55,302,58977,1,0,1:0:0:0:
55,302,59227,6,0,P|134:307|212:292,1,160,2|2,1:3|1:3,0:0:0:0:
294,241,59977,2,0,P|299:161|284:83,1,160,2|2,1:3|1:3,0:0:0:0:
375,55,60727,2,0,L|394:147,1,80,2|0,1:2|1:0,3:0:0:0:
480,169,61227,1,0,1:0:0:0:
432,252,61477,2,0,L|451:344,1,80,2|0,1:2|1:0,0:0:0:0:
362,373,61977,1,0,1:0:0:0:
269,346,62227,5,2,0:0:0:0:
269,346,63727,6,0,B|280:280|280:280|268:252|268:252|280:190,1,160,2|0,0:0|0:0,0:0:0:0:
361,241,64477,6,0,P|405:198|419:100,1,160,4|8,1:0|1:0,0:0:0:0:
433,8,65227,2,0,L|512:2,2,80,2|8|8,1:2|1:0|1:0,0:0:0:0:
337,10,65977,6,0,P|256:20|173:38,1,160,2|8,1:2|1:0,0:0:0:0:
87,8,66727,1,2,1:2:0:0:
44,197,67227,1,8,1:0:0:0:
44,197,67477,6,0,L|37:280,2,80,2|8|8,1:2|1:0|1:0,0:0:0:0:
137,176,68227,2,0,P|189:183|297:180,1,160,2|8,1:2|1:0,0:0:0:0:
366,246,68977,6,0,P|404:190|493:160,1,160,2|8,1:2|1:0,0:0:0:0:
502,254,69727,1,6,1:2:0:0:
277,73,70477,6,0,P|154:58|115:62,1,160,6|8,1:2|1:0,0:0:0:0:
47,125,71227,2,0,P|44:204|58:283,1,160,2|8,1:2|1:0,0:0:0:0:
109,364,71977,6,0,L|196:348,1,80,2|8,1:2|1:0,0:0:0:0:
280,374,72477,2,0,L|367:358,1,80,8|2,1:0|1:2,0:0:0:0:
362,167,73227,1,8,1:0:0:0:
362,167,73477,6,0,P|362:82|382:6,1,160,6|8,1:2|1:0,0:0:0:0:
475,26,74227,2,0,P|475:105|456:183,1,160,6|8,1:2|1:0,0:0:0:0:
398,260,74977,1,6,1:2:0:0:
302,266,75227,1,8,1:0:0:0:
206,272,75477,1,8,1:0:0:0:
110,278,75727,5,6,1:2:0:0:
367,148,76477,6,0,L|368:64,1,80,4|8,0:0|0:0,0:0:0:0:
293,15,76977,1,8,0:0:0:0:
293,15,77227,2,0,L|206:20,1,80,2|8,0:2|0:0,0:0:0:0:
144,86,77727,1,8,0:0:0:0:
144,86,77977,6,0,B|156:183|109:131|124:244,1,160,2|8,0:2|0:0,0:0:0:0:
78,324,78727,2,0,P|22:319|-7:311,2,80,2|8|8,0:2|0:0|0:0,0:0:0:0:
167,359,79477,6,0,L|255:348,1,80,2|8,0:2|0:0,0:0:0:0:
345,367,79977,1,8,0:0:0:0:
345,367,80227,2,0,L|433:356,1,80,2|8,0:2|0:0,0:0:0:0:
487,284,80727,1,8,0:0:0:0:
487,284,80977,6,0,B|500:182|457:221|473:127,1,160,2|8,0:2|0:0,0:0:0:0:
416,49,81727,1,6,1:2:0:0:
335,325,82477,6,0,P|263:315|172:324,1,160,6|8,0:2|0:0,0:0:0:0:
103,260,83227,2,0,L|115:179,1,80,2|8,0:2|0:0,0:0:0:0:
192,124,83727,1,8,0:0:0:0:
141,42,83977,6,0,L|61:42,2,80,2|8|8,1:2|0:0|0:0,0:0:0:0:
233,16,84727,2,0,P|302:32|395:28,1,160,2|8,0:2|0:0,0:0:0:0:
467,87,85477,5,6,0:2:0:0:
352,242,85977,1,8,0:0:0:0:
352,242,86227,1,6,0:2:0:0:
205,127,86727,1,8,0:0:0:0:
205,127,86977,6,0,L|121:129,2,80,6|8|8,0:2|0:0|0:0,0:0:0:0:
283,72,87727,2,0,L|368:79,1,80,6|6,0:2|0:2,0:0:0:0:
457,93,88227,1,6,0:2:0:0:
133,319,93977,6,0,L|138:238,1,80,0|0,1:0|0:0,0:0:0:0:
77,164,94477,5,6,0:0:0:0:
362,199,95227,1,6,0:0:0:0:
77,164,95977,2,0,P|70:109|70:78,2,80,2|0|2,0:0|0:0|0:3,0:0:0:0:
134,240,96727,1,2,0:0:0:0:
317,182,97227,1,2,0:3:0:0:
380,254,97477,5,2,0:0:0:0:
92,263,98227,1,2,0:0:0:0:
380,254,98977,2,0,P|339:125|364:27,1,240,6|4,0:0|0:0,0:0:0:0:
76,6,100477,6,0,P|83:77|67:169,1,160,4|0,0:0|0:0,0:0:0:0:
1,222,101227,1,2,0:0:0:0:
252,363,101977,2,0,P|323:370|415:354,1,160,2|0,0:0|0:0,0:0:0:0:
468,278,102727,1,2,0:0:0:0:
338,20,103477,6,0,B|257:11|257:11|184:40,1,160,2|0,0:0|0:0,0:0:0:0:
133,120,104227,2,0,L|155:285,1,160,2|0,0:0|0:0,0:0:0:0:
224,345,104977,1,6,0:0:0:0:
221,57,105727,1,6,0:0:0:0:
196,343,106477,6,0,P|136:336|34:317,1,160,6|0,1:2|1:0,0:0:0:0:
12,225,107227,2,2,L|7:142,2,80,2|0|0,1:2|0:0|1:0,0:0:0:0:
108,218,107977,6,0,L|99:51,1,160,2|0,1:2|1:0,0:0:0:0:
187,19,108727,2,0,L|275:30,1,80,2|0,1:2|0:0,0:0:0:0:
362,27,109227,1,0,1:0:0:0:
437,87,109477,6,0,P|436:159|439:254,1,160,2|0,1:2|1:0,0:0:0:0:
432,343,110227,2,0,L|513:348,2,80,2|0|0,1:2|0:0|1:0,0:0:0:0:
354,286,110977,5,6,1:2:0:0:
279,346,111227,1,6,0:0:0:0:
183,333,111477,1,6,1:2:0:0:
129,253,111727,2,0,L|161:15,1,240,6|2,1:2|0:0,0:0:0:0:
