osu file format v14

[General]
AudioFilename: audio.mp3
AudioLeadIn: 0
PreviewTime:38546
Countdown: 0
SampleSet: Soft
StackLeniency: 0.7
Mode: 0
LetterboxInBreaks: 0
WidescreenStoryboard: 0

[Editor]
DistanceSpacing: 0.75
BeatDivisor: 3
GridSize: 4
TimelineZoom: 2.4

[Metadata]
Title:LvC3
TitleUnicode:LvC3
Artist:Rohi
ArtistUnicode:ろひ
Creator:VINXIS
Version:captin's Extra
Source:osu!
Tags:RLC captin1 piano instrumental electronic complextro edm short featured artist fa mappers guild mapper's mappers'
BeatmapID:2560354
BeatmapSetID:1231655

[Difficulty]
HPDrainRate:5
CircleSize:4.2
OverallDifficulty:9
ApproachRate:9.4
SliderMultiplier:1.8
SliderTickRate:1

[Events]
//Background and Video events
0,0,"68883606_p0_waifu2x_art_scale_tta_1.jpg",0,0
//Break Periods
2,57317,65721
//Storyboard Layer 0 (Background)
//Storyboard Layer 1 (Fail)
//Storyboard Layer 2 (Pass)
//Storyboard Layer 3 (Foreground)
//Storyboard Layer 4 (Overlay)
//Storyboard Sound Samples

[TimingPoints]
2261,285.714285714286,4,2,1,70,1,0
2689,-133.333333333333,4,2,1,70,0,0
3832,-100,4,2,1,70,0,0
4975,-133.333333333333,4,2,1,70,0,0
6832,-100,4,2,1,70,0,0
7261,-133.333333333333,4,2,1,70,0,0
8403,-100,4,2,1,70,0,0
9546,-133.333333333333,4,2,1,70,0,0
10832,-100,4,2,1,70,0,0
11403,-100,4,2,1,100,0,0
18261,-100,4,2,1,90,0,0
20546,-133.333333333333,4,2,1,70,0,0
20832,-100,4,2,1,90,0,0
39975,-83.3333333333333,4,2,1,90,0,0
61689,-83.3333333333333,4,2,1,60,0,0
66261,-100,4,2,1,80,0,0
74261,-100,4,2,1,60,0,0
75403,-66.6666666666667,4,2,2,90,0,0
75689,-83.3333333333333,4,2,2,90,0,0
76546,-83.3333333333333,4,2,1,90,0,0
77118,-66.6666666666667,4,2,1,90,0,0
77403,-83.3333333333333,4,2,1,90,0,0
77689,-100,4,2,1,90,0,0
78261,-83.3333333333333,4,2,1,90,0,0
79975,-83.3333333333333,4,2,2,90,0,0
80546,-66.6666666666667,4,2,2,90,0,0
81118,-66.6666666666667,4,2,1,90,0,0
81689,-83.3333333333333,4,2,1,90,0,0
82546,-166.666666666667,4,2,1,90,0,0
82832,-83.3333333333333,4,2,1,90,0,0
83689,-66.6666666666667,4,2,1,90,0,0
84546,-200,4,2,1,70,0,0
86689,-133.333333333333,4,2,1,70,0,0
89118,-100,4,2,1,90,0,0
95975,-100,4,2,1,60,0,0
96261,-76.9230769230769,4,2,1,90,0,0
114261,-76.9230769230769,4,2,1,5,0,0

[Colours]
Combo1 : 17,254,176
Combo2 : 173,255,95
Combo3 : 88,194,255
Combo4 : 255,225,55

[HitObjects]
232,328,2261,6,0,B|195:335|147:306|147:306|102:303|40:330,1,180,2|0,0:0|0:0,0:0:0:0:
237,232,2689,2,0,P|301:281|425:250,1,202.500007724762,2|0,0:0|0:0,0:0:0:0:
412,68,3403,6,0,B|376:92|376:92|397:193,1,135.000005149842,2|0,0:0|0:0,0:0:0:0:
471,138,3832,2,0,B|353:141|406:89|303:86,1,180,2|0,0:0|0:0,0:0:0:0:
229,137,4261,1,0,0:0:0:0:
131,214,4546,6,0,B|90:152|128:84|128:84|130:113|148:132,1,180,2|0,0:0|0:0,0:0:0:0:
48,212,4975,2,0,L|30:362,1,135.000005149842,2|0,0:0|0:0,0:0:0:0:
111,318,5403,2,0,P|137:335|164:364,1,67.5000025749208,2|0,0:0|0:0,0:0:0:0:
479,322,5975,6,0,P|439:334|404:356,1,67.5000025749208,2|0,0:0|0:0,0:0:0:0:
264,273,6261,2,0,P|304:285|339:307,1,67.5000025749208,2|0,0:0|0:0,0:0:0:0:
438,184,6546,2,0,P|420:215|409:248,1,67.5000025749208,2|0,0:0|0:0,0:0:0:0:
326,198,6832,6,0,P|297:144|281:26,1,180,2|0,0:0|0:0,0:0:0:0:
66,124,7261,2,0,B|161:140|161:140|173:131|173:131|281:148,1,202.500007724762,2|0,0:0|0:0,0:0:0:0:
470,138,7975,6,0,P|433:107|336:114,1,135.000005149842,2|0,0:0|0:0,0:0:0:0:
390,195,8403,2,0,B|438:241|438:241|421:358,1,180,2|0,0:0|0:0,0:0:0:0:
349,309,8832,1,0,0:0:0:0:
193,206,9118,6,0,B|130:167|60:178|60:178|42:223,1,180,2|0,0:0|0:0,0:0:0:0:
107,384,9546,2,0,B|135:312|97:315|112:240,1,135.000005149842,2|0,0:0|0:0,0:0:0:0:
253,303,9975,2,0,P|213:297|177:284,1,67.5000025749208,2|0,0:0|0:0,0:0:0:0:
48,141,10261,6,2,B|45:88|30:42|30:42|72:68|127:79,1,202.500007724762,2|0,0:0|0:0,0:0:0:0:
206,54,10832,2,2,B|200:46|200:46|312:62,1,90,2|0,0:1|0:0,0:1:0:0:
496,35,11118,2,0,L|436:43,1,45,2|0,0:0|0:0,0:0:0:0:
396,99,11261,2,0,L|336:107,1,45
374,336,11403,5,4,1:2:0:0:
477,173,11546,1,0,0:0:0:0:
464,178,11618,1,0,0:0:0:0:
451,184,11689,2,0,P|439:227|438:286,1,90,2|2,0:3|0:0,0:0:0:0:
291,319,11975,2,0,L|183:301,1,90,0|0,0:0|1:0,0:0:0:0:
193,314,12189,1,0,0:0:0:0:
185,325,12261,1,2,0:3:0:0:
89,181,12403,1,0,0:0:0:0:
101,174,12475,1,0,0:0:0:0:
113,168,12546,6,0,P|123:215|121:267,1,90,2|0,1:2|0:0,0:0:0:0:
56,330,12832,1,2,0:3:0:0:
67,93,12975,2,0,P|127:83|203:182,1,180,2|0,0:0|1:0,0:0:0:0:
274,32,13403,2,0,L|262:85,1,45,2|0,0:3|0:0,0:0:0:0:
351,72,13546,2,0,L|360:115,1,45,0|0,1:0|0:0,0:0:0:0:
445,149,13689,5,2,1:2:0:0:
257,274,13832,1,0,0:0:0:0:
294,183,13975,1,2,0:3:0:0:
356,291,14118,1,2,0:0:0:0:
356,291,14189,1,0,0:0:0:0:
356,291,14261,2,0,P|397:279|446:275,1,90,0|0,0:0|1:0,0:0:0:0:
228,361,14546,2,0,B|126:314|138:378|37:336,1,180,2|2,0:3|1:2,0:0:0:0:
89,182,14975,5,0,0:0:0:0:
103,263,15118,1,2,0:3:0:0:
21,134,15261,1,0,0:0:0:0:
35,117,15332,1,0,0:0:0:0:
54,106,15403,1,0,0:0:0:0:
75,100,15475,1,0,0:0:0:0:
97,98,15546,1,0,1:0:0:0:
185,237,15689,1,2,0:3:0:0:
248,22,15832,1,0,1:0:0:0:
331,84,15975,6,0,L|442:71,1,90,2|0,1:2|0:0,0:0:0:0:
428,62,16189,1,0,0:0:0:0:
436,51,16261,1,2,0:3:0:0:
472,203,16403,2,0,P|429:180|374:170,1,90,2|0,0:0|0:0,0:0:0:0:
311,241,16689,1,0,1:0:0:0:
306,263,16761,1,0,0:0:0:0:
310,284,16832,1,2,0:3:0:0:
192,352,16975,1,0,0:0:0:0:
39,311,17118,6,0,P|82:291|139:289,1,90,2|0,1:2|0:0,0:0:0:0:
200,221,17403,1,2,0:3:0:0:
3,157,17546,2,0,B|111:174|67:106|204:133,1,180,2|0,0:0|1:0,0:0:0:0:
260,7,17975,2,0,B|245:65|245:65|280:56,1,90,2|0,0:3|1:0,0:0:0:0:
441,55,18261,5,0,1:0:0:0:
475,119,18356,2,0,P|469:157|458:190,1,60,0|0,1:0|1:0,0:0:0:0:
333,123,18546,5,2,1:3:0:0:
299,187,18641,2,0,P|305:225|316:258,1,60,0|0,1:0|1:0,0:0:0:0:
415,359,18832,5,0,1:0:0:0:
391,242,18975,2,0,L|394:212,4,22.5,0|0|0|0|2,1:0|1:0|1:0|0:0|1:3,1:0:0:0:
220,342,19261,1,0,1:0:0:0:
106,108,19403,5,0,1:0:0:0:
67,286,19546,1,0,1:0:0:0:
11,184,19689,1,2,1:3:0:0:
46,177,19761,1,0,1:0:0:0:
174,269,19903,1,0,1:0:0:0:
193,238,19975,1,0,1:0:0:0:
424,91,20118,5,0,1:0:0:0:
365,349,20261,1,2,1:3:0:0:
283,224,20403,1,0,1:0:0:0:
457,299,20546,6,0,B|394:302|417:270|352:274,1,101.250003862381,2|0,0:0|0:0,0:0:0:0:
282,351,20832,5,4,1:0:0:0:
261,333,20903,1,0,0:0:0:0:
234,327,20975,2,0,L|171:343,1,45,0|0,1:0|0:0,0:0:0:0:
105,359,21118,1,0,1:0:0:0:
14,191,21261,1,0,1:0:0:0:
127,270,21403,1,8,0:2:0:0:
130,146,21545,1,0,0:0:0:0:
131,107,21617,1,0,0:0:0:0:
121,69,21688,5,2,1:2:0:0:
30,59,21832,1,0,0:0:0:0:
30,59,21903,1,0,0:0:0:0:
30,59,21975,1,8,0:0:0:0:
216,149,22118,1,0,1:0:0:0:
223,164,22189,1,0,0:0:0:0:
231,180,22261,2,0,L|338:164,1,90,2|0,0:0|1:0,0:0:0:0:
499,58,22546,2,0,P|467:38|414:27,1,90,8|0,0:0|1:0,0:0:0:0:
314,245,22832,5,2,1:2:0:0:
421,126,22975,1,0,1:0:0:0:
439,156,23046,1,0,0:0:0:0:
448,191,23118,2,0,L|432:281,1,90,8|0,0:0|1:0,0:0:0:0:
481,340,23332,1,0,0:0:0:0:
481,340,23403,1,0,0:0:0:0:
368,184,23546,1,0,1:0:0:0:
287,377,23689,1,8,0:0:0:0:
233,270,23832,1,0,0:0:0:0:
70,310,23975,6,0,L|185:324,1,90,2|0,1:2|1:0,0:0:0:0:
270,193,24189,1,0,0:0:0:0:
284,181,24261,2,0,L|182:167,1,90,8|0,0:0|1:0,0:0:0:0:
128,119,24475,1,0,0:0:0:0:
121,91,24546,1,2,0:0:0:0:
22,230,24689,1,0,1:0:0:0:
160,355,24832,1,8,0:0:0:0:
117,226,24975,1,0,1:0:0:0:
259,67,25118,5,2,1:2:0:0:
285,91,25189,1,0,0:0:0:0:
319,100,25261,1,0,0:0:0:0:
354,95,25332,1,0,0:0:0:0:
383,74,25403,2,0,L|375:26,3,45,8|0|0|0,0:0|0:0|1:0|0:0,0:0:0:0:
477,113,25689,1,2,0:0:0:0:
467,148,25761,1,0,0:0:0:0:
457,182,25832,1,0,1:0:0:0:
448,216,25903,1,0,0:0:0:0:
469,245,25975,2,0,L|477:294,3,45,8|0|0|0,0:0|0:0|1:0|0:0,0:0:0:0:
392,284,26261,5,2,1:2:0:0:
258,365,26403,2,0,P|239:318|239:274,1,90,0|8,1:0|0:0,0:0:0:0:
344,158,26689,1,0,1:0:0:0:
361,178,26761,1,0,0:0:0:0:
364,204,26832,1,2,0:0:0:0:
204,189,26975,1,0,1:0:0:0:
60,312,27118,1,8,0:0:0:0:
163,347,27261,1,0,1:0:0:0:
113,222,27403,5,2,1:2:0:0:
97,212,27475,1,0,0:0:0:0:
82,202,27546,2,0,L|74:155,1,45
165,30,27689,1,8,0:0:0:0:
165,30,27761,1,0,0:0:0:0:
165,30,27832,2,0,L|153:109,1,45,0|0,1:0|0:0,0:0:0:0:
275,175,27975,5,2,0:0:0:0:
306,171,28046,1,0,0:0:0:0:
337,167,28118,1,0,1:0:0:0:
368,163,28189,1,0,0:0:0:0:
386,137,28261,1,8,0:0:0:0:
417,133,28332,1,0,0:0:0:0:
448,129,28404,1,0,0:0:0:0:
479,125,28475,1,0,0:0:0:0:
510,120,28546,5,0,1:0:0:0:
475,327,28689,2,0,P|500:268|499:189,1,135,0|0,1:0|0:0,0:0:0:0:
426,164,28975,1,0,1:0:0:0:
417,133,29046,1,0,0:0:0:0:
407,102,29118,1,2,0:0:0:0:
450,29,29261,1,0,1:0:0:0:
347,218,29403,2,0,P|312:197|257:195,1,90,8|0,0:0|1:0,0:0:0:0:
48,236,29689,6,0,P|90:265|140:267,1,90,6|0,1:2|0:0,0:0:0:0:
180,208,29903,2,0,L|172:155,1,45,0|8,0:0|0:0,0:0:0:0:
118,24,30118,1,0,1:0:0:0:
112,59,30189,1,0,0:0:0:0:
107,94,30261,1,2,0:0:0:0:
219,274,30403,1,0,1:0:0:0:
115,358,30546,2,0,L|130:250,1,90,8|0,0:0|1:0,0:0:0:0:
75,198,30761,1,0,0:0:0:0:
45,203,30832,5,2,1:2:0:0:
24,306,30975,1,0,0:0:0:0:
204,369,31118,2,0,L|304:351,1,90,8|0,0:0|1:0,0:0:0:0:
454,308,31332,1,0,0:0:0:0:
464,341,31403,2,0,P|422:327|371:300,1,90,2|0,0:0|1:0,0:0:0:0:
290,135,31689,2,0,B|278:176|278:176|301:217,1,90,8|0,0:0|1:0,0:0:0:0:
460,148,31975,6,0,L|482:50,1,90,2|0,1:2|1:0,0:0:0:0:
357,41,32261,1,8,0:0:0:0:
376,141,32403,1,0,1:0:0:0:
193,89,32546,1,2,0:0:0:0:
216,195,32689,1,0,1:0:0:0:
216,195,32761,1,0,0:0:0:0:
216,195,32832,1,8,0:0:0:0:
20,148,32975,1,0,0:0:0:0:
20,148,33118,6,0,P|111:153|126:255,1,180,2|8,1:2|0:0,0:0:0:0:
93,341,33546,1,0,1:0:0:0:
82,349,33618,1,0,0:0:0:0:
71,357,33689,2,0,B|51:324|51:324|65:263,1,90,2|0,0:0|1:0,0:0:0:0:
374,277,33975,1,8,0:0:0:0:
178,304,34118,1,0,1:0:0:0:
408,352,34261,6,0,L|430:169,1,180,6|8,1:2|0:0,0:0:0:0:
368,86,34689,2,0,L|416:75,1,45,0|0,1:0|0:0,0:0:0:0:
469,15,34832,2,0,B|500:46|500:46|493:99,1,90,2|0,0:0|1:0,0:0:0:0:
322,209,35118,1,8,0:0:0:0:
336,8,35261,1,0,0:0:0:0:
189,92,35403,5,2,1:2:0:0:
294,98,35546,2,0,L|199:121,1,90,0|8,1:0|0:0,0:0:0:0:
174,362,35832,1,0,1:0:0:0:
120,252,35974,1,2,0:0:0:0:
119,219,36046,1,0,0:0:0:0:
133,188,36117,1,0,1:0:0:0:
233,220,36261,1,8,0:0:0:0:
110,84,36403,1,0,1:0:0:0:
74,360,36546,6,0,B|142:343|142:343|156:320|156:320|247:299,1,180,2|8,1:2|0:0,0:0:0:0:
473,308,36975,1,0,1:0:0:0:
437,334,37046,1,0,0:0:0:0:
393,340,37117,1,0,0:0:0:0:
352,322,37189,1,0,0:0:0:0:
325,287,37261,2,0,L|336:235,1,45,0|0,1:0|0:0,0:0:0:0:
382,88,37403,1,8,0:0:0:0:
414,246,37546,1,0,0:0:0:0:
282,114,37689,5,2,1:2:0:0:
265,140,37761,1,0,0:0:0:0:
248,166,37832,2,0,L|189:152,1,45,0|0,1:0|0:0,0:0:0:0:
136,214,37975,1,8,3:2:0:0:
139,236,38046,1,0,3:0:0:0:
143,258,38117,1,0,1:0:0:0:
147,280,38189,1,0,3:0:0:0:
151,302,38260,1,0,3:0:0:0:
41,350,38403,6,0,L|87:362,1,45,0|0,1:0|3:0,0:0:0:0:
271,252,38546,2,0,L|225:264,1,45,8|0,0:0|0:0,0:0:0:0:
50,211,38689,2,0,L|60:153,1,45,0|0,1:0|0:0,0:0:0:0:
83,22,38832,5,2,1:2:0:0:
0,96,38975,1,0,0:0:0:0:
23,90,39046,1,2,0:0:0:0:
143,151,39189,1,0,0:0:0:0:
166,157,39260,1,2,0:0:0:0:
469,133,39403,5,4,1:2:0:0:
344,111,39618,1,6,1:2:0:0:
220,90,39832,1,4,1:2:0:0:
397,365,39975,6,0,B|424:344|424:344|411:253,1,107.999996704102,4|0,1:0|0:0,0:0:0:0:
494,253,40189,2,0,L|504:196,1,53.9999983520508,0|8,0:0|0:0,0:0:0:0:
327,316,40403,1,0,0:0:0:0:
327,316,40475,1,0,0:0:0:0:
327,316,40546,6,0,P|291:302|259:297,1,53.9999983520508,2|0,1:2|0:0,0:0:0:0:
91,255,40689,2,0,P|97:292|108:323,1,53.9999983520508
184,351,40832,1,8,0:0:0:0:
189,310,40903,1,0,0:0:0:0:
195,270,40974,1,0,1:0:0:0:
201,230,41046,1,0,0:0:0:0:
207,190,41118,6,0,L|191:126,2,53.9999983520508,2|0|0,1:2|0:0|0:0,0:0:0:0:
277,44,41332,1,2,0:0:0:0:
277,44,41403,2,0,L|266:103,1,53.9999983520508,8|0,0:0|0:0,0:0:0:0:
123,171,41546,2,0,L|58:157,1,53.9999983520508,2|0,0:0|0:0,0:0:0:0:
284,221,41689,5,0,1:0:0:0:
310,191,41760,1,2,0:0:0:0:
347,173,41831,1,0,0:0:0:0:
387,170,41903,1,0,0:0:0:0:
425,183,41975,2,0,L|417:251,1,53.9999983520508,8|0,0:0|0:0,0:0:0:0:
500,86,42118,2,0,L|508:154,1,53.9999983520508
476,334,42261,5,2,1:2:0:0:
440,327,42332,1,0,0:0:0:0:
405,321,42403,1,0,0:0:0:0:
369,315,42475,1,0,0:0:0:0:
346,285,42546,1,8,0:0:0:0:
322,288,42618,1,0,0:0:0:0:
298,292,42689,1,0,0:0:0:0:
274,296,42761,1,0,0:0:0:0:
252,338,42832,6,0,L|180:326,1,53.9999983520508,0|0,1:0|0:0,0:0:0:0:
13,285,42975,2,0,L|85:273,1,53.9999983520508,0|0,1:0|1:0,0:0:0:0:
221,237,43118,2,0,L|235:173,1,53.9999983520508,8|0,0:0|0:0,0:0:0:0:
50,200,43261,2,0,L|36:136,1,53.9999983520508,0|0,1:0|0:0,0:0:0:0:
138,32,43403,5,6,1:2:0:0:
161,46,43475,1,0,0:0:0:0:
156,72,43546,1,0,0:0:0:0:
151,98,43618,1,0,0:0:0:0:
146,124,43689,1,0,0:0:0:0:
114,297,43832,5,6,1:2:0:0:
93,279,43903,1,0,0:0:0:0:
81,255,43974,1,0,0:0:0:0:
79,228,44046,1,0,0:0:0:0:
87,202,44117,1,0,0:0:0:0:
245,140,44261,5,6,1:2:0:0:
245,140,44403,2,0,L|311:151,1,53.9999983520508,0|0,1:0|0:0,0:0:0:0:
511,101,44546,5,6,1:2:0:0:
475,82,44617,1,0,0:0:0:0:
435,81,44688,1,0,0:0:0:0:
398,98,44760,1,0,0:0:0:0:
372,128,44831,1,8,0:0:0:0:
430,325,44975,5,6,1:2:0:0:
435,284,45046,1,0,0:0:0:0:
440,244,45117,1,0,0:0:0:0:
445,204,45189,1,0,0:0:0:0:
450,164,45261,1,0,1:0:0:0:
321,251,45403,5,8,0:0:0:0:
329,348,45546,1,0,1:0:0:0:
117,319,45689,6,0,B|140:294|140:294|215:297,1,107.999996704102,6|0,1:2|0:0,0:0:0:0:
220,305,45903,1,0,0:0:0:0:
226,313,45975,2,0,L|215:365,1,53.9999983520508,8|0,0:0|0:0,0:0:0:0:
66,257,46118,2,0,L|55:205,1,53.9999983520508,0|0,1:0|0:0,0:0:0:0:
227,128,46261,5,6,1:2:0:0:
206,93,46332,1,0,0:0:0:0:
173,71,46403,1,0,1:0:0:0:
133,65,46475,1,0,0:0:0:0:
95,77,46546,2,0,L|106:129,1,53.9999983520508,8|0,1:2|0:0,0:0:0:0:
291,75,46689,1,0,1:0:0:0:
172,216,46832,6,0,B|217:203|217:203|277:243,1,107.999996704102,6|0,1:2|1:0,0:0:0:0:
428,184,47046,1,0,1:0:0:0:
441,163,47118,2,0,B|396:150|396:150|336:190,1,107.999996704102,6|0,1:2|1:0,0:0:0:0:
185,131,47331,1,0,1:0:0:0:
172,110,47403,2,0,B|217:97|217:97|277:137,1,107.999996704102,6|0,1:2|1:0,0:0:0:0:
425,85,47618,1,0,1:0:0:0:
425,85,47689,2,0,L|415:21,1,53.9999983520508,0|0,1:0|1:0,0:0:0:0:
329,62,47832,2,0,L|319:-2,1,53.9999983520508,0|0,1:0|1:0,0:0:0:0:
392,260,47975,6,0,L|406:370,1,107.999996704102,4|0,1:0|0:0,0:0:0:0:
470,307,48189,2,0,L|479:248,1,53.9999983520508,0|8,0:0|0:0,0:0:0:0:
266,345,48403,1,0,0:0:0:0:
353,190,48546,6,2,L|342:132,1,53.9999983520508,2|0,1:2|0:0,1:2:0:0:
411,79,48689,1,0,0:0:0:0:
411,79,48761,2,0,L|467:92,1,53.9999983520508,0|8,0:0|0:0,0:0:0:0:
250,31,48903,1,0,0:0:0:0:
250,31,48975,2,0,L|194:44,1,53.9999983520508
21,119,49118,6,0,P|61:157|128:153,1,107.999996704102,2|0,1:2|0:0,0:0:0:0:
136,88,49332,2,0,L|124:31,1,53.9999983520508,0|8,0:0|0:0,0:0:0:0:
0,217,49546,1,0,0:0:0:0:
186,195,49689,5,2,1:2:0:0:
186,195,49761,1,0,0:0:0:0:
186,195,49832,2,0,P|198:229|205:256,1,53.9999983520508
93,359,49975,1,8,0:0:0:0:
72,342,50046,1,0,0:0:0:0:
59,318,50117,1,0,1:0:0:0:
57,291,50189,1,0,0:0:0:0:
66,266,50261,6,0,L|125:277,2,53.9999983520508,2|0|0,1:2|0:0|0:0,0:0:0:0:
232,334,50475,1,2,0:0:0:0:
232,334,50546,2,0,L|312:322,1,53.9999983520508,8|0,0:0|0:0,0:0:0:0:
441,360,50689,2,0,L|453:280,1,53.9999983520508,2|0,0:0|0:0,0:0:0:0:
303,229,50832,5,0,1:0:0:0:
321,193,50903,1,2,0:0:0:0:
353,168,50974,1,0,0:0:0:0:
391,158,51046,1,0,0:0:0:0:
431,165,51118,2,0,L|439:219,1,53.9999983520508,8|0,0:0|0:0,0:0:0:0:
257,146,51261,2,0,L|264:92,1,53.9999983520508
92,33,51403,5,2,1:2:0:0:
68,60,51474,1,0,0:0:0:0:
56,94,51545,1,0,0:0:0:0:
56,129,51617,1,0,0:0:0:0:
87,144,51689,1,8,0:0:0:0:
96,165,51760,1,0,0:0:0:0:
103,188,51831,1,0,0:0:0:0:
105,212,51903,1,0,0:0:0:0:
74,237,51975,6,0,L|63:297,1,53.9999983520508,0|0,1:0|0:0,0:0:0:0:
206,362,52118,2,0,L|195:302,1,53.9999983520508,0|0,1:0|1:0,0:0:0:0:
194,167,52261,2,0,L|183:227,1,53.9999983520508,8|0,0:0|0:0,0:0:0:0:
326,292,52404,2,0,L|315:232,1,53.9999983520508,0|0,1:0|0:0,0:0:0:0:
465,232,52546,5,6,1:2:0:0:
460,258,52617,1,0,0:0:0:0:
456,285,52688,1,0,0:0:0:0:
452,312,52760,1,0,0:0:0:0:
448,338,52831,1,0,0:0:0:0:
312,136,52975,5,6,1:2:0:0:
327,157,53046,1,0,0:0:0:0:
340,181,53117,1,0,0:0:0:0:
348,207,53189,1,0,0:0:0:0:
353,233,53260,1,0,0:0:0:0:
460,118,53403,5,8,0:0:0:0:
460,118,53546,2,0,L|469:55,1,53.9999983520508,0|0,1:0|0:0,0:0:0:0:
356,37,53689,5,6,1:2:0:0:
332,69,53760,1,0,0:0:0:0:
297,88,53831,1,0,0:0:0:0:
257,90,53903,1,0,0:0:0:0:
220,74,53974,1,8,0:0:0:0:
112,172,54118,5,6,1:2:0:0:
85,141,54189,1,0,0:0:0:0:
59,110,54260,1,0,0:0:0:0:
76,74,54332,1,0,0:0:0:0:
94,37,54403,1,0,1:0:0:0:
55,251,54546,5,8,0:0:0:0:
203,161,54689,2,0,L|210:237,1,53.9999983520508
140,365,54832,5,6,1:2:0:0:
119,287,54927,2,0,P|166:289|196:306,1,71.9999978027344,0|0,1:0|1:0,0:0:0:0:
316,341,55118,5,6,1:2:0:0:
337,263,55213,2,0,P|290:265|260:282,1,71.9999978027344,0|0,1:0|1:0,0:0:0:0:
398,361,55403,5,2,1:2:0:0:
424,357,55474,1,0,1:0:0:0:
451,353,55545,1,0,1:0:0:0:
478,349,55617,1,0,1:0:0:0:
504,345,55688,1,8,0:0:0:0:
353,180,55832,1,0,1:0:0:0:
500,266,55975,6,0,L|439:274,1,53.9999983520508,6|0,1:2|0:0,0:0:0:0:
248,176,56118,1,0,1:0:0:0:
256,169,56189,1,0,1:0:0:0:
264,162,56261,2,0,L|270:105,1,53.9999983520508,0|0,1:0|0:0,0:0:0:0:
465,103,56403,2,0,L|459:46,1,53.9999983520508,0|0,1:0|0:0,0:0:0:0:
358,31,56546,2,0,L|371:139,1,107.999996704102,6|0,1:2|1:0,0:0:0:0:
191,304,56832,5,6,1:2:0:0:
149,269,56903,1,0,0:0:0:0:
130,219,56974,1,0,1:0:0:0:
138,167,57046,1,0,0:0:0:0:
171,125,57117,1,4,1:0:0:0:
395,251,66261,5,2,0:0:0:0:
311,165,66403,1,0,0:0:0:0:
311,165,66475,1,0,0:0:0:0:
311,165,66546,2,0,B|297:199|297:199|312:263,1,90,2|0,0:0|0:0,0:0:0:0:
512,222,66832,2,0,B|489:192|489:192|426:173,1,90,2|0,0:0|0:0,0:0:0:0:
362,367,67118,2,0,B|398:362|398:362|446:317,1,90,2|0,0:0|0:0,0:0:0:0:
251,116,67403,5,2,0:0:0:0:
335,202,67545,1,0,0:0:0:0:
335,202,67617,1,0,0:0:0:0:
335,202,67689,2,0,B|349:168|349:168|334:104,1,90,2|0,0:0|0:0,0:0:0:0:
134,145,67975,2,0,B|156:174|156:174|219:193,1,90,2|0,0:0|0:0,0:0:0:0:
284,0,68260,2,0,B|247:4|247:4|199:49,1,90,2|0,0:0|0:0,0:0:0:0:
147,267,68546,5,2,0:0:0:0:
233,183,68688,1,0,0:0:0:0:
233,183,68760,1,0,0:0:0:0:
233,183,68832,2,0,B|199:169|199:169|135:184,1,90,2|0,0:0|0:0,0:0:0:0:
176,384,69118,2,0,B|205:361|205:361|224:298,1,90,2|0,0:0|0:0,0:0:0:0:
31,234,69403,2,0,B|35:270|35:270|80:318,1,90,2|0,0:0|0:0,0:0:0:0:
390,238,69689,5,2,0:0:0:0:
482,100,69832,1,0,0:0:0:0:
482,100,69903,1,0,0:0:0:0:
482,100,69975,2,0,L|470:199,1,90,2|0,0:0|0:0,0:0:0:0:
317,368,70261,2,0,L|305:269,1,90,2|0,0:0|0:0,0:0:0:0:
152,100,70546,2,0,L|140:199,1,90,2|0,0:0|0:0,0:0:0:0:
236,145,70832,5,2,0:0:0:0:
224,55,70975,1,0,0:0:0:0:
224,55,71046,1,0,0:0:0:0:
224,55,71118,2,0,B|257:46|257:46|317:71,1,90,2|0,0:0|0:0,0:0:0:0:
165,197,71403,2,0,B|140:172|140:172|133:117,1,90,2|0,0:0|0:0,0:0:0:0:
318,177,71689,2,0,B|309:210|309:210|264:243,1,90,2|0,0:0|0:0,0:0:0:0:
133,279,71975,5,2,0:0:0:0:
43,291,72118,1,0,0:0:0:0:
43,291,72189,1,0,0:0:0:0:
43,291,72261,2,0,B|34:258|34:258|59:198,1,90,2|0,0:0|0:0,0:0:0:0:
185,350,72546,2,0,B|160:374|160:374|105:381,1,90,2|0,0:0|0:0,0:0:0:0:
165,197,72832,2,0,B|198:205|198:205|231:250,1,90,2|0,0:0|0:0,0:0:0:0:
400,209,73118,5,2,0:0:0:0:
412,299,73261,1,0,0:0:0:0:
412,299,73332,1,0,0:0:0:0:
412,299,73404,2,0,B|379:308|379:308|319:283,1,90,2|0,0:0|0:0,0:0:0:0:
471,157,73689,2,0,B|495:181|495:181|502:236,1,90,2|0,0:0|0:0,0:0:0:0:
318,177,73975,2,0,B|326:143|326:143|371:110,1,90,2|0,0:0|0:0,0:0:0:0:
499,40,74261,5,2,0:0:0:0:
362,20,74403,1,0,0:0:0:0:
353,23,74475,1,0,0:0:0:0:
344,26,74546,1,2,0:0:0:0:
237,209,74689,1,0,0:0:0:0:
166,109,74832,2,0,L|171:66,11,30,2|0|0|0|0|0|2|0|0|0|0|0,0:0|0:0|0:0|0:0|0:0|0:0|0:0|0:0|0:0|0:0|0:0|0:0,0:0:0:0:
195,124,75403,6,2,B|152:155|152:155|57:133|57:133|31:84,1,202.500007724762,6|0,1:0|0:0,0:1:0:0:
0,20,75689,2,0,B|33:4|33:4|100:36,1,107.999996704102
80,307,75975,2,0,P|53:258|64:206,1,107.999996704102,8|0,0:0|0:0,0:0:0:0:
397,191,76261,5,0,0:0:0:0:
304,173,76403,1,0,0:0:0:0:
134,244,76546,6,0,L|210:260,1,71.9999978027344,2|0,1:2|0:0,0:0:0:0:
383,279,76737,2,0,L|307:295,1,71.9999978027344
161,335,76927,2,0,L|237:351,1,71.9999978027344
478,204,77118,6,0,B|500:187|500:187|389:157|389:157|340:204,1,202.500007724762,8|0,0:0|0:0,0:0:0:0:
411,254,77403,2,0,B|435:300|435:300|413:356,1,107.999996704102
265,168,77689,6,0,P|254:100|251:14,1,135,2|0,1:2|0:0,0:0:0:0:
153,0,77975,2,0,P|159:46|164:110,1,90
106,374,78261,2,0,B|76:349|76:349|96:262,1,107.999996704102,8|0,0:0|0:0,0:0:0:0:
289,139,78546,2,0,B|319:164|319:164|299:251,1,107.999996704102
40,184,78832,6,0,B|19:131|19:131|49:76,1,107.999996704102,2|0,1:2|0:0,0:0:0:0:
153,0,79118,2,0,L|148:40,2,26.9999991760254
123,102,79261,1,0,1:0:0:0:
336,53,79403,1,8,0:0:0:0:
225,58,79546,2,0,B|251:75|251:75|268:170,1,107.999996704102,0|2,0:0|1:3,0:0:0:0:
253,237,79784,1,0,0:0:0:0:
325,275,79880,1,0,0:0:0:0:
276,338,79975,6,2,B|293:219|293:219|344:190,1,161.999995056153,2|0,1:1|0:0,0:1:0:0:
404,165,80261,2,0,B|429:158|429:158|415:248,1,107.999996704102
128,350,80546,2,0,B|141:272|141:272|179:255|179:255|195:154,1,202.500007724762,8|0,0:0|0:0,0:0:0:0:
125,57,80832,2,0,L|134:134,1,67.5000025749208
109,195,80975,2,0,L|118:118,1,67.5000025749208
0,117,81118,6,0,P|41:91|95:99,1,90.0000034332277,2|0,1:2|0:0,0:0:0:0:
201,139,81308,1,0,0:0:0:0:
223,64,81403,2,0,P|264:90|318:82,1,90.0000034332277
442,67,81594,1,0,0:0:0:0:
367,29,81689,6,0,B|380:133|380:133|396:144|396:144|411:266,1,215.999993408203,8|0,0:0|1:0,0:0:0:0:
502,306,82118,2,0,P|492:334|486:368,1,53.9999983520508
301,240,82261,6,0,P|229:241|193:334,1,161.999995056153,2|0,1:2|0:0,0:0:0:0:
220,356,82546,2,0,B|228:329|228:329|211:294,1,53.9999983520508
125,222,82832,2,0,L|114:92,1,107.999996704102,8|0,0:0|0:0,0:0:0:0:
152,10,83118,1,0,0:0:0:0:
36,170,83261,1,0,0:0:0:0:
216,115,83403,6,0,L|270:130,2,53.9999983520508,2|0|0,1:2|0:0|0:0,0:0:0:0:
431,38,83689,2,0,P|354:61|359:135,1,135.000005149842,0|0,0:0|1:0,0:0:0:0:
404,167,83903,1,0,0:0:0:0:
409,196,83975,1,8,0:0:0:0:
320,372,84261,5,0,1:0:0:0:
288,313,84356,1,0,0:0:0:0:
333,262,84451,1,0,0:0:0:0:
296,203,84546,6,0,L|108:220,2,180,6|2|2,0:0|0:0|0:0,0:0:0:0:
468,97,85975,1,0,0:0:0:0:
468,97,86261,2,0,P|435:84|407:81,1,45,2|0,0:0|0:0,0:0:0:0:
329,80,86689,6,0,B|344:191|419:133|428:254,1,202.500007724762,2|2,0:0|0:0,0:0:0:0:
346,358,87403,2,0,B|327:331|327:331|336:288,1,67.5000025749208,2|0,0:0|0:0,0:0:0:0:
224,353,87832,2,0,B|136:336|136:336|121:313|121:313|24:292,1,202.500007724762,2|0,0:0|0:0,0:0:0:0:
179,223,88546,2,0,P|190:251|193:275,3,33.7500012874604
107,183,88832,2,0,P|111:166|118:151,3,33.7500012874604,2|0|0|0,0:0|0:0|0:0|0:0,0:0:0:0:
271,280,89118,6,0,B|316:284|316:284|367:267,1,90,6|0,1:2|0:0,0:0:0:0:
500,124,89403,1,2,0:3:0:0:
381,175,89546,1,0,1:0:0:0:
403,177,89618,1,0,0:0:0:0:
425,179,89689,1,0,0:0:0:0:
462,343,89832,1,0,1:3:0:0:
379,263,89975,1,10,0:3:0:0:
419,91,90118,2,0,L|415:43,1,45,8|0,0:3|0:0,0:0:0:0:
242,105,90261,5,2,1:2:0:0:
311,139,90356,1,0,0:0:0:0:
306,62,90451,1,0,0:0:0:0:
176,41,90546,2,0,P|114:55|88:104,1,90,2|0,1:3|1:0,0:0:0:0:
152,129,90761,1,0,0:0:0:0:
154,144,90832,1,2,1:2:0:0:
65,341,90975,1,0,0:0:0:0:
9,201,91118,2,0,B|68:191|68:191|99:209,1,90,2|0,0:3|1:0,0:0:0:0:
283,357,91403,5,4,1:0:0:0:
392,258,91546,1,0,0:0:0:0:
379,277,91618,1,0,0:0:0:0:
367,296,91689,2,0,L|375:342,1,45,8|0,0:0|0:0,0:0:0:0:
240,231,91832,2,0,L|232:277,1,45,0|0,1:0|0:0,0:0:0:0:
461,315,91975,1,4,1:0:0:0:
322,211,92118,2,0,L|315:159,1,45
419,1,92261,1,8,0:0:0:0:
430,32,92332,1,0,0:0:0:0:
431,66,92403,1,0,1:0:0:0:
421,98,92475,1,0,0:0:0:0:
401,125,92546,5,4,1:0:0:0:
228,92,92689,2,0,L|288:84,1,45
323,25,92832,1,4,1:0:0:0:
205,167,92975,2,0,L|145:175,1,45
110,234,93118,1,4,1:0:0:0:
113,253,93189,1,0,0:0:0:0:
116,272,93260,1,0,1:0:0:0:
119,291,93332,1,0,0:0:0:0:
122,310,93403,1,4,1:0:0:0:
125,329,93475,1,0,0:0:0:0:
128,348,93546,1,0,1:0:0:0:
132,367,93617,1,0,0:0:0:0:
122,384,93689,5,6,1:2:0:0:
216,252,93832,2,0,L|208:304,1,45,0|2,0:0|0:0,0:0:0:0:
23,257,94046,2,0,L|15:207,1,45,0|2,0:0|0:0,0:0:0:0:
159,23,94261,5,4,1:2:0:0:
137,148,94476,1,6,1:2:0:0:
116,272,94690,1,4,1:2:0:0:
286,347,94832,6,0,L|338:339,2,45,6|0|0,1:2|0:0|0:0,0:0:0:0:
473,316,95046,2,0,L|421:308,2,45,2|0|0,0:0|0:0|0:0,0:0:0:0:
352,240,95261,2,0,L|344:187,1,45,2|0,0:0|0:0,0:0:0:0:
460,20,95403,5,6,1:2:0:0:
475,61,95474,1,0,0:0:0:0:
468,105,95545,1,0,0:0:0:0:
440,140,95617,1,6,1:2:0:0:
424,120,95689,5,0,0:0:0:0:
394,114,95760,1,0,0:0:0:0:
365,108,95831,1,6,1:2:0:0:
335,102,95903,1,0,0:0:0:0:
323,77,95975,6,0,L|264:84,3,45,4|0|0|0,1:3|0:0|0:0|0:0,0:0:0:0:
39,112,96261,6,0,P|96:37|192:54,1,175.499991966248,4|0,1:0|0:0,0:0:0:0:
204,128,96546,2,0,L|198:191,1,58.4999973220826,0|0,1:0|0:0,0:0:0:0:
90,356,96689,2,0,L|84:293,1,58.4999973220826
58,220,96832,1,8,0:0:0:0:
103,212,96903,1,0,0:0:0:0:
138,242,96975,1,0,0:0:0:0:
173,272,97046,1,0,0:0:0:0:
219,265,97118,6,0,L|294:250,1,58.4999973220826,2|0,1:2|0:0,0:0:0:0:
494,139,97261,1,0,0:0:0:0:
487,167,97332,1,0,0:0:0:0:
480,195,97403,2,0,L|419:180,1,58.4999973220826,8|0,0:0|0:0,0:0:0:0:
340,302,97546,2,0,L|329:368,1,58.4999973220826
268,178,97689,5,0,1:0:0:0:
274,139,97760,1,0,0:0:0:0:
299,110,97831,1,0,1:0:0:0:
336,99,97903,1,0,1:0:0:0:
370,81,97974,1,8,0:0:0:0:
385,45,98046,1,0,0:0:0:0:
382,7,98118,2,0,L|309:1,1,58.4999973220826,0|0,1:0|0:0,0:0:0:0:
124,32,98261,5,6,1:2:0:0:
153,29,98332,1,0,0:0:0:0:
181,33,98403,1,0,0:0:0:0:
209,44,98475,1,0,0:0:0:0:
232,61,98546,1,0,0:0:0:0:
127,142,98689,5,6,1:2:0:0:
97,139,98760,1,0,0:0:0:0:
69,143,98831,1,0,0:0:0:0:
41,154,98903,1,0,0:0:0:0:
18,171,98974,1,0,0:0:0:0:
50,322,99118,5,0,1:0:0:0:
50,322,99261,2,0,L|60:254,1,58.4999973220826,0|0,1:0|0:0,0:0:0:0:
194,179,99403,5,6,1:2:0:0:
222,212,99474,1,0,0:0:0:0:
251,245,99545,1,0,0:0:0:0:
246,287,99617,1,0,0:0:0:0:
237,330,99688,1,8,0:0:0:0:
353,242,99832,5,6,1:2:0:0:
324,208,99903,1,0,0:0:0:0:
295,175,99974,1,0,0:0:0:0:
300,133,100046,1,0,0:0:0:0:
309,90,100117,1,0,1:0:0:0:
467,13,100261,5,8,0:0:0:0:
376,144,100403,2,0,L|388:85,1,58.4999973220826,0|0,1:0|0:0,0:0:0:0:
458,213,100546,6,0,L|472:340,1,116.999994644165,6|0,1:2|0:0,0:0:0:0:
318,247,100761,1,0,0:0:0:0:
293,230,100832,2,0,P|269:246|242:258,1,58.4999973220826,8|0,0:0|0:0,0:0:0:0:
351,326,100975,2,0,P|377:337|401:354,1,58.4999973220826,0|0,1:0|0:0,0:0:0:0:
203,354,101118,5,6,1:2:0:0:
174,320,101189,1,0,0:0:0:0:
136,300,101260,1,0,1:0:0:0:
93,295,101332,1,0,0:0:0:0:
51,307,101403,1,8,0:0:0:0:
202,135,101546,2,0,L|213:213,1,58.4999973220826,0|0,1:0|0:0,0:0:0:0:
28,94,101689,6,0,B|48:63|48:63|128:53,1,116.999994644165,6|0,1:2|1:0,0:0:0:0:
340,154,101903,1,0,1:0:0:0:
364,137,101975,2,0,B|344:106|344:106|264:96,1,116.999994644165,6|0,1:2|1:0,0:0:0:0:
52,197,102189,1,0,1:0:0:0:
28,180,102261,2,0,B|48:149|48:149|128:139,1,116.999994644165,6|0,1:2|1:0,0:0:0:0:
296,227,102475,1,0,1:0:0:0:
272,244,102546,1,0,1:0:0:0:
277,272,102618,1,0,1:0:0:0:
283,300,102689,1,0,1:0:0:0:
289,328,102761,1,0,1:0:0:0:
269,349,102832,6,0,L|137:329,1,116.999994644165,4|0,1:0|0:0,0:0:0:0:
71,278,103046,2,0,P|58:309|53:344,1,58.4999973220826,0|8,0:0|0:0,0:0:0:0:
28,180,103261,1,0,0:0:0:0:
214,256,103403,6,0,L|278:242,1,58.4999973220826,2|0,1:2|0:0,0:0:0:0:
336,124,103546,1,0,0:0:0:0:
336,124,103618,2,0,L|325:185,1,58.4999973220826,0|8,0:0|0:0,0:0:0:0:
390,343,103761,1,0,0:0:0:0:
390,343,103833,2,0,L|379:282,1,58.4999973220826
512,191,103975,6,0,P|476:154|399:168,1,116.999994644165,2|0,1:2|0:0,0:0:0:0:
327,37,104189,2,0,L|392:52,1,58.4999973220826,0|8,0:0|0:0,0:0:0:0:
459,269,104403,1,0,0:0:0:0:
253,144,104546,6,0,L|166:165,1,58.4999973220826,2|0,1:2|0:0,0:0:0:0:
157,57,104689,2,0,L|70:36,1,58.4999973220826
19,121,104832,1,8,0:0:0:0:
5,146,104903,1,0,0:0:0:0:
3,175,104974,1,0,1:0:0:0:
16,201,105046,1,0,0:0:0:0:
39,219,105118,6,0,L|26:288,2,58.4999973220826,2|0|0,1:2|0:0|0:0,0:0:0:0:
129,323,105332,1,2,0:0:0:0:
129,323,105403,2,0,L|197:306,1,58.4999973220826,8|0,0:0|0:0,0:0:0:0:
345,348,105546,2,0,L|277:331,1,58.4999973220826,2|0,0:0|0:0,0:0:0:0:
149,232,105689,6,0,L|156:170,1,58.4999973220826,0|2,1:0|0:0,0:0:0:0:
345,77,105832,2,0,L|338:139,1,58.4999973220826
196,88,105975,1,8,0:0:0:0:
233,110,106046,1,0,0:0:0:0:
242,153,106118,1,0,0:0:0:0:
251,195,106189,1,0,0:0:0:0:
260,238,106261,6,0,L|274:313,1,58.4999973220826,2|0,1:2|0:0,0:0:0:0:
443,157,106403,1,0,0:0:0:0:
443,157,106475,1,0,0:0:0:0:
443,157,106546,2,0,L|429:232,1,58.4999973220826,8|0,1:2|0:0,0:0:0:0:
287,354,106689,2,0,L|301:279,1,58.4999973220826
174,259,106832,5,0,1:0:0:0:
166,221,106903,1,0,0:0:0:0:
139,194,106974,1,0,1:0:0:0:
100,191,107046,1,0,1:0:0:0:
62,192,107117,1,8,0:0:0:0:
30,171,107189,1,0,0:0:0:0:
16,135,107261,2,0,L|29:59,1,58.4999973220826,0|0,1:0|0:0,0:0:0:0:
215,143,107403,5,6,1:2:0:0:
243,137,107474,1,0,0:0:0:0:
272,132,107545,1,0,0:0:0:0:
301,127,107617,1,0,0:0:0:0:
330,122,107688,1,0,0:0:0:0:
512,155,107832,5,6,1:2:0:0:
483,160,107903,1,0,0:0:0:0:
454,165,107974,1,0,0:0:0:0:
425,170,108046,1,0,0:0:0:0:
396,175,108117,1,0,0:0:0:0:
468,29,108261,5,6,1:2:0:0:
468,29,108403,2,0,L|458:97,1,58.4999973220826,0|0,1:0|0:0,0:0:0:0:
290,210,108546,5,6,1:2:0:0:
262,244,108617,1,0,0:0:0:0:
244,283,108688,1,0,0:0:0:0:
237,324,108760,1,0,0:0:0:0:
274,348,108831,1,8,0:0:0:0:
487,308,108975,5,6,1:2:0:0:
453,280,109046,1,0,0:0:0:0:
414,262,109117,1,0,0:0:0:0:
373,255,109189,1,0,0:0:0:0:
349,292,109260,1,0,1:0:0:0:
403,361,109403,5,14,1:2:0:0:
152,300,109546,2,0,L|142:238,1,58.4999973220826,0|0,1:0|0:0,0:0:0:0:
245,50,109689,5,6,1:2:0:0:
188,106,109784,2,0,P|205:143|213:187,1,77.9999964294435,0|0,1:0|1:0,0:0:0:0:
10,149,109975,5,0,1:0:0:0:
67,205,110070,2,0,P|50:242|42:286,1,77.9999964294435,0|0,1:0|1:0,0:0:0:0:
193,353,110261,5,2,1:2:0:0:
236,346,110332,1,0,1:0:0:0:
279,339,110403,1,0,1:0:0:0:
323,332,110475,1,0,1:0:0:0:
366,326,110546,1,8,0:0:0:0:
461,78,110689,1,0,1:0:0:0:
493,281,110832,6,0,L|437:266,1,58.4999973220826,6|0,1:2|0:0,0:0:0:0:
237,223,110975,1,0,1:0:0:0:
280,215,111047,1,0,0:0:0:0:
323,207,111118,2,0,L|336:134,1,58.4999973220826,4|0,1:2|0:0,0:0:0:0:
211,251,111261,2,0,L|198:324,1,58.4999973220826,0|0,1:0|0:0,0:0:0:0:
35,261,111403,5,4,1:2:0:0:
106,123,111546,1,0,1:0:0:0:
63,115,111618,1,0,0:0:0:0:
20,107,111689,2,0,L|7:34,1,58.4999973220826,6|0,1:2|0:0,0:0:0:0:
132,151,111832,2,0,L|145:224,1,58.4999973220826,0|0,1:0|0:0,0:0:0:0:
234,52,111975,5,4,1:0:0:0:
256,192,112046,12,0,114261,0:0:0:0:
