osu file format v14

[General]
AudioFilename: audio.mp3
AudioLeadIn: 0
PreviewTime:38546
Countdown: 0
SampleSet: Soft
StackLeniency: 0.7
Mode: 0
LetterboxInBreaks: 0
WidescreenStoryboard: 1

[Editor]
DistanceSpacing: 0.9
BeatDivisor: 4
GridSize: 4
TimelineZoom: 1.9

[Metadata]
Title:LvC3
TitleUnicode:LvC3
Artist:Rohi
ArtistUnicode:ろひ
Creator:VINXIS
Version:RLC's Extra
Source:osu!
Tags:RLC captin1 piano instrumental electronic complextro edm short featured artist fa mappers guild mapper's mappers'
BeatmapID:2560356
BeatmapSetID:1231655

[Difficulty]
HPDrainRate:5
CircleSize:4
OverallDifficulty:8
ApproachRate:9.1
SliderMultiplier:1.6
SliderTickRate:1

[Events]
//Background and Video events
0,0,"68883606_p0_waifu2x_art_scale_tta_1.jpg",0,0
//Break Periods
2,57318,65534
//Storyboard Layer 0 (Background)
//Storyboard Layer 1 (Fail)
//Storyboard Layer 2 (Pass)
//Storyboard Layer 3 (Foreground)
//Storyboard Layer 4 (Overlay)
//Storyboard Sound Samples

[TimingPoints]
2261,285.714285714286,4,2,1,70,1,0
2261,-166.666666666667,4,2,1,70,0,0
10832,-100,4,2,1,70,0,0
11403,-100,4,2,1,100,0,0
18261,-100,4,2,1,90,0,0
20546,-200,4,2,1,70,0,0
20832,-83.3333333333333,4,2,1,90,0,0
61689,-83.3333333333333,4,2,1,60,0,0
65975,-100,4,2,1,60,0,0
66261,-100,4,2,1,80,0,0
74261,-100,4,2,1,60,0,0
75403,-133.333333333333,4,2,2,90,0,0
75975,-83.3333333333333,4,2,2,90,0,0
76261,-133.333333333333,4,2,2,90,0,0
76546,-133.333333333333,4,2,1,90,0,0
79403,-83.3333333333333,4,2,1,90,0,0
79975,-133.333333333333,4,2,2,90,0,0
80546,-83.3333333333333,4,2,2,90,0,0
81118,-133.333333333333,4,2,1,90,0,0
82832,-83.3333333333333,4,2,1,90,0,0
84546,-133.333333333333,4,2,1,70,0,0
88546,-100,4,2,1,70,0,0
89118,-100,4,2,1,90,0,0
90261,-83.3333333333333,4,2,1,90,0,0
95975,-83.3333333333333,4,2,1,60,0,0
96261,-83.3333333333333,4,2,1,90,0,0
98261,-74.0740740740741,4,2,1,90,0,0
99118,-83.3333333333333,4,2,1,90,0,0
107403,-74.0740740740741,4,2,1,90,0,0
108261,-83.3333333333333,4,2,1,90,0,0
114261,-83.3333333333333,4,2,1,5,0,0

[Colours]
Combo1 : 17,254,176
Combo2 : 173,255,95
Combo3 : 88,194,255
Combo4 : 255,225,55

[HitObjects]
451,171,2261,5,2,0:0:0:0:
451,171,2689,2,0,P|433:119|349:59,1,143.999995605469,2|0,0:0|0:0,0:0:0:0:
104,57,3403,1,2,0:0:0:0:
104,57,3832,2,0,P|122:109|206:169,1,143.999995605469,2|0,0:0|0:0,0:0:0:0:
41,322,4546,5,2,0:0:0:0:
131,346,4832,1,0,0:0:0:0:
131,346,4975,2,0,P|167:341|236:340,1,95.9999970703126,2|0,0:0|0:0,0:0:0:0:
297,366,5403,2,0,P|311:331|322:265,1,95.9999970703126,2|0,0:0|0:0,0:0:0:0:
287,199,5832,1,0,0:0:0:0:
437,168,5975,5,2,0:0:0:0:
437,168,6118,1,0,0:0:0:0:
372,232,6261,1,2,0:0:0:0:
372,232,6403,1,0,0:0:0:0:
287,199,6546,2,0,P|289:167|291:140,1,47.9999985351563,2|0,0:0|0:0,0:0:0:0:
308,41,6832,5,2,0:0:0:0:
308,41,7261,2,0,P|332:88|411:133,1,143.999995605469,2|0,0:0|0:0,0:0:0:0:
88,355,7975,1,2,0:0:0:0:
88,355,8403,2,0,P|121:317|142:218,1,143.999995605469,2|0,0:0|0:0,0:0:0:0:
198,49,9118,5,2,0:0:0:0:
225,267,9403,1,0,0:0:0:0:
225,267,9546,2,0,P|231:318|234:373,1,95.9999970703126,2|0,0:0|0:0,0:0:0:0:
86,231,9975,1,2,0:0:0:0:
161,197,10118,1,0,0:0:0:0:
96,141,10261,2,2,P|152:148|258:151,1,143.999995605469,2|0,0:0|0:0,0:0:0:0:
239,151,10832,6,2,P|222:199|232:287,1,120,2|0,0:1|0:1,0:1:0:0:
297,324,11118,2,0,P|307:280|305:229,1,80,2|0,0:0|0:0,0:0:0:0:
115,80,11403,5,4,1:2:0:0:
105,189,11546,1,0,0:0:0:0:
215,203,11689,1,2,0:3:0:0:
228,94,11832,2,0,P|294:99|399:104,1,160,2|0,0:0|1:0,0:0:0:0:
387,103,12261,1,2,0:3:0:0:
144,55,12403,1,0,0:0:0:0:
144,55,12475,1,0,0:0:0:0:
144,55,12546,6,0,P|90:63|51:65,1,80,2|0,1:2|0:0,0:0:0:0:
31,148,12832,1,2,0:3:0:0:
100,350,12975,2,0,P|126:313|107:186,1,160,2|0,0:0|1:0,0:0:0:0:
31,148,13403,1,2,0:3:0:0:
39,239,13546,1,0,1:0:0:0:
126,127,13689,5,2,1:2:0:0:
240,153,13832,1,0,0:0:0:0:
361,121,13975,1,2,0:3:0:0:
471,164,14118,1,2,0:0:0:0:
471,164,14189,1,0,0:0:0:0:
471,164,14261,2,0,P|470:211|459:256,1,80,0|0,0:0|1:0,0:0:0:0:
395,355,14546,2,0,P|383:300|389:183,1,160,2|2,0:3|1:2,0:0:0:0:
479,327,14975,1,0,0:0:0:0:
298,285,15118,6,0,P|245:294|197:307,1,80,2|0,0:3|0:0,0:0:0:0:
29,177,15403,2,0,P|78:187|113:199,1,80,0|0,0:0|1:0,0:0:0:0:
281,177,15689,1,2,0:3:0:0:
264,84,15832,1,0,1:0:0:0:
173,103,15975,5,2,1:2:0:0:
194,201,16118,2,0,L|200:290,1,80,0|2,0:0|0:3,0:0:0:0:
354,218,16403,2,0,P|370:169|343:45,1,160,2|0,0:0|1:0,0:0:0:0:
168,50,16832,2,0,L|246:32,1,80,2|0,0:3|0:0,0:0:0:0:
246,32,17046,1,0,0:0:0:0:
246,32,17118,6,0,P|243:81|257:110,1,80,2|0,1:2|0:0,0:0:0:0:
343,100,17403,1,2,0:3:0:0:
212,220,17546,2,0,P|171:192|43:212,1,160,2|0,0:0|1:0,0:0:0:0:
91,352,17975,1,2,0:3:0:0:
172,294,18118,1,0,1:0:0:0:
255,351,18261,6,0,L|315:347,2,53.3333333333333,0|0|0,1:0|1:0|1:0,1:0:0:0:
395,289,18546,2,0,L|455:285,2,53.3333333333333,2|0|0,1:3|1:0|1:0,1:0:0:0:
303,253,18832,5,0,1:0:0:0:
380,84,18975,2,0,L|385:51,4,20,0|0|0|0|2,1:0|1:0|1:0|0:0|1:3,1:0:0:0:
399,198,19261,1,0,1:0:0:0:
293,86,19403,6,0,L|190:73,1,80,0|0,1:0|1:0,0:0:0:0:
50,159,19689,1,2,1:3:0:0:
50,159,19761,2,0,L|153:172,1,80,0|0,1:0|1:0,0:0:0:0:
216,196,19975,2,0,P|224:239|211:278,1,80,0|0,1:0|1:0,0:0:0:0:
104,248,20261,1,2,1:3:0:0:
137,74,20403,1,0,1:0:0:0:
296,108,20546,6,0,L|370:116,1,60,2|0,0:0|0:0,0:0:0:0:
486,223,20832,6,0,P|434:199|335:200,1,143.999995605469,4|0,1:0|0:0,0:0:0:0:
166,173,21118,2,0,P|220:161|268:148,1,95.9999970703126,0|0,1:0|1:0,0:0:0:0:
68,203,21403,2,0,P|41:160|54:58,1,143.999995605469,8|0,0:2|0:0,0:0:0:0:
103,6,21689,6,0,P|122:51|115:108,1,95.9999970703126,2|0,1:2|0:0,0:0:0:0:
118,97,21903,1,0,0:0:0:0:
118,97,21975,1,8,0:0:0:0:
349,196,22118,2,0,L|412:199,2,47.9999985351563,0|0|2,1:0|0:0|0:0,0:0:0:0:
241,160,22403,1,0,1:0:0:0:
233,270,22546,1,8,0:0:0:0:
338,305,22689,1,0,1:0:0:0:
241,160,22832,5,2,1:2:0:0:
158,195,22975,1,0,1:0:0:0:
158,195,23046,1,0,0:0:0:0:
158,195,23118,1,8,0:0:0:0:
106,108,23261,1,0,1:0:0:0:
233,249,23403,2,0,P|286:251|331:268,1,95.9999970703126,0|0,0:0|1:0,0:0:0:0:
477,101,23689,2,0,P|427:110|386:134,1,95.9999970703126,8|0,0:0|0:0,0:0:0:0:
388,132,23903,1,0,0:0:0:0:
388,132,23975,6,0,L|282:113,1,95.9999970703126,2|0,1:2|1:0,0:0:0:0:
115,106,24261,2,0,P|147:60|194:38,1,95.9999970703126,8|0,0:0|1:0,0:0:0:0:
140,272,24546,2,0,P|86:268|42:228,1,95.9999970703126,2|0,0:0|1:0,0:0:0:0:
212,30,24832,2,0,L|229:142,1,95.9999970703126,8|0,0:0|1:0,0:0:0:0:
226,163,25046,1,0,0:0:0:0:
248,194,25118,5,2,1:2:0:0:
406,174,25261,1,0,0:0:0:0:
413,161,25332,1,0,0:0:0:0:
413,146,25403,1,8,0:0:0:0:
334,89,25546,1,0,1:0:0:0:
329,214,25689,5,2,0:0:0:0:
321,246,25761,1,0,0:0:0:0:
337,275,25832,1,0,1:0:0:0:
366,290,25903,1,0,0:0:0:0:
400,290,25975,1,8,0:0:0:0:
491,291,26118,1,0,1:0:0:0:
363,131,26261,5,2,1:2:0:0:
363,131,26403,2,0,P|308:137|253:144,1,95.9999970703126,0|8,1:0|0:0,0:0:0:0:
70,239,26689,2,0,P|125:233|180:226,1,95.9999970703126,0|2,1:0|0:0,0:0:0:0:
165,227,26903,1,0,0:0:0:0:
165,227,26975,1,0,1:0:0:0:
120,143,27118,2,0,P|111:91|101:47,1,95.9999970703126,8|0,0:0|1:0,0:0:0:0:
101,48,27332,1,0,0:0:0:0:
101,48,27403,5,2,1:2:0:0:
199,40,27546,1,0,0:0:0:0:
359,217,27689,5,8,0:0:0:0:
261,209,27832,1,0,1:0:0:0:
383,27,27975,5,2,0:0:0:0:
383,27,28046,1,0,0:0:0:0:
383,27,28118,2,0,L|393:95,1,47.9999985351563,0|0,1:0|0:0,0:0:0:0:
405,156,28261,1,8,0:0:0:0:
405,156,28403,1,0,0:0:0:0:
500,130,28546,6,0,P|496:180|468:226,1,95.9999970703126,0|0,1:0|1:0,0:0:0:0:
470,322,28832,2,0,P|416:306|378:270,1,95.9999970703126,8|0,0:0|1:0,0:0:0:0:
359,260,29046,1,0,0:0:0:0:
332,280,29118,2,0,L|323:392,1,95.9999970703126,2|0,0:0|1:0,0:0:0:0:
316,142,29403,1,8,0:0:0:0:
433,193,29546,1,0,1:0:0:0:
257,232,29689,6,0,P|217:198|201:55,1,191.999994140625,6|8,1:2|0:0,0:0:0:0:
197,310,30118,1,0,1:0:0:0:
197,310,30189,1,0,0:0:0:0:
197,310,30261,1,2,0:0:0:0:
294,141,30403,1,0,1:0:0:0:
294,141,30546,2,0,L|454:157,1,143.999995605469,8|0,0:0|0:0,0:0:0:0:
329,225,30832,6,0,L|318:342,1,95.9999970703126,2|0,1:2|0:0,0:0:0:0:
230,213,31118,2,0,L|126:202,1,95.9999970703126,8|0,0:0|1:0,0:0:0:0:
134,202,31332,1,0,0:0:0:0:
134,202,31403,1,2,0:0:0:0:
291,135,31546,1,0,1:0:0:0:
313,335,31689,2,0,L|417:346,1,95.9999970703126,8|0,0:0|1:0,0:0:0:0:
458,109,31975,5,2,1:2:0:0:
479,202,32118,1,0,1:0:0:0:
357,132,32261,2,0,L|370:242,1,95.9999970703126,8|0,0:0|1:0,0:0:0:0:
253,139,32546,1,2,0:0:0:0:
256,245,32689,1,0,1:0:0:0:
159,216,32832,2,0,P|146:288|187:366,1,143.999995605469,8|0,0:0|0:0,0:0:0:0:
172,351,33118,6,0,L|287:342,1,95.9999970703126,2|0,1:2|1:0,0:0:0:0:
350,268,33403,2,0,L|464:258,1,95.9999970703126,8|0,0:0|1:0,0:0:0:0:
445,260,33618,1,0,0:0:0:0:
445,260,33689,1,2,0:0:0:0:
438,347,33832,1,0,1:0:0:0:
227,249,33975,1,8,0:0:0:0:
219,163,34118,1,0,1:0:0:0:
421,148,34261,6,0,B|367:156|367:156|349:191|349:191|291:202,1,143.999995605469,6|0,1:2|0:0,0:0:0:0:
299,200,34546,1,8,0:0:0:0:
141,76,34689,2,0,L|96:48,2,47.9999985351563,0|0|2,1:0|0:0|0:0,0:0:0:0:
290,89,34975,1,0,1:0:0:0:
224,40,35118,1,8,0:0:0:0:
198,158,35261,1,0,0:0:0:0:
198,158,35332,1,0,0:0:0:0:
198,158,35403,6,0,L|105:188,1,95.9999970703126,2|0,1:2|1:0,0:0:0:0:
351,356,35689,2,0,L|322:265,1,95.9999970703126,8|0,0:0|1:0,0:0:0:0:
314,158,35975,2,0,L|407:188,1,95.9999970703126,2|0,0:0|1:0,0:0:0:0:
160,356,36261,2,0,L|190:265,1,95.9999970703126,8|0,0:0|1:0,0:0:0:0:
147,62,36546,5,2,1:2:0:0:
114,52,36618,1,0,0:0:0:0:
82,64,36689,1,0,0:0:0:0:
65,93,36761,1,0,0:0:0:0:
63,126,36832,1,8,0:0:0:0:
78,155,36903,1,0,0:0:0:0:
107,172,36975,1,0,1:0:0:0:
139,177,37046,1,0,0:0:0:0:
172,177,37118,1,0,0:0:0:0:
205,177,37189,1,0,0:0:0:0:
238,177,37261,1,0,1:0:0:0:
271,177,37332,1,0,0:0:0:0:
304,177,37403,2,0,L|361:177,3,47.9999985351563,8|0|0|0,0:0|0:0|0:0|0:0,0:0:0:0:
430,193,37689,5,2,1:2:0:0:
431,202,37761,1,0,0:0:0:0:
432,211,37832,2,0,L|440:285,1,47.9999985351563,0|0,1:0|0:0,0:0:0:0:
257,256,37975,5,8,3:2:0:0:
258,265,38047,1,0,3:0:0:0:
259,274,38118,2,0,L|267:348,1,47.9999985351563,0|0,1:0|3:0,0:0:0:0:
77,163,38261,5,0,3:0:0:0:
78,172,38333,1,0,3:0:0:0:
79,181,38404,2,0,L|87:255,1,47.9999985351563,0|0,1:0|3:0,0:0:0:0:
136,73,38546,1,8,0:0:0:0:
136,73,38689,1,0,1:0:0:0:
188,164,38832,5,2,1:2:0:0:
263,94,38975,1,0,0:0:0:0:
269,87,39046,1,2,0:0:0:0:
276,81,39118,1,0,0:0:0:0:
285,77,39189,1,0,0:0:0:0:
294,75,39261,1,2,0:0:0:0:
441,215,39403,2,0,P|382:215|297:160,2,143.999995605469,4|6|4,1:2|1:2|1:2,0:0:0:0:
487,133,39975,5,4,1:0:0:0:
214,80,40118,1,0,0:0:0:0:
214,80,40189,2,0,P|163:87|114:92,1,95.9999970703126
290,120,40403,2,0,P|337:126|385:131,1,95.9999970703126,0|2,0:0|1:2,0:0:0:0:
421,147,40618,1,0,0:0:0:0:
439,180,40689,1,0,0:0:0:0:
434,218,40761,1,0,0:0:0:0:
407,245,40832,1,8,0:0:0:0:
313,222,40975,1,0,1:0:0:0:
182,344,41118,5,2,1:2:0:0:
200,341,41189,1,0,0:0:0:0:
219,338,41261,1,0,0:0:0:0:
237,335,41332,1,2,0:0:0:0:
255,333,41403,1,8,0:0:0:0:
205,92,41546,5,2,0:0:0:0:
178,63,41618,1,0,0:0:0:0:
140,55,41689,1,0,1:0:0:0:
103,68,41761,1,2,0:0:0:0:
83,101,41832,1,0,0:0:0:0:
78,138,41903,1,0,0:0:0:0:
98,170,41975,2,0,L|105:284,1,95.9999970703126,8|0,0:0|0:0,0:0:0:0:
127,308,42189,1,0,0:0:0:0:
103,350,42261,6,0,P|157:351|209:367,1,95.9999970703126,2|0,1:2|0:0,0:0:0:0:
248,299,42475,1,0,0:0:0:0:
248,299,42546,2,0,P|301:295|348:282,1,95.9999970703126,8|0,0:0|0:0,0:0:0:0:
389,296,42761,1,0,0:0:0:0:
428,269,42832,6,0,L|430:207,1,47.9999985351563,0|0,1:0|0:0,0:0:0:0:
339,100,42975,2,0,L|336:175,1,47.9999985351563,0|0,1:0|1:0,0:0:0:0:
442,284,43118,6,0,L|444:222,1,47.9999985351563,8|0,0:0|0:0,0:0:0:0:
329,89,43261,2,0,L|326:164,1,47.9999985351563,0|0,1:0|0:0,0:0:0:0:
256,212,43403,5,6,1:2:0:0:
256,212,43475,1,0,0:0:0:0:
256,212,43546,1,0,0:0:0:0:
256,212,43618,1,0,0:0:0:0:
256,212,43689,1,0,0:0:0:0:
94,172,43832,2,0,L|74:104,1,47.9999985351563,6|0,1:2|0:0,0:0:0:0:
71,262,43975,2,0,L|12:250,1,47.9999985351563
152,237,44118,1,0,0:0:0:0:
322,363,44261,2,0,L|227:369,1,95.9999970703126,6|0,1:2|1:0,0:0:0:0:
152,237,44546,5,6,1:2:0:0:
174,193,44618,1,0,0:0:0:0:
217,174,44689,1,0,0:0:0:0:
263,185,44761,1,0,0:0:0:0:
293,221,44832,1,8,0:0:0:0:
404,52,44975,2,0,L|412:-15,1,47.9999985351563,6|0,1:2|0:0,0:0:0:0:
453,128,45118,2,0,L|488:80,1,47.9999985351563
362,130,45261,1,0,1:0:0:0:
190,21,45403,2,0,L|285:15,1,95.9999970703126,8|0,0:0|1:0,0:0:0:0:
285,14,45618,1,0,0:0:0:0:
285,14,45689,5,6,1:2:0:0:
276,110,45832,1,0,0:0:0:0:
275,124,45903,1,0,0:0:0:0:
274,138,45975,1,8,0:0:0:0:
273,152,46046,1,0,0:0:0:0:
272,166,46118,1,0,1:0:0:0:
242,256,46261,5,6,1:2:0:0:
180,89,46403,1,0,1:0:0:0:
179,113,46475,1,0,0:0:0:0:
178,136,46546,1,8,1:2:0:0:
177,160,46618,1,0,0:0:0:0:
176,183,46689,1,0,1:0:0:0:
335,235,46832,5,6,1:2:0:0:
84,252,46975,2,0,L|77:179,1,47.9999985351563,0|0,1:0|1:0,0:0:0:0:
70,119,47118,1,6,1:2:0:0:
245,288,47261,2,0,L|238:215,1,47.9999985351563,0|0,1:0|1:0,0:0:0:0:
231,155,47404,1,6,1:2:0:0:
406,318,47546,2,0,L|399:245,1,47.9999985351563,0|0,1:0|1:0,0:0:0:0:
395,183,47689,1,0,1:0:0:0:
395,183,47761,1,0,1:0:0:0:
395,183,47832,1,0,1:0:0:0:
395,183,47903,1,0,1:0:0:0:
395,183,47975,6,0,P|410:134|390:74,1,95.9999970703126,4|0,1:0|0:0,0:0:0:0:
351,38,48189,2,0,L|290:32,1,47.9999985351563,0|8,0:0|0:0,0:0:0:0:
222,206,48403,1,0,0:0:0:0:
222,206,48475,1,0,0:0:0:0:
222,206,48546,2,2,P|178:228|117:213,1,95.9999970703126,2|0,1:2|0:0,1:2:0:0:
68,187,48761,2,0,L|60:121,1,47.9999985351563,0|8,0:0|0:0,0:0:0:0:
342,219,48975,1,0,0:0:0:0:
342,219,49046,1,0,0:0:0:0:
342,219,49118,6,0,L|353:111,1,95.9999970703126,2|0,1:2|0:0,0:0:0:0:
351,123,49332,2,0,P|401:113|449:119,1,95.9999970703126
388,288,49546,2,0,P|337:297|289:291,1,95.9999970703126,0|2,0:0|1:2,0:0:0:0:
261,269,49761,1,0,0:0:0:0:
222,270,49832,1,0,0:0:0:0:
196,298,49903,1,0,0:0:0:0:
195,336,49975,2,0,L|201:389,1,47.9999985351563,8|0,0:0|0:0,0:0:0:0:
119,268,50118,2,0,L|113:215,1,47.9999985351563,0|0,1:0|0:0,0:0:0:0:
172,139,50261,5,2,1:2:0:0:
272,55,50403,1,0,0:0:0:0:
272,55,50475,2,0,P|323:53|383:77,1,95.9999970703126,2|0,0:0|0:0,0:0:0:0:
453,126,50689,5,2,0:0:0:0:
275,243,50832,1,0,1:0:0:0:
275,243,50903,2,0,L|260:135,1,95.9999970703126,2|0,0:0|0:0,0:0:0:0:
172,139,51118,1,8,0:0:0:0:
136,106,51189,1,0,0:0:0:0:
87,103,51261,1,0,0:0:0:0:
52,136,51332,1,0,0:0:0:0:
46,183,51403,5,2,1:2:0:0:
185,267,51546,1,0,0:0:0:0:
186,242,51618,1,0,0:0:0:0:
188,218,51689,1,8,0:0:0:0:
62,296,51832,1,0,0:0:0:0:
60,281,51903,1,0,0:0:0:0:
59,266,51975,1,0,1:0:0:0:
183,358,52118,1,0,1:0:0:0:
309,293,52261,2,0,L|325:172,1,95.9999970703126,8|0,0:0|1:0,0:0:0:0:
407,128,52546,5,6,1:2:0:0:
407,128,52618,1,0,0:0:0:0:
407,128,52689,1,0,0:0:0:0:
407,128,52761,1,0,0:0:0:0:
407,128,52832,1,0,0:0:0:0:
245,127,52975,2,0,L|261:181,1,47.9999985351563,6|0,1:2|0:0,0:0:0:0:
255,40,53118,2,0,L|322:53,1,47.9999985351563
174,73,53261,1,0,0:0:0:0:
33,230,53403,2,0,L|19:124,1,95.9999970703126,8|0,0:0|1:0,0:0:0:0:
174,73,53689,5,6,1:2:0:0:
216,95,53761,1,0,0:0:0:0:
239,136,53832,1,0,0:0:0:0:
227,182,53903,1,0,0:0:0:0:
189,212,53975,1,8,0:0:0:0:
341,360,54118,2,0,L|372:317,1,47.9999985351563,6|0,1:2|0:0,0:0:0:0:
299,271,54261,2,0,L|304:210,1,47.9999985351563
240,346,54403,1,0,1:0:0:0:
479,154,54546,2,0,L|493:260,1,95.9999970703126,8|0,0:0|0:0,0:0:0:0:
404,86,54761,1,0,0:0:0:0:
404,86,54832,6,0,L|410:11,2,63.9999980468751,6|0|0,1:2|1:0|1:0,0:0:0:0:
349,138,55118,5,6,1:2:0:0:
295,93,55213,1,0,1:0:0:0:
224,99,55308,1,0,1:0:0:0:
344,216,55403,5,2,1:2:0:0:
357,210,55475,1,0,1:0:0:0:
370,205,55546,1,0,1:0:0:0:
384,202,55618,1,0,1:0:0:0:
398,199,55689,1,8,0:0:0:0:
458,289,55832,1,0,1:0:0:0:
457,118,55975,5,6,1:2:0:0:
416,104,56046,1,0,1:0:0:0:
377,124,56118,1,0,1:0:0:0:
337,108,56189,1,0,1:0:0:0:
307,76,56261,5,0,1:0:0:0:
269,96,56332,1,0,1:0:0:0:
243,130,56403,1,0,1:0:0:0:
200,122,56475,1,0,1:0:0:0:
158,110,56546,6,0,L|105:120,1,47.9999985351563,6|0,1:2|0:0,0:0:0:0:
16,186,56689,2,0,L|69:176,1,47.9999985351563,0|0,1:0|0:0,0:0:0:0:
178,196,56832,2,0,L|125:206,1,47.9999985351563,6|0,1:2|0:0,0:0:0:0:
36,272,56975,2,0,L|89:262,1,47.9999985351563,0|0,1:0|0:0,0:0:0:0:
209,354,57118,5,4,1:0:0:0:
454,115,66118,5,0,0:0:0:0:
454,115,66189,1,0,0:0:0:0:
454,115,66261,2,0,B|391:110|391:110|359:130|359:130|297:126,1,160,2|2,0:0|0:0,0:0:0:0:
237,73,66689,1,0,0:0:0:0:
94,218,66832,5,2,0:0:0:0:
163,171,66975,1,0,0:0:0:0:
94,218,67118,2,0,B|126:302|126:302|197:280,1,160,2|2,0:0|0:0,0:0:0:0:
401,218,67546,5,0,0:0:0:0:
411,223,67618,1,0,0:0:0:0:
421,228,67689,1,2,0:0:0:0:
473,295,67832,1,0,0:0:0:0:
386,310,67975,2,0,L|301:297,1,80,2|0,0:0|0:0,0:0:0:0:
306,297,68261,1,2,0:0:0:0:
174,36,68546,5,2,0:0:0:0:
128,124,68689,1,0,0:0:0:0:
128,124,68761,1,0,0:0:0:0:
128,124,68832,2,0,L|221:111,1,80,2|0,0:0|0:0,0:0:0:0:
415,97,69118,1,2,0:0:0:0:
355,159,69261,1,0,0:0:0:0:
415,97,69403,2,0,B|380:43|380:43|280:70,1,160,2|2,0:0|0:0,0:0:0:0:
194,226,69832,5,0,0:0:0:0:
192,237,69903,1,0,0:0:0:0:
190,248,69975,1,2,0:0:0:0:
266,289,70118,1,0,0:0:0:0:
320,217,70261,2,0,P|326:168|305:125,2,80,2|0|2,0:0|0:0|0:0,0:0:0:0:
266,289,70689,1,0,0:0:0:0:
408,278,70832,6,0,B|420:222|420:222|408:188|408:188|421:109,1,160,2|2,0:0|0:0,0:0:0:0:
489,81,71261,1,0,0:0:0:0:
224,86,71403,5,2,0:0:0:0:
245,167,71546,1,0,0:0:0:0:
318,125,71689,2,0,P|336:75|242:19,1,160,2|2,0:0|0:0,0:0:0:0:
84,110,72118,6,0,L|25:117,2,40,0|0|2,0:0|0:0|0:0,0:0:0:0:
224,86,72403,1,0,0:0:0:0:
137,274,72546,5,2,0:0:0:0:
56,254,72689,1,0,0:0:0:0:
180,193,72832,1,2,0:0:0:0:
224,336,72975,1,0,0:0:0:0:
357,266,73118,6,0,L|443:274,1,80,2|0,0:0|0:0,0:0:0:0:
436,273,73332,1,0,0:0:0:0:
436,273,73403,2,0,L|453:174,1,80,2|0,0:0|0:0,0:0:0:0:
274,219,73689,1,2,0:0:0:0:
218,160,73832,1,0,0:0:0:0:
226,80,73975,1,2,0:0:0:0:
296,41,74118,1,0,0:0:0:0:
372,63,74261,6,0,L|464:82,1,80,2|0,0:0|0:0,0:0:0:0:
407,154,74475,1,0,0:0:0:0:
407,154,74546,2,0,L|424:256,1,80,2|0,0:0|0:0,0:0:0:0:
99,73,74832,2,0,L|71:80,4,26.6666666666667,2|0|0|0|0,0:0|0:0|0:0|0:0|0:0,0:0:0:0:
130,277,75118,2,0,L|137:305,4,26.6666666666667,2|0|0|0|0,0:0|0:0|0:0|0:0|0:0,0:0:0:0:
61,188,75403,6,2,B|100:162|147:170|147:170|175:213|232:212,1,180.000006866455,6|0,1:0|0:0,0:1:0:0:
349,52,75975,6,0,B|388:95|388:95|351:189,1,143.999995605469,8|0,0:0|0:0,0:0:0:0:
222,211,76261,2,0,L|231:140,1,60.0000022888184
122,58,76546,5,2,1:2:0:0:
63,47,76641,1,0,0:0:0:0:
15,85,76737,1,0,0:0:0:0:
40,190,76832,5,0,0:0:0:0:
99,201,76927,1,0,0:0:0:0:
147,163,77023,1,0,0:0:0:0:
84,126,77118,6,0,L|67:120,6,15.0000005722046,8|0|0|0|0|0|0,0:0|0:0|0:0|0:0|0:0|0:0|0:0,0:0:0:0:
122,58,77403,2,0,P|152:39|213:31,1,90.0000034332277
174,209,77689,6,0,P|146:228|52:232,1,120.000004577637,2|0,1:2|0:0,0:0:0:0:
340,276,78118,1,0,0:0:0:0:
340,276,78189,1,0,0:0:0:0:
340,276,78261,2,0,B|390:282|390:282|402:298|402:298|456:306,1,120.000004577637,8|0,0:0|0:0,0:0:0:0:
491,235,78689,1,0,0:0:0:0:
195,308,78832,6,0,L|92:321,1,90.0000034332277,2|0,1:2|0:0,0:0:0:0:
31,332,79118,1,0,0:0:0:0:
235,119,79261,1,0,1:0:0:0:
235,119,79403,2,0,B|274:94|274:94|386:119,1,143.999995605469,8|0,0:0|0:0,0:0:0:0:
417,193,79689,2,0,L|488:201,2,63.9999980468751,2|0|0,1:3|0:0|0:0,0:0:0:0:
152,154,79975,6,2,P|125:114|193:11,1,180.000006866455,2|0,1:1|0:0,0:1:0:0:
201,226,80546,6,0,B|197:281|197:281|210:312|210:312|204:386,1,143.999995605469,8|0,0:0|0:0,0:0:0:0:
205,367,80832,1,0,0:0:0:0:
121,341,80975,1,0,0:0:0:0:
152,154,81118,5,2,1:2:0:0:
210,140,81213,1,0,0:0:0:0:
260,171,81308,1,0,0:0:0:0:
279,92,81403,5,0,0:0:0:0:
329,122,81498,1,0,0:0:0:0:
343,179,81593,1,0,0:0:0:0:
419,131,81689,6,0,L|431:262,1,120.000004577637,8|0,0:0|1:0,0:0:0:0:
249,317,82261,6,0,B|201:324|201:324|183:349|183:349|104:359|104:359|120:335,1,180.000006866455,2|0,1:2|0:0,0:0:0:0:
137,242,82832,6,0,P|145:181|144:79,1,143.999995605469,8|0,0:0|0:0,0:0:0:0:
269,0,83118,2,0,P|266:64|267:117,1,95.9999970703126
245,199,83403,6,0,P|317:199|380:192,1,127.99999609375,2|0,1:2|0:0,0:0:0:0:
465,162,83689,1,0,0:0:0:0:
398,314,83832,1,0,1:0:0:0:
398,314,83903,1,0,0:0:0:0:
398,314,83975,2,0,B|349:257|349:257|375:185,1,143.999995605469,8|0,0:0|0:0,0:0:0:0:
384,30,84261,5,0,1:0:0:0:
384,30,84356,2,0,P|423:40|459:46,1,63.9999980468751
484,129,84546,6,0,B|379:109|424:171|290:147,1,180.000006866455,6|0,0:0|0:0,0:0:0:0:
239,104,85118,1,2,0:0:0:0:
192,247,85403,1,0,0:0:0:0:
79,115,85689,2,0,P|67:157|102:225,1,120.000004577637,2|0,0:0|0:0,0:0:0:0:
153,158,86118,1,0,0:0:0:0:
211,96,86261,2,0,P|211:51|200:17,2,60.0000022888184,2|0|0,0:0|0:0|0:0,0:0:0:0:
153,158,86689,6,0,L|289:146,1,120.000004577637,2|0,0:0|0:0,0:0:0:0:
355,143,87118,1,2,0:0:0:0:
355,143,87261,1,0,0:0:0:0:
419,253,87403,2,0,L|492:260,2,60.0000022888184,2|0|0,0:0|0:0|0:0,0:0:0:0:
273,242,87832,2,0,P|256:278|357:346,1,180.000006866455,2|0,0:0|0:0,0:0:0:0:
375,342,88546,6,0,B|220:318|295:374|137:350,1,240
32,204,89118,5,6,1:2:0:0:
99,274,89261,1,0,0:0:0:0:
184,233,89403,1,2,0:3:0:0:
164,140,89546,1,0,1:0:0:0:
164,140,89618,1,0,0:0:0:0:
164,140,89689,1,0,0:0:0:0:
256,114,89832,1,0,1:3:0:0:
279,207,89975,1,10,0:3:0:0:
371,182,90118,1,8,0:3:0:0:
350,88,90261,6,0,L|359:7,2,63.9999980468751,2|0|0,1:2|0:0|0:0,0:0:0:0:
345,267,90546,1,2,1:3:0:0:
188,172,90689,1,0,1:0:0:0:
435,118,90832,5,2,1:2:0:0:
260,57,90975,2,0,L|270:161,1,95.9999970703126,0|2,0:0|0:3,0:0:0:0:
118,258,91261,1,0,1:0:0:0:
118,258,91332,1,0,0:0:0:0:
118,258,91403,6,0,B|156:191|156:191|110:68,1,191.999994140625,4|8,1:0|0:0,0:0:0:0:
42,166,91832,1,0,1:0:0:0:
223,267,91975,2,0,L|174:360,1,95.9999970703126,4|0,1:0|0:0,0:0:0:0:
264,195,92189,1,0,0:0:0:0:
264,195,92261,2,0,L|379:214,1,95.9999970703126,8|0,0:0|1:0,0:0:0:0:
479,271,92546,5,4,1:0:0:0:
337,316,92689,1,0,0:0:0:0:
337,316,92761,1,0,0:0:0:0:
337,316,92832,1,4,1:0:0:0:
193,260,92975,1,0,0:0:0:0:
45,304,93118,1,4,1:0:0:0:
44,284,93189,1,0,0:0:0:0:
43,264,93261,1,0,1:0:0:0:
42,244,93332,1,0,0:0:0:0:
41,223,93403,2,0,L|51:112,1,95.9999970703126,4|0,1:0|1:0,0:0:0:0:
129,63,93689,5,6,1:2:0:0:
312,112,93832,1,0,0:0:0:0:
302,122,93903,1,2,0:0:0:0:
288,127,93975,1,0,0:0:0:0:
273,129,94046,1,0,0:0:0:0:
258,125,94118,1,2,0:0:0:0:
156,320,94261,2,0,B|204:276|204:276|188:172,2,143.999995605469,4|6|4,1:2|1:2|1:2,0:0:0:0:
172,104,94832,5,6,1:2:0:0:
328,288,94975,1,0,0:0:0:0:
328,288,95046,2,0,L|320:356,1,47.9999985351563,2|0,0:0|0:0,0:0:0:0:
288,184,95189,1,0,0:0:0:0:
288,184,95260,2,0,L|352:176,1,47.9999985351563,2|0,0:0|0:0,0:0:0:0:
446,167,95403,5,6,1:2:0:0:
447,172,95475,1,0,0:0:0:0:
444,176,95546,1,0,0:0:0:0:
439,176,95618,1,6,1:2:0:0:
436,172,95689,1,0,0:0:0:0:
437,167,95761,1,0,0:0:0:0:
441,165,95832,1,6,1:2:0:0:
336,105,95975,6,0,L|271:92,3,47.9999985351563,4|0|0|0,1:3|0:0|0:0|0:0,0:0:0:0:
43,98,96261,6,0,P|113:93|209:73,1,143.999995605469,4|0,1:0|0:0,0:0:0:0:
379,214,96546,1,0,1:0:0:0:
379,214,96618,2,0,L|276:229,1,95.9999970703126
204,252,96832,2,0,P|197:204|210:159,1,95.9999970703126,8|0,0:0|0:0,0:0:0:0:
209,159,97046,1,0,0:0:0:0:
209,159,97118,1,2,1:2:0:0:
46,214,97261,6,0,L|0:227,2,47.9999985351563,0|0|8,0:0|0:0|0:0,0:0:0:0:
139,139,97546,1,0,0:0:0:0:
139,139,97618,1,0,0:0:0:0:
139,139,97689,1,0,1:0:0:0:
204,252,97832,1,0,1:0:0:0:
328,187,97975,1,8,0:0:0:0:
457,311,98118,1,0,1:0:0:0:
457,311,98189,1,0,0:0:0:0:
457,311,98261,6,0,P|382:335|298:278,1,162.000000617981,6|0,1:2|0:0,0:0:0:0:
311,298,98546,1,0,0:0:0:0:
281,116,98689,1,6,1:2:0:0:
281,116,98761,1,0,0:0:0:0:
281,116,98832,2,0,L|287:56,2,54.0000002059937
137,188,99118,1,0,1:0:0:0:
137,188,99189,1,0,0:0:0:0:
137,188,99261,1,0,1:0:0:0:
137,188,99332,1,0,0:0:0:0:
137,188,99403,6,0,L|76:164,1,47.9999985351563,6|0,1:2|0:0,0:0:0:0:
161,98,99546,2,0,L|152:43,1,47.9999985351563
226,161,99689,1,8,0:0:0:0:
429,76,99832,1,6,1:2:0:0:
400,44,99903,1,0,0:0:0:0:
357,34,99975,1,0,0:0:0:0:
314,39,100046,1,0,0:0:0:0:
281,68,100118,1,0,1:0:0:0:
355,119,100261,1,8,0:0:0:0:
356,128,100332,1,0,0:0:0:0:
357,137,100403,1,0,1:0:0:0:
358,146,100475,1,0,0:0:0:0:
359,155,100546,6,0,L|421:178,1,47.9999985351563,6|0,1:2|0:0,0:0:0:0:
440,295,100689,2,0,L|396:251,1,47.9999985351563
313,246,100832,2,0,L|334:304,1,47.9999985351563,8|0,0:0|0:0,0:0:0:0:
233,357,100975,1,0,1:0:0:0:
233,357,101046,1,0,0:0:0:0:
233,357,101118,6,0,L|244:289,1,47.9999985351563,6|0,1:2|0:0,0:0:0:0:
203,189,101261,2,0,L|194:260,1,47.9999985351563,0|0,1:0|0:0,0:0:0:0:
106,319,101403,2,0,L|121:262,1,47.9999985351563,8|0,0:0|0:0,0:0:0:0:
86,141,101546,2,0,L|90:210,1,47.9999985351563,0|0,1:0|0:0,0:0:0:0:
23,229,101689,5,6,1:2:0:0:
227,65,101832,2,0,L|172:55,1,47.9999985351563,0|0,1:0|1:0,0:0:0:0:
100,42,101975,1,6,1:2:0:0:
281,281,102118,2,0,L|226:271,1,47.9999985351563,0|0,1:0|1:0,0:0:0:0:
154,258,102261,1,6,1:2:0:0:
425,180,102403,2,0,L|370:170,1,47.9999985351563,0|0,1:0|1:0,0:0:0:0:
298,157,102546,1,0,1:0:0:0:
298,157,102618,1,0,1:0:0:0:
298,157,102689,1,0,1:0:0:0:
298,157,102761,1,0,1:0:0:0:
298,157,102832,6,0,P|280:97|311:43,1,95.9999970703126,4|0,1:0|0:0,0:0:0:0:
358,45,103046,2,0,L|420:54,1,47.9999985351563,0|8,0:0|0:0,0:0:0:0:
184,57,103261,1,0,0:0:0:0:
184,57,103332,1,0,0:0:0:0:
184,57,103403,2,0,L|74:64,1,95.9999970703126,2|0,1:2|0:0,0:0:0:0:
92,136,103618,2,0,L|72:195,1,47.9999985351563,0|8,0:0|0:0,0:0:0:0:
235,361,103832,1,0,0:0:0:0:
235,361,103903,1,0,0:0:0:0:
235,361,103975,6,0,L|253:246,1,95.9999970703126,2|0,1:2|0:0,0:0:0:0:
249,266,104189,2,0,P|188:274|142:271,1,95.9999970703126
203,193,104403,2,0,P|264:185|310:188,1,95.9999970703126,0|2,0:0|1:2,0:0:0:0:
340,211,104618,1,0,0:0:0:0:
387,209,104689,1,0,0:0:0:0:
418,172,104761,1,0,0:0:0:0:
414,124,104832,2,0,L|419:64,1,47.9999985351563,8|0,0:0|0:0,0:0:0:0:
278,45,104975,2,0,L|292:105,1,47.9999985351563,0|0,1:0|0:0,0:0:0:0:
203,193,105118,6,0,B|158:217|158:217|52:207,1,143.999995605469,2|2,1:2|0:0,0:0:0:0:
41,190,105403,1,8,0:0:0:0:
178,32,105546,2,0,P|148:36|119:40,1,47.9999985351563,2|0,0:0|0:0,0:0:0:0:
44,91,105689,1,0,1:0:0:0:
33,110,105761,2,0,L|132:123,1,95.9999970703126,2|0,0:0|0:0,0:0:0:0:
251,89,105975,1,8,0:0:0:0:
251,89,106046,1,0,0:0:0:0:
251,89,106118,2,0,P|280:97|302:111,1,47.9999985351563
429,117,106261,6,0,P|398:132|383:147,1,47.9999985351563,2|0,1:2|0:0,0:0:0:0:
280,186,106403,2,0,P|297:203|307:228,1,47.9999985351563
390,251,106546,2,0,P|378:279|373:303,1,47.9999985351563,8|0,1:2|0:0,0:0:0:0:
317,359,106689,1,0,0:0:0:0:
317,359,106761,1,0,0:0:0:0:
317,359,106832,1,0,1:0:0:0:
466,290,106975,1,0,1:0:0:0:
280,186,107118,1,8,0:0:0:0:
429,117,107261,1,0,1:0:0:0:
263,273,107403,6,0,B|203:266|203:266|165:289|165:289|90:283,1,162.000000617981,6|0,1:2|0:0,0:0:0:0:
108,284,107689,1,0,0:0:0:0:
342,60,107832,1,6,1:2:0:0:
342,60,107903,1,0,0:0:0:0:
342,60,107975,2,0,L|404:53,2,54.0000002059937
139,71,108261,1,6,1:2:0:0:
139,71,108332,1,0,0:0:0:0:
139,71,108403,1,0,1:0:0:0:
139,71,108475,1,0,0:0:0:0:
139,71,108546,6,0,L|193:43,1,47.9999985351563,6|0,1:2|0:0,0:0:0:0:
205,138,108689,2,0,L|255:159,1,47.9999985351563
118,158,108832,1,8,0:0:0:0:
287,235,108975,1,6,1:2:0:0:
323,204,109046,1,0,0:0:0:0:
337,157,109118,1,0,0:0:0:0:
328,110,109189,1,0,0:0:0:0:
293,76,109261,1,0,1:0:0:0:
118,158,109403,1,14,1:2:0:0:
116,167,109475,1,0,0:0:0:0:
114,176,109546,1,0,1:0:0:0:
112,185,109618,1,0,0:0:0:0:
111,194,109689,6,0,L|38:207,2,63.9999980468751,6|0|0,1:2|1:0|1:0,1:0:0:0:
186,221,109975,5,0,1:0:0:0:
222,289,110070,1,0,1:0:0:0:
196,361,110165,1,0,1:0:0:0:
256,184,110261,5,2,1:2:0:0:
257,164,110332,1,0,1:0:0:0:
261,145,110403,1,0,1:0:0:0:
266,126,110475,1,0,1:0:0:0:
272,108,110546,1,8,0:0:0:0:
359,152,110689,1,0,1:0:0:0:
186,221,110832,5,6,1:2:0:0:
213,254,110903,1,0,1:0:0:0:
250,275,110975,1,0,1:0:0:0:
281,245,111046,1,0,1:0:0:0:
318,223,111118,5,4,1:2:0:0:
353,247,111189,1,0,1:0:0:0:
394,233,111261,1,0,1:0:0:0:
430,255,111332,1,0,1:0:0:0:
471,243,111403,6,0,L|491:189,1,47.9999985351563,4|0,1:2|0:0,0:0:0:0:
384,320,111546,2,0,L|376:367,1,47.9999985351563,0|0,1:0|0:0,0:0:0:0:
352,155,111689,2,0,L|359:107,1,47.9999985351563,6|0,1:2|0:0,0:0:0:0:
250,275,111832,2,0,L|233:327,1,47.9999985351563,0|0,1:0|0:0,0:0:0:0:
201,68,111975,5,4,1:0:0:0:
256,192,112046,12,0,114261,0:0:0:0:
