osu file format v14

[General]
AudioFilename: audio.mp3
AudioLeadIn: 0
PreviewTime:38546
Countdown: 0
SampleSet: Soft
StackLeniency: 0.7
Mode: 0
LetterboxInBreaks: 0
WidescreenStoryboard: 1

[Editor]
DistanceSpacing: 1
BeatDivisor: 4
GridSize: 4
TimelineZoom: 2.4

[Metadata]
Title:LvC3
TitleUnicode:LvC3
Artist:Rohi
ArtistUnicode:ろひ
Creator:VINXIS
Version:Normal
Source:osu!
Tags:RLC captin1 piano instrumental electronic complextro edm short featured artist fa mappers guild mapper's mappers'
BeatmapID:2576520
BeatmapSetID:1231655

[Difficulty]
HPDrainRate:3
CircleSize:3
OverallDifficulty:4.5
ApproachRate:5.5
SliderMultiplier:1
SliderTickRate:1

[Events]
//Background and Video events
0,0,"68883606_p0_waifu2x_art_scale_tta_1.jpg",0,0
//Break Periods
2,57318,65136
//Storyboard Layer 0 (Background)
//Storyboard Layer 1 (Fail)
//Storyboard Layer 2 (Pass)
//Storyboard Layer 3 (Foreground)
//Storyboard Layer 4 (Overlay)
//Storyboard Sound Samples

[TimingPoints]
2261,285.714285714286,4,2,1,70,1,0
11403,-100,4,2,1,100,0,0
18261,-100,4,2,1,90,0,0
20546,-100,4,2,1,70,0,0
20832,-100,4,2,1,90,0,0
61689,-100,4,2,1,60,0,0
66261,-100,4,2,1,80,0,0
74261,-100,4,2,1,60,0,0
75403,-100,4,2,2,90,0,0
76546,-100,4,2,1,90,0,0
79975,-100,4,2,2,90,0,0
81118,-100,4,2,1,90,0,0
84546,-100,4,2,1,70,0,0
89118,-100,4,2,1,90,0,0
95975,-100,4,2,1,60,0,0
96261,-100,4,2,1,90,0,0

[Colours]
Combo1 : 17,254,176
Combo2 : 173,255,95
Combo3 : 88,194,255
Combo4 : 255,225,55

[HitObjects]
34,57,10261,6,2,L|254:71,1,200,2|2,0:0|0:1,0:0:0:0:
322,24,11118,1,2,0:0:0:0:
379,105,11403,6,0,P|376:173|366:210,1,100,4|2,1:2|0:3,0:0:0:0:
374,253,11832,2,0,L|260:237,1,100,2|0,0:0|1:0,0:0:0:0:
227,254,12261,1,2,0:3:0:0:
132,221,12546,6,0,P|135:153|145:116,1,100,2|2,1:2|0:3,0:0:0:0:
137,73,12975,2,0,L|251:89,1,100,2|0,0:0|1:0,0:0:0:0:
284,72,13404,1,2,0:3:0:0:
332,60,13546,1,0,1:0:0:0:
379,45,13689,6,0,P|443:60|500:52,1,100,2|2,1:2|0:3,0:0:0:0:
509,96,14118,2,0,L|495:211,1,100,2|0,0:0|1:0,0:0:0:0:
510,243,14546,1,2,0:3:0:0:
413,268,14832,5,2,1:2:0:0:
381,173,15118,1,2,0:3:0:0:
305,238,15403,2,0,L|196:227,1,100,0|2,0:0|0:3,0:0:0:0:
155,234,15832,1,0,1:0:0:0:
105,243,15975,6,0,P|92:197|99:129,1,100,2|2,1:2|0:3,0:0:0:0:
110,97,16403,2,0,P|156:84|224:91,1,100,2|0,0:0|1:0,0:0:0:0:
249,58,16832,1,2,0:3:0:0:
319,128,17118,6,0,P|332:174|325:242,1,100,2|2,1:2|0:3,0:0:0:0:
314,274,17546,2,0,P|268:287|200:280,1,100,2|0,0:0|1:0,0:0:0:0:
175,313,17975,1,2,0:3:0:0:
134,341,18118,1,0,1:0:0:0:
91,367,18261,6,0,P|61:319|52:259,1,100,0|2,1:0|1:3,1:0:0:0:
137,224,18832,2,0,P|167:176|176:116,1,100,0|2,1:0|1:3,0:0:0:0:
135,42,19403,5,0,1:0:0:0:
233,26,19689,1,2,1:3:0:0:
310,88,19975,1,0,1:0:0:0:
408,72,20261,1,2,1:3:0:0:
484,7,20546,5,2,0:0:0:0:
505,104,20832,2,0,P|497:162|493:223,1,100,4|0,1:0|1:0,0:0:0:0:
460,241,21261,1,0,1:0:0:0:
428,279,21403,1,8,0:2:0:0:
331,305,21689,6,0,P|256:285|226:285,1,100,2|8,1:2|0:0,0:0:0:0:
188,306,22118,1,0,1:0:0:0:
143,328,22261,2,0,P|126:260|122:220,1,100,2|8,0:0|0:0,0:0:0:0:
25,205,22832,6,0,P|48:143|40:8,1,200,2|0,1:2|0:0,0:0:0:0:
141,9,23689,1,8,0:0:0:0:
225,62,23975,5,2,1:2:0:0:
323,56,24261,1,8,0:0:0:0:
402,115,24546,1,2,0:0:0:0:
408,213,24832,1,8,0:0:0:0:
334,281,25118,6,0,P|270:299|222:301,1,100,2|8,1:2|0:0,0:0:0:0:
215,203,25689,2,0,P|279:185|327:183,1,100,2|8,0:0|0:0,0:0:0:0:
408,213,26261,5,2,1:2:0:0:
402,115,26547,1,8,0:0:0:0:
323,56,26832,1,2,0:0:0:0:
225,62,27118,1,8,0:0:0:0:
131,27,27403,5,2,1:2:0:0:
96,121,27689,1,8,0:0:0:0:
190,156,27975,1,2,0:0:0:0:
218,251,28261,1,8,0:0:0:0:
315,232,28546,6,0,P|407:220|432:222,1,100,0|8,1:0|0:0,0:0:0:0:
454,190,28975,1,0,1:0:0:0:
491,156,29118,2,0,L|496:38,1,100,2|8,0:0|0:0,0:0:0:0:
401,20,29689,6,0,L|396:119,1,100,6|8,1:2|0:0,0:0:0:0:
349,137,30118,1,0,1:0:0:0:
300,149,30261,2,0,L|295:248,1,100,2|8,0:0|0:0,0:0:0:0:
213,306,30832,5,2,1:2:0:0:
144,233,31118,1,8,0:0:0:0:
58,284,31403,1,2,0:0:0:0:
39,185,31689,1,8,0:0:0:0:
122,129,31975,5,2,1:2:0:0:
219,150,32261,1,8,0:0:0:0:
270,64,32546,1,2,0:0:0:0:
365,93,32832,1,8,0:0:0:0:
458,127,33118,6,0,P|465:207|462:244,1,100,2|8,1:2|0:0,0:0:0:0:
425,259,33546,2,0,P|345:266|308:263,1,100,0|0,1:0|1:0,0:0:0:0:
278,281,33975,2,0,L|213:271,1,50,8|0,0:0|1:0,0:0:0:0:
178,270,34261,6,0,P|185:220|181:170,1,100,6|8,1:2|0:0,0:0:0:0:
243,91,34832,2,0,P|292:98|342:94,1,100,2|8,0:0|0:0,0:0:0:0:
413,24,35403,5,2,1:2:0:0:
445,118,35689,1,8,0:0:0:0:
394,204,35975,1,2,0:0:0:0:
426,298,36261,1,8,0:0:0:0:
361,374,36546,5,2,1:2:0:0:
256,192,36618,12,2,37689,1:2:0:0:
116,70,38832,6,0,L|204:55,2,75,2|2|2,1:2|0:0|0:0,0:0:0:0:
78,103,39403,5,4,1:2:0:0:
102,189,39618,1,6,1:2:0:0:
145,273,39832,1,4,1:2:0:0:
144,273,39975,6,0,P|194:266|244:263,1,100,4|8,1:0|0:0,0:0:0:0:
303,182,40546,1,2,1:2:0:0:
306,132,40689,1,0,0:0:0:0:
309,82,40832,1,8,0:0:0:0:
408,73,41118,6,0,L|395:-19,2,75,2|2|2,1:2|0:0|0:0,0:0:0:0:
451,97,41689,1,0,1:0:0:0:
432,196,41975,2,0,L|438:245,1,50,8|0,0:0|0:0,0:0:0:0:
424,294,42261,6,0,P|365:296|322:297,1,100,2|8,1:2|0:0,0:0:0:0:
301,199,42832,1,0,1:0:0:0:
251,192,42975,1,0,1:0:0:0:
201,183,43118,1,8,0:0:0:0:
126,247,43403,5,6,1:2:0:0:
120,96,43832,1,6,1:2:0:0:
386,137,44546,5,6,1:2:0:0:
392,288,44975,1,6,1:2:0:0:
185,375,45689,5,6,1:2:0:0:
135,373,45832,1,0,0:0:0:0:
86,376,45975,1,8,0:0:0:0:
20,300,46261,1,6,1:2:0:0:
17,251,46404,1,0,1:0:0:0:
19,201,46547,1,8,1:2:0:0:
74,117,46832,2,0,L|190:128,1,100,6|6,1:2|1:2,0:0:0:0:
273,140,47403,1,6,1:2:0:0:
372,159,47689,1,0,1:0:0:0:
468,184,47975,6,0,P|456:241|450:300,1,100,4|8,1:0|0:0,0:0:0:0:
371,342,48546,2,2,P|321:335|272:325,1,100,2|8,1:2|0:0,1:2:0:0:
221,238,49118,6,0,P|233:181|239:122,1,100,2|8,1:2|0:0,0:0:0:0:
176,60,49689,2,0,P|127:49|77:43,1,100,2|8,1:2|0:0,0:0:0:0:
63,143,50261,6,0,L|-17:131,2,75,2|2|2,1:2|0:0|0:0,0:0:0:0:
95,181,50832,1,0,1:0:0:0:
162,255,51118,2,0,L|211:261,1,50,8|0,0:0|0:0,0:0:0:0:
254,287,51403,6,0,P|313:289|356:290,1,100,2|8,1:2|0:0,0:0:0:0:
434,229,51975,1,0,1:0:0:0:
431,179,52118,1,0,1:0:0:0:
423,129,52261,1,8,0:0:0:0:
339,74,52546,5,6,1:2:0:0:
188,69,52975,1,6,1:2:0:0:
173,310,53689,5,6,1:2:0:0:
324,315,54118,1,6,1:2:0:0:
355,67,54832,5,6,1:2:0:0:
255,55,55118,1,6,1:2:0:0:
160,85,55403,1,2,1:2:0:0:
114,173,55689,1,8,0:0:0:0:
36,235,55975,6,0,L|20:337,1,100,6|0,1:2|1:0,0:0:0:0:
112,372,56546,2,0,L|127:273,1,100,6|6,1:2|1:2,0:0:0:0:
218,230,57118,5,4,1:0:0:0:
25,303,66261,6,0,P|109:308|131:305,1,100,2|2,0:0|0:0,0:0:0:0:
188,229,66832,2,0,P|272:224|294:227,1,100,2|2,0:0|0:0,0:0:0:0:
358,154,67403,2,0,P|341:80|346:39,1,100,2|2,0:0|0:0,0:0:0:0:
442,43,67975,2,0,P|459:117|454:158,1,100,2|2,0:0|0:0,0:0:0:0:
497,231,68546,5,2,0:0:0:0:
445,316,68832,1,2,0:0:0:0:
347,339,69118,2,0,L|242:329,1,100,2|2,0:0|0:0,0:0:0:0:
148,316,69689,1,2,0:0:0:0:
63,264,69975,1,2,0:0:0:0:
40,166,70261,2,0,L|50:61,1,100,2|2,0:0|0:0,0:0:0:0:
133,11,70832,5,2,0:0:0:0:
212,71,71118,1,2,0:0:0:0:
303,31,71403,1,2,0:0:0:0:
384,89,71689,1,2,0:0:0:0:
474,46,71975,2,0,L|486:153,1,100,2|2,0:0|0:0,0:0:0:0:
414,216,72546,2,0,L|426:323,1,100,2|2,0:0|0:0,0:0:0:0:
331,351,73118,5,2,0:0:0:0:
284,262,73403,1,2,0:0:0:0:
319,168,73689,1,2,0:0:0:0:
276,77,73975,1,2,0:0:0:0:
358,19,74261,5,2,0:0:0:0:
158,7,74832,1,2,0:0:0:0:
121,203,75403,6,2,L|132:354,1,150,6|0,1:0|0:0,0:1:0:0:
131,352,75975,1,8,0:0:0:0:
230,367,76261,1,0,0:0:0:0:
301,296,76546,2,0,P|351:281|404:280,1,100,2|0,1:2|0:0,0:0:0:0:
487,325,77118,1,8,0:0:0:0:
506,227,77403,1,0,0:0:0:0:
442,149,77689,6,0,P|440:101|396:3,1,150,2|0,1:2|0:0,0:0:0:0:
400,8,78261,1,8,0:0:0:0:
301,19,78546,1,0,0:0:0:0:
201,27,78832,2,0,L|208:127,1,100,2|0,1:2|0:0,0:0:0:0:
186,172,79261,1,0,1:0:0:0:
170,219,79403,1,8,0:0:0:0:
156,267,79546,2,0,L|170:377,1,100,0|2,0:0|0:3,0:0:0:0:
168,366,79975,5,2,1:1:0:0:
367,355,80546,2,0,L|354:255,1,100,8|0,0:0|0:0,0:0:0:0:
425,185,81118,1,2,1:2:0:0:
358,110,81403,1,0,0:0:0:0:
370,10,81689,1,8,0:0:0:0:
370,10,81832,2,0,P|310:19|256:17,1,100
227,43,82261,6,0,P|249:86|251:189,1,150,2|0,1:2|0:0,0:0:0:0:
251,185,82832,1,8,0:0:0:0:
183,258,83118,1,0,0:0:0:0:
254,327,83403,2,0,B|300:348|300:348|411:344,1,150,2|0,1:2|1:0,0:0:0:0:
433,307,83975,2,0,P|443:238|442:192,1,100,8|0,0:0|1:0,0:0:0:0:
503,128,84546,5,6,0:0:0:0:
303,107,85118,1,2,0:0:0:0:
126,201,85689,1,2,0:0:0:0:
34,160,85975,1,0,0:0:0:0:
60,63,86261,1,2,0:0:0:0:
60,63,86403,1,0,0:0:0:0:
157,87,86689,6,0,P|208:103|312:97,1,150,2|2,0:0|0:0,0:0:0:0:
376,31,87403,1,2,0:0:0:0:
376,31,87546,1,0,0:0:0:0:
445,103,87832,2,0,L|460:270,1,150,2|0,0:0|0:0,0:0:0:0:
395,329,88546,1,0,0:0:0:0:
301,292,88832,2,0,L|232:297,1,50,2|0,0:0|0:0,0:0:0:0:
204,275,89118,6,0,P|232:222|232:174,1,100,6|2,1:2|0:3,0:0:0:0:
207,140,89546,1,0,1:0:0:0:
296,94,89832,1,0,1:3:0:0:
296,94,89975,2,0,L|363:91,1,50,10|8,0:3|0:3,0:0:0:0:
396,90,90261,6,0,P|424:143|424:191,1,100,2|2,1:2|1:3,0:0:0:0:
451,224,90689,1,0,1:0:0:0:
385,300,90975,1,0,0:0:0:0:
385,300,91118,2,0,L|318:303,1,50,2|0,0:3|1:0,0:0:0:0:
292,328,91403,5,4,1:0:0:0:
146,190,91975,1,4,1:0:0:0:
331,115,92546,1,4,1:0:0:0:
407,50,92832,1,4,1:0:0:0:
472,126,93118,1,4,1:0:0:0:
396,191,93403,1,4,1:0:0:0:
361,285,93689,6,0,L|449:300,2,75,6|2|2,1:2|0:0|0:0,0:0:0:0:
316,307,94260,5,4,1:2:0:0:
230,336,94475,1,6,1:2:0:0:
146,358,94689,1,4,1:2:0:0:
146,358,94832,6,0,L|58:373,2,75,6|2|2,1:2|0:0|0:0,0:0:0:0:
145,307,95403,2,0,P|163:234|154:160,1,150,6|6,1:2|1:2,0:0:0:0:
158,110,95975,6,0,L|47:121,1,100,4|4,1:3|1:0,0:0:0:0:
36,164,96403,1,0,0:0:0:0:
16,209,96546,2,0,L|25:308,1,100,0|8,1:0|0:0,0:0:0:0:
95,380,97118,5,2,1:2:0:0:
194,372,97403,1,8,0:0:0:0:
274,312,97689,1,0,1:0:0:0:
323,307,97832,1,0,1:0:0:0:
372,301,97975,1,8,0:0:0:0:
472,301,98261,5,6,1:2:0:0:
466,150,98690,1,6,1:2:0:0:
244,36,99403,5,6,1:2:0:0:
93,42,99832,1,6,1:2:0:0:
86,292,100547,5,6,1:2:0:0:
137,293,100690,1,0,0:0:0:0:
185,293,100833,1,8,0:0:0:0:
280,263,101118,1,6,1:2:0:0:
331,264,101261,1,0,1:0:0:0:
379,264,101404,1,8,0:0:0:0:
470,304,101690,2,0,L|481:188,1,100,6|6,1:2|1:2,0:0:0:0:
493,105,102261,1,6,1:2:0:0:
512,6,102547,1,0,1:0:0:0:
415,34,102833,6,0,P|358:46|299:52,1,100,4|8,1:0|0:0,0:0:0:0:
262,135,103404,2,0,P|212:128|163:118,1,100,2|8,1:2|0:0,0:0:0:0:
65,94,103976,6,0,P|53:151|47:210,1,100,2|8,1:2|0:0,0:0:0:0:
110,272,104547,2,0,P|159:283|209:289,1,100,2|8,1:2|0:0,0:0:0:0:
298,244,105119,6,0,L|378:256,2,75,2|2|2,1:2|0:0|0:0,0:0:0:0:
265,206,105689,1,0,1:0:0:0:
199,132,105976,2,0,L|150:126,1,50,8|0,0:0|0:0,0:0:0:0:
104,148,106261,6,0,P|105:197|106:247,1,100,2|8,1:2|1:2,0:0:0:0:
13,283,106833,1,0,1:0:0:0:
16,333,106976,1,0,1:0:0:0:
24,383,107119,1,8,0:0:0:0:
123,372,107404,5,6,1:2:0:0:
272,354,107833,1,6,1:2:0:0:
343,114,108546,5,6,1:2:0:0:
492,96,108975,1,6,1:2:0:0:
249,32,109690,5,6,1:2:0:0:
149,20,109976,1,0,1:0:0:0:
54,50,110261,1,2,1:2:0:0:
8,138,110547,1,8,0:0:0:0:
67,217,110832,6,0,L|64:275,1,50,6|0,1:2|1:0,0:0:0:0:
87,311,111118,2,0,L|151:315,1,50,4|0,1:2|1:0,0:0:0:0:
186,305,111403,2,0,L|183:247,1,50,4|0,1:2|1:0,0:0:0:0:
206,211,111689,2,0,L|270:207,1,50,6|0,1:2|1:0,0:0:0:0:
306,210,111976,5,4,1:0:0:0:
