osu file format v14

[General]
AudioFilename: audio.mp3
AudioLeadIn: 0
PreviewTime: 38546
Countdown: 0
SampleSet: Soft
StackLeniency: 0.7
Mode: 0
LetterboxInBreaks: 0
WidescreenStoryboard: 1

[Editor]
DistanceSpacing: 1.6
BeatDivisor: 4
GridSize: 4
TimelineZoom: 2.4

[Metadata]
Title:LvC3
TitleUnicode:LvC3
Artist:Rohi
ArtistUnicode:ろひ
Creator:VINXIS
Version:Chaos
Source:osu!
Tags:RLC captin1 piano instrumental electronic complextro edm short featured artist fa mappers guild mapper's mappers'
BeatmapID:2560355
BeatmapSetID:1231655

[Difficulty]
HPDrainRate:5
CircleSize:4
OverallDifficulty:9.4
ApproachRate:9
SliderMultiplier:1.4
SliderTickRate:1

[Events]
//Background and Video events
0,0,"68883606_p0_waifu2x_art_scale_tta_1.jpg",0,0
//Break Periods
2,57318,61089
2,62174,64518
//Storyboard Layer 0 (Background)
//Storyboard Layer 1 (Fail)
//Storyboard Layer 2 (Pass)
//Storyboard Layer 3 (Foreground)
//Storyboard Layer 4 (Overlay)
//Storyboard Sound Samples

[TimingPoints]
2261,285.714285714286,4,2,1,70,1,0
10261,-133.333333333333,4,2,1,70,0,0
10832,-66.6666666666667,4,2,1,70,0,0
11403,-80,4,2,1,100,0,0
18261,-66.6666666666667,4,2,1,90,0,0
20546,-200,4,2,1,70,0,0
20832,-57.1428571428571,4,2,1,90,0,0
38832,-66.6666666666667,4,2,1,90,0,0
39975,-57.1428571428571,4,2,1,90,0,0
61689,-400,4,2,1,60,0,0
66261,-100,4,2,1,80,0,0
74261,-100,4,2,1,60,0,0
75403,-66.6666666666667,4,2,2,90,0,0
76546,-57.1428571428571,4,2,1,90,0,0
77689,-66.6666666666667,4,2,1,90,0,0
78832,-57.1428571428571,4,2,1,90,0,0
79975,-66.6666666666667,4,2,2,90,0,0
81118,-57.1428571428571,4,2,1,90,0,0
82261,-66.6666666666667,4,2,1,90,0,0
83403,-57.1428571428571,4,2,1,90,0,0
84546,-100,4,2,1,70,0,0
89118,-83.3333333333333,4,2,1,90,0,0
91403,-71.4285714285714,4,2,1,90,0,0
95403,-57.1428571428571,4,2,1,90,0,0
95975,-400,4,2,1,60,0,0
96261,-57.1428571428571,4,2,1,90,0,0

[Colours]
Combo1 : 17,254,176
Combo2 : 173,255,95
Combo3 : 88,194,255
Combo4 : 255,225,55

[HitObjects]
56,384,2261,6,0,P|122:359|208:368,1,140,2|0,0:0|0:0,0:0:0:0:
174,241,2689,2,0,P|108:266|22:257,1,140,2|0,0:0|0:0,0:0:0:0:
39,262,3118,1,0,0:0:0:0:
340,2,3403,6,0,P|406:27|492:18,1,140,2|0,0:0|0:0,0:0:0:0:
458,145,3832,2,0,P|392:120|306:129,1,140,2|0,0:0|0:0,0:0:0:0:
323,123,4260,1,0,0:0:0:0:
338,334,4546,5,2,0:0:0:0:
91,191,4975,1,2,0:0:0:0:
338,49,5403,1,2,0:0:0:0:
338,49,5975,6,0,P|345:103|343:144,1,70,2|0,0:0|0:0,0:0:0:0:
436,196,6261,2,0,P|429:142|431:101,1,70,2|0,0:0|0:0,0:0:0:0:
507,95,6546,1,2,0:0:0:0:
144,123,6832,6,0,P|125:172|130:271,1,140,2|0,0:0|0:0,0:0:0:0:
11,245,7261,2,0,P|30:196|25:97,1,140,2|0,0:0|0:0,0:0:0:0:
28,109,7689,1,0,0:0:0:0:
368,261,7975,6,0,P|387:212|382:113,1,140,2|0,0:0|0:0,0:0:0:0:
501,139,8404,2,0,P|482:188|487:287,1,140,2|0,0:0|0:0,0:0:0:0:
483,274,8832,1,0,0:0:0:0:
175,332,9118,5,2,0:0:0:0:
175,52,9546,1,2,0:0:0:0:
419,192,9975,1,2,0:0:0:0:
256,192,10261,6,2,L|64:192,1,183.750007009506,2|0,0:0|0:0,0:0:0:0:
51,199,10832,6,2,B|57:268|57:268|73:287|73:287|81:380,1,157.500006008148,2|0,0:1|0:1,0:1:0:0:
0,370,11118,6,0,B|-26:367|-26:367|6:358,1,52.5000020027161,2|0,0:0|0:0,0:0:0:0:
162,361,11261,2,0,B|188:358|188:358|156:349,1,52.5000020027161
78,350,11403,5,4,1:2:0:0:
264,319,11546,1,0,0:0:0:0:
264,319,11618,1,0,0:0:0:0:
264,319,11689,1,2,0:3:0:0:
446,283,11832,2,0,P|436:189|458:101,1,175,2|0,0:0|1:0,0:0:0:0:
352,15,12261,2,0,L|361:110,1,87.5,2|0,0:3|0:0,0:0:0:0:
306,170,12546,5,2,1:2:0:0:
459,26,12689,1,0,0:0:0:0:
459,26,12761,1,0,0:0:0:0:
459,26,12832,1,2,0:3:0:0:
262,91,12975,2,0,P|179:79|147:2,1,175,2|0,0:0|1:0,0:0:0:0:
147,1,13403,1,2,0:3:0:0:
165,172,13546,1,0,1:0:0:0:
0,28,13689,5,2,1:2:0:0:
18,198,13832,1,0,0:0:0:0:
18,198,13903,1,0,0:0:0:0:
18,198,13975,1,2,0:3:0:0:
36,368,14118,2,0,P|80:316|95:201,1,175,2|0,0:0|1:0,0:0:0:0:
159,84,14546,2,0,L|165:172,1,87.5,2|0,0:3|0:0,0:0:0:0:
231,222,14832,5,2,1:2:0:0:
22,200,14975,1,0,0:0:0:0:
22,200,15046,1,0,0:0:0:0:
22,200,15118,2,0,P|4:148|0:103,1,87.5,2|0,0:3|0:0,0:0:0:0:
182,289,15403,2,0,P|164:341|160:386,1,87.5,0|0,0:0|1:0,0:0:0:0:
342,200,15689,2,0,P|324:148|320:103,1,87.5,2|0,0:3|1:0,0:0:0:0:
502,289,15975,5,2,1:2:0:0:
306,276,16118,1,0,0:0:0:0:
306,276,16189,1,0,0:0:0:0:
306,276,16261,1,2,0:3:0:0:
96,249,16403,2,0,P|111:179|97:74,1,175,2|0,0:0|1:0,0:0:0:0:
204,0,16832,2,0,L|189:86,1,87.5,2|0,0:3|0:0,0:0:0:0:
216,172,17118,5,2,1:2:0:0:
34,143,17261,1,0,0:0:0:0:
34,143,17332,1,0,0:0:0:0:
34,143,17403,1,2,0:3:0:0:
293,116,17546,2,0,P|393:110|418:44,1,175,2|0,0:0|1:0,0:0:0:0:
426,57,17975,1,2,0:3:0:0:
458,230,18118,1,0,1:0:0:0:
426,57,18261,6,0,L|499:41,2,70.0000026702882,0|0|0,1:0|1:0|1:0,1:0:0:0:
323,20,18546,2,0,L|250:4,2,70.0000026702882,2|0|0,1:3|1:0|1:0,1:0:0:0:
344,111,18832,1,0,1:0:0:0:
135,69,18975,2,0,L|141:34,2,26.2500010013581,0|0|0,1:0|1:0|1:0,1:0:0:0:
152,98,19118,2,0,L|256:91,1,105.000004005432,2|0,1:3|1:0,0:0:0:0:
438,151,19403,5,0,1:0:0:0:
323,20,19546,1,0,1:0:0:0:
227,177,19689,1,2,1:3:0:0:
227,177,19761,2,0,P|241:250|235:296,1,105.000004005432,0|0,1:0|1:0,0:0:0:0:
238,280,19975,1,0,1:0:0:0:
361,336,20118,1,0,1:0:0:0:
123,300,20261,1,2,1:3:0:0:
365,236,20403,1,0,1:0:0:0:
123,300,20546,6,0,L|67:310,1,52.5,2|0,0:0|0:0,0:0:0:0:
123,300,20832,6,0,P|109:227|115:174,1,122.500001168251,4|0,1:0|1:0,0:0:0:0:
157,92,21118,1,0,1:0:0:0:
157,92,21261,1,0,1:0:0:0:
31,0,21403,2,0,L|37:122,1,122.500001168251,8|0,0:2|0:0,0:0:0:0:
220,170,21689,6,0,P|290:178|406:157,1,183.750001752377,2|0,1:2|0:0,0:0:0:0:
400,158,21975,1,8,0:0:0:0:
390,53,22118,1,0,1:0:0:0:
478,218,22261,6,0,P|470:278|472:339,1,122.500001168251,2|0,0:0|1:0,0:0:0:0:
144,365,22546,2,0,P|151:304|149:243,1,122.500001168251,8|0,0:0|1:0,0:0:0:0:
149,243,22761,1,0,0:0:0:0:
149,243,22832,5,2,1:2:0:0:
394,155,22975,1,0,1:0:0:0:
394,155,23118,2,0,L|383:25,1,122.500001168251,8|0,0:0|1:0,0:0:0:0:
383,32,23332,1,0,0:0:0:0:
383,32,23403,5,0,0:0:0:0:
475,0,23546,1,0,1:0:0:0:
278,47,23689,2,0,L|289:177,1,122.500001168251,8|0,0:0|0:0,0:0:0:0:
144,365,23975,6,0,P|151:304|149:243,1,122.500001168251,2|0,1:2|1:0,0:0:0:0:
385,189,24261,2,0,P|377:249|379:310,1,122.500001168251,8|0,0:0|1:0,0:0:0:0:
256,317,24546,6,0,P|263:256|261:195,1,122.500001168251,2|0,0:0|1:0,0:0:0:0:
497,141,24832,2,0,P|489:201|491:262,1,122.500001168251,8|0,0:0|1:0,0:0:0:0:
491,262,25046,1,0,0:0:0:0:
491,262,25118,6,0,L|496:344,3,61.2500005841255,2|0|0|0,1:2|0:0|0:0|0:0,0:0:0:0:
384,373,25403,2,0,L|378:290,1,61.2500005841255,8|0,0:0|0:0,0:0:0:0:
256,317,25546,2,0,L|261:399,1,61.2500005841255,0|0,1:0|0:0,0:0:0:0:
144,365,25689,6,0,L|63:360,3,61.2500005841255,2|0|0|0,0:0|0:0|1:0|0:0,0:0:0:0:
41,243,25975,2,0,L|122:248,1,61.2500005841255,8|0,0:0|0:0,0:0:0:0:
116,123,26118,2,0,L|35:118,1,61.2500005841255,0|0,1:0|0:0,0:0:0:0:
53,0,26261,6,0,P|136:10|181:7,1,122.500001168251,2|0,1:2|1:0,0:0:0:0:
411,87,26546,2,0,P|328:77|283:80,1,122.500001168251,8|0,0:0|1:0,0:0:0:0:
33,214,26832,6,0,P|116:224|161:221,1,122.500001168251,2|0,0:0|1:0,0:0:0:0:
391,301,27118,2,0,P|308:291|263:294,1,122.500001168251,8|0,0:0|1:0,0:0:0:0:
507,168,27403,6,0,L|512:230,3,61.2500005841255,2|0|0|0,1:2|0:0|0:0|0:0,0:0:0:0:
355,195,27689,2,0,L|428:190,1,61.2500005841255,8|0,0:0|0:0,0:0:0:0:
411,87,27832,2,0,L|338:92,1,61.2500005841255,0|0,1:0|0:0,0:0:0:0:
232,143,27975,6,0,L|236:204,3,61.2500005841255,2|0|0|0,0:0|0:0|1:0|0:0,0:0:0:0:
79,169,28261,2,0,L|152:164,1,61.2500005841255,8|0,0:0|0:0,0:0:0:0:
135,61,28404,2,0,L|62:66,1,61.2500005841255
3,113,28546,5,0,1:0:0:0:
244,59,28689,1,0,1:0:0:0:
297,301,28832,1,8,0:0:0:0:
62,354,28975,1,0,1:0:0:0:
62,354,29046,1,0,0:0:0:0:
62,354,29118,6,0,P|34:290|36:222,1,122.500001168251,2|0,0:0|1:0,0:0:0:0:
391,176,29403,1,8,0:0:0:0:
391,176,29546,1,0,1:0:0:0:
201,215,29689,5,6,1:2:0:0:
391,176,29832,2,0,L|515:187,1,122.500001168251,0|8,0:0|0:0,0:0:0:0:
512,186,30118,1,0,1:0:0:0:
507,76,30261,5,2,0:0:0:0:
502,297,30403,1,0,1:0:0:0:
502,297,30546,2,0,L|378:286,1,122.500001168251,8|0,0:0|1:0,0:0:0:0:
217,352,30832,6,0,P|158:334|97:329,1,122.500001168251,2|0,1:2|0:0,0:0:0:0:
0,123,31118,2,0,P|58:140|119:145,1,122.500001168251,8|0,0:0|1:0,0:0:0:0:
330,229,31403,6,0,P|271:211|210:206,1,122.500001168251,2|0,0:0|1:0,0:0:0:0:
113,0,31689,2,0,P|171:17|232:22,1,122.500001168251,8|0,0:0|1:0,0:0:0:0:
443,93,31975,6,0,L|299:98,1,122.500001168251,2|0,1:2|1:0,0:0:0:0:
69,291,32261,2,0,L|213:286,1,122.500001168251,8|0,0:0|1:0,0:0:0:0:
355,379,32546,6,0,L|350:235,1,122.500001168251,2|0,0:0|1:0,0:0:0:0:
157,5,32832,2,0,L|162:149,1,122.500001168251,8|0,0:0|0:0,0:0:0:0:
256,192,33118,5,2,1:2:0:0:
48,194,33261,1,0,1:0:0:0:
48,194,33403,2,0,P|58:131|50:69,1,122.500001168251,8|0,0:0|1:0,0:0:0:0:
320,0,33689,6,0,P|310:63|318:125,1,122.500001168251,2|0,0:0|1:0,0:0:0:0:
478,155,33975,1,8,0:0:0:0:
485,7,34118,1,0,1:0:0:0:
256,192,34261,5,6,1:2:0:0:
485,265,34403,2,0,L|355:275,1,122.500001168251,0|8,0:0|0:0,0:0:0:0:
362,274,34689,1,0,1:0:0:0:
393,147,34832,5,2,0:0:0:0:
346,375,34975,1,0,1:0:0:0:
346,375,35118,2,0,L|469:366,1,122.500001168251,8|0,0:0|0:0,0:0:0:0:
162,370,35403,6,0,P|71:361|41:344,1,122.500001168251,2|0,1:2|1:0,0:0:0:0:
121,141,35689,2,0,P|212:150|242:167,1,122.500001168251,8|0,0:0|1:0,0:0:0:0:
155,252,35975,6,0,P|64:243|34:226,1,122.500001168251,2|0,0:0|1:0,0:0:0:0:
114,23,36261,2,0,P|205:32|235:49,1,122.500001168251,8|0,0:0|1:0,0:0:0:0:
512,102,36546,6,0,P|392:92|307:1,1,245.000002336502,2|8,1:2|0:0,0:0:0:0:
307,255,36975,2,0,P|307:207|292:122,1,122.500001168251,0|0,1:0|0:0,0:0:0:0:
231,46,37261,5,0,1:0:0:0:
382,313,37403,2,0,L|448:317,3,61.2500005841255,8|0|0|0,0:0|0:0|0:0|0:0,0:0:0:0:
295,360,37689,6,0,L|229:364,1,61.2500005841255,2|0,1:2|0:0,0:0:0:0:
159,311,37832,2,0,L|98:315,1,61.2500005841255,0|0,1:0|0:0,0:0:0:0:
24,263,37975,1,8,3:2:0:0:
25,255,38046,1,0,3:0:0:0:
26,247,38117,1,0,1:0:0:0:
27,240,38189,1,0,3:0:0:0:
28,232,38260,1,0,3:0:0:0:
29,225,38332,1,0,3:0:0:0:
30,217,38403,1,0,1:0:0:0:
31,209,38475,1,0,3:0:0:0:
32,202,38546,2,0,L|45:67,1,122.500001168251,8|0,0:0|1:0,0:0:0:0:
128,7,38832,6,0,B|181:21|181:21|170:131,2,157.500006008148,2|2|2,1:2|0:0|0:0,0:0:0:0:
43,80,39403,5,4,1:2:0:0:
475,189,39618,1,6,1:2:0:0:
32,202,39832,1,4,1:2:0:0:
264,169,39975,6,0,P|271:237|255:374,1,183.750001752377,4|0,1:0|0:0,0:0:0:0:
260,351,40261,2,0,L|391:349,1,122.500001168251,8|0,0:0|0:0,0:0:0:0:
137,315,40546,6,0,L|146:249,3,61.2500005841255,2|0|0|0,1:2|0:0|0:0|0:0,0:0:0:0:
36,241,40832,1,8,0:0:0:0:
42,191,40903,1,0,0:0:0:0:
39,139,40974,1,0,1:0:0:0:
25,90,41046,1,0,0:0:0:0:
1,47,41118,6,0,P|65:60|129:50,1,122.500001168251,2|0,1:2|0:0,0:0:0:0:
140,80,41332,2,0,P|203:57|253:18,1,122.500001168251,2|0,0:0|0:0,0:0:0:0:
276,41,41546,2,0,P|342:41|403:63,1,122.500001168251,2|0,0:0|1:0,0:0:0:0:
419,37,41761,2,0,P|475:70|517:119,1,122.500001168251,2|0,0:0|0:0,0:0:0:0:
419,160,41975,1,8,0:0:0:0:
450,193,42046,1,0,0:0:0:0:
472,233,42118,1,0,0:0:0:0:
484,278,42189,1,0,0:0:0:0:
486,324,42261,6,0,L|478:392,3,61.2500005841255,2|0|0|0,1:2|0:0|0:0|0:0,0:0:0:0:
384,361,42546,2,0,L|297:347,1,61.2500005841255,8|0,0:0|0:0,0:0:0:0:
338,267,42689,2,0,L|398:276,1,61.2500005841255
248,383,42832,1,0,1:0:0:0:
283,194,42975,1,0,1:0:0:0:
283,194,43046,1,0,1:0:0:0:
283,194,43118,1,8,0:0:0:0:
117,253,43261,1,0,1:0:0:0:
219,282,43403,5,6,1:2:0:0:
175,167,43546,1,0,0:0:0:0:
179,136,43617,1,0,0:0:0:0:
183,106,43688,1,0,0:0:0:0:
117,253,43832,5,6,1:2:0:0:
73,138,43975,1,0,0:0:0:0:
77,107,44046,1,0,0:0:0:0:
81,77,44117,1,0,0:0:0:0:
15,224,44261,5,6,1:2:0:0:
15,224,44403,1,0,1:0:0:0:
279,99,44546,5,6,1:2:0:0:
321,81,44617,1,0,0:0:0:0:
365,70,44688,1,0,0:0:0:0:
411,66,44760,1,0,0:0:0:0:
457,69,44831,1,8,0:0:0:0:
476,278,44975,5,6,1:2:0:0:
433,295,45046,1,0,0:0:0:0:
389,306,45117,1,0,0:0:0:0:
343,310,45189,1,0,0:0:0:0:
297,307,45260,1,0,1:0:0:0:
283,202,45403,5,8,0:0:0:0:
470,174,45546,1,0,1:0:0:0:
178,264,45689,6,0,P|104:274|29:279,1,122.500001168251,6|0,1:2|0:0,0:0:0:0:
25,251,45903,1,0,0:0:0:0:
7,214,45974,1,8,0:0:0:0:
1,174,46045,1,0,0:0:0:0:
7,134,46117,1,0,1:0:0:0:
279,27,46261,5,6,1:2:0:0:
149,17,46403,1,0,1:0:0:0:
118,43,46475,1,0,0:0:0:0:
100,80,46546,1,8,1:2:0:0:
94,120,46617,1,0,0:0:0:0:
100,160,46689,1,0,1:0:0:0:
117,197,46761,1,0,0:0:0:0:
149,221,46832,5,6,1:2:0:0:
211,103,46975,2,0,L|216:168,1,61.2500005841255,0|0,1:0|1:0,0:0:0:0:
285,223,47118,5,6,1:2:0:0:
347,105,47261,2,0,L|352:170,1,61.2500005841255,0|0,1:0|1:0,0:0:0:0:
421,225,47403,5,6,1:2:0:0:
483,107,47546,2,0,L|488:172,1,61.2500005841255,0|0,1:0|1:0,0:0:0:0:
481,297,47689,5,0,1:0:0:0:
458,336,47760,1,0,1:0:0:0:
423,365,47831,1,0,1:0:0:0:
380,380,47903,1,0,1:0:0:0:
338,383,47975,6,0,P|251:380|136:374,1,183.750001752377,4|0,1:0|0:0,0:0:0:0:
154,375,48261,2,0,P|150:293|156:240,1,122.500001168251,8|0,0:0|0:0,0:0:0:0:
71,101,48546,6,2,P|158:104|273:110,1,183.750001752377,2|0,1:2|0:0,1:2:0:0:
254,108,48832,2,0,P|258:190|252:243,1,122.500001168251,8|0,0:0|0:0,0:0:0:0:
366,265,49118,6,0,P|352:194|356:81,1,183.750001752377,2|0,1:2|0:0,0:0:0:0:
359,87,49403,2,0,P|432:79|482:77,1,122.500001168251,8|0,0:0|0:0,0:0:0:0:
274,246,49689,5,2,1:2:0:0:
229,256,49760,1,0,0:0:0:0:
184,262,49831,1,0,0:0:0:0:
138,266,49903,1,0,0:0:0:0:
92,266,49975,1,8,0:0:0:0:
74,224,50046,1,0,0:0:0:0:
64,179,50117,1,0,1:0:0:0:
63,133,50189,1,0,0:0:0:0:
72,88,50261,6,0,P|91:53|168:18,1,122.500001168251,2|0,1:2|0:0,0:0:0:0:
189,35,50475,2,0,P|222:14|306:22,1,122.500001168251,2|0,0:0|0:0,0:0:0:0:
317,47,50689,2,0,P|356:46|425:95,1,122.500001168251,2|0,0:0|1:0,0:0:0:0:
421,121,50903,2,0,P|455:140|490:217,1,122.500001168251,2|0,0:0|0:0,0:0:0:0:
395,264,51118,1,8,0:0:0:0:
377,306,51189,1,0,0:0:0:0:
347,340,51260,1,0,0:0:0:0:
307,362,51332,1,0,0:0:0:0:
261,369,51403,6,0,L|193:365,3,61.2500005841255,2|0|0|0,1:2|0:0|0:0|0:0,0:0:0:0:
190,279,51689,2,0,L|190:204,1,61.2500005841255,8|0,0:0|0:0,0:0:0:0:
278,217,51832,2,0,L|277:291,1,61.2500005841255
121,172,51975,1,0,1:0:0:0:
346,171,52118,1,0,1:0:0:0:
346,171,52189,1,0,1:0:0:0:
346,171,52261,1,8,0:0:0:0:
225,0,52403,1,0,1:0:0:0:
235,114,52546,5,6,1:2:0:0:
359,76,52689,1,0,0:0:0:0:
357,45,52760,1,0,0:0:0:0:
355,14,52831,1,0,0:0:0:0:
346,171,52975,5,6,1:2:0:0:
470,133,53118,1,0,0:0:0:0:
468,102,53189,1,0,0:0:0:0:
466,71,53260,1,0,0:0:0:0:
457,228,53403,5,8,0:0:0:0:
457,228,53546,1,0,1:0:0:0:
235,114,53689,5,6,1:2:0:0:
192,97,53760,1,0,0:0:0:0:
147,87,53831,1,0,0:0:0:0:
101,84,53903,1,0,0:0:0:0:
55,88,53974,1,8,0:0:0:0:
21,278,54118,5,6,1:2:0:0:
63,294,54189,1,0,0:0:0:0:
108,304,54260,1,0,0:0:0:0:
154,307,54332,1,0,0:0:0:0:
200,303,54403,1,0,1:0:0:0:
143,200,54546,5,8,0:0:0:0:
143,200,54618,1,0,0:0:0:0:
143,200,54689,1,0,0:0:0:0:
143,200,54761,1,0,0:0:0:0:
143,200,54832,6,0,L|266:211,2,81.6666674455007,6|0|0,1:2|1:0|1:0,0:0:0:0:
396,223,55118,2,0,L|273:212,2,81.6666674455007,6|0|0,1:2|1:0|1:0,0:0:0:0:
286,76,55403,6,0,L|278:149,1,61.2500005841255,2|0,1:2|1:0,0:0:0:0:
387,121,55546,2,0,L|395:48,1,61.2500005841255,0|0,1:0|1:0,0:0:0:0:
195,120,55689,1,8,0:0:0:0:
484,89,55832,1,0,1:0:0:0:
502,377,55975,5,6,1:2:0:0:
209,384,56118,1,0,1:0:0:0:
209,384,56189,1,0,1:0:0:0:
209,384,56261,1,0,1:0:0:0:
355,324,56403,1,0,1:0:0:0:
62,331,56546,5,6,1:2:0:0:
432,192,56689,1,0,1:0:0:0:
66,246,56832,5,6,1:2:0:0:
436,281,56975,1,0,1:0:0:0:
249,258,57118,5,4,1:0:0:0:
249,258,61689,6,0,L|249:222,1,35,2|0,0:0|0:0,0:0:0:0:
256,192,65118,12,0,66118,0:0:0:0:
317,83,66261,6,0,P|315:106|316:162,1,70,2|0,0:0|0:0,0:0:0:0:
195,83,66546,2,0,P|197:106|196:162,1,70,2|0,0:0|0:0,0:0:0:0:
453,104,66832,2,0,P|439:122|412:171,1,70,2|0,0:0|0:0,0:0:0:0:
59,104,67118,2,0,P|72:122|99:171,1,70,2|0,0:0|0:0,0:0:0:0:
307,232,67403,6,0,L|389:241,1,70,2|0,0:0|0:0,0:0:0:0:
205,232,67689,2,0,L|123:241,1,70,2|0,0:0|0:0,0:0:0:0:
316,326,67975,1,2,0:0:0:0:
316,326,68118,1,0,0:0:0:0:
196,326,68261,1,2,0:0:0:0:
196,326,68404,1,0,0:0:0:0:
316,326,68546,5,2,0:0:0:0:
196,326,68689,1,0,0:0:0:0:
307,232,68832,1,2,0:0:0:0:
205,232,68975,1,0,0:0:0:0:
298,138,69118,5,2,0:0:0:0:
214,138,69261,1,0,0:0:0:0:
289,44,69403,1,2,0:0:0:0:
223,44,69546,1,0,0:0:0:0:
370,86,69689,5,2,0:0:0:0:
149,93,69832,1,0,0:0:0:0:
149,93,69903,1,0,0:0:0:0:
149,93,69975,1,2,0:0:0:0:
95,4,70118,1,0,0:0:0:0:
41,105,70261,2,0,L|53:180,1,70,2|0,0:0|0:0,0:0:0:0:
85,384,70546,2,0,L|97:309,1,70,2|0,0:0|0:0,0:0:0:0:
112,233,70832,5,2,0:0:0:0:
12,262,70975,1,0,0:0:0:0:
234,238,71118,5,2,0:0:0:0:
134,209,71261,1,0,0:0:0:0:
356,233,71403,5,2,0:0:0:0:
256,262,71546,1,0,0:0:0:0:
478,238,71689,5,2,0:0:0:0:
378,209,71832,1,0,0:0:0:0:
362,106,71975,6,0,L|357:36,1,70,2|0,0:0|0:0,0:0:0:0:
357,36,72189,1,0,0:0:0:0:
357,36,72261,1,2,0:0:0:0:
265,16,72403,1,0,0:0:0:0:
207,103,72546,1,2,0:0:0:0:
268,188,72689,1,0,0:0:0:0:
231,286,72832,1,2,0:0:0:0:
126,293,72975,1,0,0:0:0:0:
61,209,73118,5,2,0:0:0:0:
103,113,73261,1,0,0:0:0:0:
231,286,73403,1,2,0:0:0:0:
126,293,73546,1,0,0:0:0:0:
207,103,73689,1,2,0:0:0:0:
268,188,73832,1,0,0:0:0:0:
166,196,73975,5,2,0:0:0:0:
166,196,74118,1,0,0:0:0:0:
309,95,74261,5,2,0:0:0:0:
338,268,74403,1,0,0:0:0:0:
338,268,74475,1,0,0:0:0:0:
338,268,74546,2,0,B|369:277|369:277|415:266,1,70,2|0,0:0|0:0,0:0:0:0:
441,171,74832,2,0,B|404:162|404:162|373:171,1,70,2|0,0:0|0:0,0:0:0:0:
373,171,75046,1,0,0:0:0:0:
373,171,75118,1,2,0:0:0:0:
473,340,75261,1,0,0:0:0:0:
39,340,75403,6,2,B|20:126|118:248|96:31,1,315.000012016297,6|0,1:0|0:0,0:1:0:0:
213,0,75975,2,0,P|197:52|196:111,1,105.000004005432,8|0,0:0|0:0,0:0:0:0:
232,331,76261,2,0,P|247:281|249:229,1,105.000004005432
266,144,76546,6,0,L|350:161,2,81.6666674455007,2|0|0,1:2|0:0|0:0,0:0:0:0:
485,202,76832,2,0,L|404:215,2,81.6666674455007
171,183,77118,2,0,L|-3:163,1,163.333334891001,8|0,0:0|0:0,0:0:0:0:
8,164,77403,1,0,0:0:0:0:
250,229,77618,1,0,0:0:0:0:
250,229,77689,6,0,P|259:162|236:83,1,140.000005340576,2|0,1:2|0:0,0:0:0:0:
347,0,77975,2,0,P|338:67|361:146,1,140.000005340576
485,202,78261,1,8,0:0:0:0:
66,170,78546,2,0,L|171:183,1,105.000004005432
511,209,78832,6,0,L|318:230,1,183.750001752377,2|0,1:2|0:0,0:0:0:0:
231,261,79118,2,0,B|219:323|219:323|259:370,1,122.500001168251,0|0,0:0|1:0,0:0:0:0:
355,136,79403,2,0,L|346:13,1,122.500001168251,8|0,0:0|0:0,0:0:0:0:
506,131,79689,2,0,L|436:140,1,61.2500005841255,2|0,1:3|0:0,0:0:0:0:
508,51,79832,2,0,L|435:57,1,61.2500005841255,2|0,0:3|0:0,0:0:0:0:
328,229,79975,6,2,P|171:218|21:264,1,315.000012016297,2|0,1:1|0:0,0:1:0:0:
32,138,80546,2,0,P|110:144|186:128,1,157.500006008148,8|0,0:0|0:0,0:0:0:0:
226,53,80832,2,0,L|231:0,1,52.5000020027161
272,129,80975,2,0,L|324:134,1,52.5000020027161
313,48,81118,6,0,L|419:-10,2,81.6666674455007,2|0|0,1:2|0:0|0:0,0:0:0:0:
415,157,81403,2,0,L|455:86,2,81.6666674455007
470,0,81689,1,8,0:0:0:0:
492,212,81832,1,0,0:0:0:0:
281,241,81975,2,0,B|268:303|268:303|290:363,1,122.500001168251,0|0,1:0|0:0,0:0:0:0:
185,246,82261,6,0,P|190:130|167:53,1,140.000005340576,2|0,1:2|0:0,0:0:0:0:
53,111,82546,2,0,P|48:227|71:304,1,140.000005340576
0,311,82832,1,8,0:0:0:0:
456,284,83118,2,0,L|351:295,1,105.000004005432
53,250,83403,6,0,B|27:190|27:190|80:33,1,183.750001752377,2|0,1:2|0:0,0:0:0:0:
162,68,83689,2,0,L|117:182,1,122.500001168251,0|0,0:0|1:0,0:0:0:0:
131,216,83903,1,0,0:0:0:0:
142,251,83975,2,0,L|93:367,1,122.500001168251,8|0,0:0|0:0,0:0:0:0:
57,47,84261,2,0,B|46:4|46:4|84:26,2,81.6666674455007,0|0|0,1:0|0:0|0:0,0:0:0:0:
85,384,84546,5,6,0:0:0:0:
504,178,85118,5,2,0:0:0:0:
121,8,85689,5,2,0:0:0:0:
271,46,85975,1,0,0:0:0:0:
420,0,86261,5,2,0:0:0:0:
420,0,86403,1,0,0:0:0:0:
488,139,86689,5,2,0:0:0:0:
131,205,87118,5,2,0:0:0:0:
371,292,87403,5,2,0:0:0:0:
371,292,87546,1,0,0:0:0:0:
420,0,87832,5,2,0:0:0:0:
420,0,88832,5,2,0:0:0:0:
374,147,88975,1,0,0:0:0:0:
393,300,89118,6,0,L|381:407,1,83.9999974365235,6|0,1:2|0:0,0:0:0:0:
463,241,89403,1,2,0:3:0:0:
281,128,89546,6,0,L|293:296,1,167.999994873047,0|0,1:0|1:3,0:3:0:0:
463,241,89975,1,10,0:3:0:0:
447,75,90118,1,8,0:3:0:0:
181,154,90261,6,0,L|80:160,2,55.9999982910157,2|0|0,1:2|0:0|0:0,0:0:0:0:
383,158,90546,2,0,L|484:164,2,55.9999982910157,2|0|0,1:3|0:0|0:0,0:0:0:0:
56,97,90832,5,2,1:2:0:0:
56,97,90975,2,0,L|47:202,1,83.9999974365235,0|2,0:0|0:3,0:0:0:0:
0,254,91261,1,0,1:0:0:0:
92,2,91403,5,4,1:0:0:0:
129,336,91546,2,0,L|122:205,1,97.9999970092774,0|8,0:0|0:0,0:0:0:0:
171,152,91832,1,0,1:0:0:0:
46,378,91975,5,4,1:0:0:0:
266,184,92118,2,0,L|260:281,1,97.9999970092774,0|8,0:0|0:0,0:0:0:0:
335,341,92403,1,0,1:0:0:0:
292,10,92546,5,4,1:0:0:0:
292,10,92689,1,0,0:0:0:0:
220,374,92832,1,4,1:0:0:0:
220,374,92975,1,0,0:0:0:0:
263,136,93118,1,4,1:0:0:0:
263,142,93189,1,0,0:0:0:0:
263,148,93260,1,0,1:0:0:0:
264,154,93332,1,0,0:0:0:0:
264,160,93403,1,4,1:0:0:0:
265,166,93475,1,0,0:0:0:0:
265,172,93546,1,0,1:0:0:0:
266,178,93617,1,0,0:0:0:0:
266,184,93689,6,0,B|273:211|273:211|317:219,2,48.9999985046387,6|0|0,1:2|0:0|0:0,0:0:0:0:
186,191,93903,2,0,B|179:218|179:218|135:226,2,48.9999985046387,2|0|0,0:0|0:0|0:0,0:0:0:0:
106,160,94118,2,0,L|46:162,1,48.9999985046387,2|0,0:0|0:0,0:0:0:0:
13,91,94261,5,4,1:2:0:0:
504,215,94476,1,6,1:2:0:0:
0,229,94690,1,4,1:2:0:0:
72,290,94832,6,0,B|71:320|71:320|42:339,2,48.9999985046387,6|0|0,1:2|0:0|0:0,0:0:0:0:
163,293,95046,2,0,B|164:323|164:323|193:342,2,48.9999985046387,2|0|0,0:0|0:0|0:0,0:0:0:0:
246,284,95261,2,0,L|312:293,1,48.9999985046387,2|0,0:0|0:0,0:0:0:0:
394,291,95403,5,6,1:2:0:0:
398,259,95475,1,0,0:0:0:0:
402,227,95546,1,0,0:0:0:0:
406,195,95618,1,6,1:2:0:0:
397,164,95689,1,0,0:0:0:0:
393,132,95760,1,0,0:0:0:0:
388,99,95832,2,0,L|395:29,1,61.2500005841255,6|0,1:2|0:0,0:0:0:0:
319,0,95975,6,0,L|315:32,1,26.25,4|0,1:3|0:0,0:0:0:0:
319,0,96261,6,0,P|250:3|192:27,1,122.500001168251,4|0,1:0|0:0,0:0:0:0:
178,47,96475,1,0,0:0:0:0:
155,71,96546,2,0,P|123:132|114:194,1,122.500001168251,0|0,1:0|0:0,0:0:0:0:
125,216,96761,1,0,0:0:0:0:
134,248,96832,2,0,P|170:306|220:345,1,122.500001168251,8|0,0:0|0:0,0:0:0:0:
243,353,97046,1,0,0:0:0:0:
275,365,97118,6,0,L|344:362,1,61.2500005841255,2|0,1:2|0:0,0:0:0:0:
338,248,97261,2,0,L|269:251,1,61.2500005841255
256,117,97403,6,0,L|325:114,1,61.2500005841255,8|0,0:0|0:0,0:0:0:0:
319,0,97546,2,0,L|250:3,1,61.2500005841255
88,11,97689,5,0,1:0:0:0:
206,197,97832,1,0,1:0:0:0:
206,197,97903,1,0,1:0:0:0:
206,197,97975,1,8,0:0:0:0:
410,138,98118,1,0,1:0:0:0:
98,47,98261,5,6,1:2:0:0:
182,167,98403,1,0,0:0:0:0:
177,136,98474,1,0,0:0:0:0:
172,106,98545,1,0,0:0:0:0:
199,0,98689,5,6,1:2:0:0:
283,120,98831,1,0,0:0:0:0:
278,89,98902,1,0,0:0:0:0:
273,59,98975,1,0,0:0:0:0:
102,51,99118,5,0,1:0:0:0:
102,51,99261,1,0,1:0:0:0:
320,219,99403,5,6,1:2:0:0:
365,223,99474,1,0,0:0:0:0:
411,224,99545,1,0,0:0:0:0:
457,221,99617,1,0,0:0:0:0:
502,214,99688,1,8,0:0:0:0:
512,374,99832,5,6,1:2:0:0:
466,369,99903,1,0,0:0:0:0:
420,368,99974,1,0,0:0:0:0:
374,371,100046,1,0,0:0:0:0:
329,378,100117,1,0,1:0:0:0:
248,295,100261,5,8,0:0:0:0:
283,120,100403,1,0,1:0:0:0:
163,384,100546,6,0,P|85:381|22:363,1,122.500001168251,6|0,1:2|0:0,0:0:0:0:
16,337,100761,1,0,0:0:0:0:
5,297,100832,1,8,0:0:0:0:
12,256,100903,1,0,0:0:0:0:
33,220,100975,1,0,1:0:0:0:
324,201,101118,5,6,1:2:0:0:
202,149,101261,1,0,1:0:0:0:
175,181,101332,1,0,0:0:0:0:
158,218,101404,1,8,0:0:0:0:
152,258,101475,1,0,0:0:0:0:
155,298,101547,1,0,1:0:0:0:
170,336,101618,1,0,0:0:0:0:
194,370,101689,5,6,1:2:0:0:
336,306,101832,2,0,L|274:309,1,61.2500005841255,0|0,1:0|1:0,0:0:0:0:
241,229,101975,5,6,1:2:0:0:
383,165,102118,2,0,L|321:168,1,61.2500005841255,0|0,1:0|1:0,0:0:0:0:
288,88,102261,5,6,1:2:0:0:
430,24,102404,2,0,L|368:27,1,61.2500005841255,0|0,1:0|1:0,0:0:0:0:
214,19,102546,5,0,1:0:0:0:
168,14,102617,1,0,1:0:0:0:
122,17,102688,1,0,1:0:0:0:
77,27,102760,1,0,1:0:0:0:
38,47,102832,6,0,P|38:137|16:236,1,183.750001752377,4|0,1:0|0:0,0:0:0:0:
19,228,103118,2,0,L|157:224,1,122.500001168251,8|0,0:0|0:0,0:0:0:0:
331,310,103403,6,0,P|330:219|352:120,1,183.750001752377,2|0,1:2|0:0,0:0:0:0:
349,128,103689,2,0,L|211:132,1,122.500001168251,8|0,0:0|0:0,0:0:0:0:
317,13,103975,6,0,L|507:10,1,183.750001752377,2|0,1:2|0:0,0:0:0:0:
500,10,104261,2,0,P|502:84|495:137,1,122.500001168251,8|0,0:0|0:0,0:0:0:0:
397,384,104546,5,2,1:2:0:0:
394,337,104617,1,0,0:0:0:0:
399,292,104688,1,0,0:0:0:0:
413,248,104760,1,0,0:0:0:0:
436,208,104831,1,8,0:0:0:0:
389,206,104903,1,0,0:0:0:0:
343,201,104974,1,0,1:0:0:0:
299,193,105046,1,0,0:0:0:0:
254,182,105118,6,0,P|201:201|96:220,1,122.500001168251,2|0,1:2|0:0,0:0:0:0:
140,246,105332,2,0,P|94:205|52:157,1,122.500001168251,2|0,0:0|0:0,0:0:0:0:
27,179,105546,2,0,P|38:119|59:59,1,122.500001168251,2|0,0:0|1:0,0:0:0:0:
28,47,105761,2,0,P|85:27|147:15,1,122.500001168251,2|0,0:0|0:0,0:0:0:0:
213,70,105975,1,8,0:0:0:0:
258,74,106046,1,0,0:0:0:0:
304,74,106117,1,0,0:0:0:0:
350,68,106189,1,0,0:0:0:0:
395,59,106261,6,0,L|470:58,1,61.2500005841255,2|0,1:2|0:0,0:0:0:0:
384,169,106403,2,0,L|309:170,1,61.2500005841255
425,274,106546,6,0,L|500:273,1,61.2500005841255,8|0,1:2|0:0,0:0:0:0:
414,384,106689,2,0,L|339:385,1,61.2500005841255
479,144,106832,5,0,1:0:0:0:
302,276,106975,1,0,1:0:0:0:
302,276,107046,1,0,1:0:0:0:
302,276,107118,1,8,0:0:0:0:
213,70,107261,1,0,1:0:0:0:
302,276,107404,5,6,1:2:0:0:
197,175,107546,1,0,0:0:0:0:
201,206,107617,1,0,0:0:0:0:
206,236,107688,1,0,0:0:0:0:
186,330,107832,5,6,1:2:0:0:
81,229,107974,1,0,0:0:0:0:
85,260,108045,1,0,0:0:0:0:
90,290,108118,1,0,0:0:0:0:
302,276,108261,5,6,1:2:0:0:
302,276,108403,1,0,1:0:0:0:
510,287,108546,5,6,1:2:0:0:
505,241,108617,1,0,0:0:0:0:
503,195,108688,1,0,0:0:0:0:
504,149,108760,1,0,0:0:0:0:
508,103,108831,1,8,0:0:0:0:
301,93,108975,5,6,1:2:0:0:
305,138,109046,1,0,0:0:0:0:
307,184,109117,1,0,0:0:0:0:
306,230,109189,1,0,0:0:0:0:
302,276,109260,1,0,1:0:0:0:
413,194,109403,5,14,1:2:0:0:
413,194,109475,1,0,0:0:0:0:
413,194,109546,1,0,1:0:0:0:
413,194,109618,1,0,0:0:0:0:
413,194,109689,6,0,L|415:296,2,81.6666674455007,6|0|0,1:2|1:0|1:0,1:0:0:0:
207,168,109975,2,0,L|205:66,2,81.6666674455007,0|0|0,1:0|1:0|1:0,1:0:0:0:
1,194,110261,6,0,L|78:205,1,61.2500005841255,2|0,1:2|1:0,0:0:0:0:
177,287,110403,2,0,L|100:298,1,61.2500005841255,0|0,1:0|1:0,0:0:0:0:
59,379,110546,1,8,0:0:0:0:
115,114,110689,1,0,1:0:0:0:
316,319,110832,5,6,1:2:0:0:
357,60,110975,1,0,1:0:0:0:
465,210,111118,1,4,1:2:0:0:
207,168,111261,1,0,1:0:0:0:
435,326,111403,5,4,1:2:0:0:
198,289,111546,1,0,1:0:0:0:
236,51,111689,1,6,1:2:0:0:
474,89,111832,1,0,1:0:0:0:
338,186,111975,5,4,1:0:0:0:
