osu file format v14

[General]
AudioFilename: audio.mp3
AudioLeadIn: 0
PreviewTime: 84516
Countdown: 0
SampleSet: Normal
StackLeniency: 0.7
Mode: 1
LetterboxInBreaks: 0
WidescreenStoryboard: 1

[Editor]
Bookmarks: 2266,11408,20551,38837,47980,57123,66266,75408,84551,93694,102837,111980
DistanceSpacing: 2.3
BeatDivisor: 4
GridSize: 32
TimelineZoom: 1.8

[Metadata]
Title:LvC3
TitleUnicode:LvC3
Artist:Rohi
ArtistUnicode:ろひ
Creator:Hivie
Version:Oni
Source:osu!
Tags:electronic instrumental fa featured artist mappers' guild mg axer idealism
BeatmapID:2455833
BeatmapSetID:1176918

[Difficulty]
HPDrainRate:6
CircleSize:2
OverallDifficulty:5.5
ApproachRate:9
SliderMultiplier:1.4
SliderTickRate:1

[Events]
//Background and Video events
0,0,"background.jpg",0,0
//Break Periods
//Storyboard Layer 0 (Background)
//Storyboard Layer 1 (Fail)
//Storyboard Layer 2 (Pass)
//Storyboard Layer 3 (Foreground)
//Storyboard Layer 4 (Overlay)
//Storyboard Sound Samples

[TimingPoints]
1090,285.714285714286,4,1,0,100,1,0
2232,285.714285714286,4,1,0,100,1,8
2284,285.714285714286,4,1,0,100,1,0
2284,-125,4,1,0,100,0,0
10282,-117.647058823529,4,1,0,100,0,0
11424,-111.111111111111,4,1,0,100,0,0
20712,-105.263157894737,4,1,0,100,0,0
39998,-105.263157894737,4,1,0,100,0,1
40069,-100,4,1,0,100,0,1
57141,-100,4,1,0,100,0,0
57284,-100,4,1,0,50,0,0
57355,-125,4,1,0,50,0,0
66210,-111.111111111111,4,1,0,100,0,0
96284,-111.111111111111,4,1,0,100,0,1
96355,-100,4,1,0,100,0,1
111998,-100,4,1,0,100,0,0
112284,-100,4,1,0,87,0,0
112569,-100,4,1,0,75,0,0
112855,-100,4,1,0,62,0,0
113141,-100,4,1,0,50,0,0
113426,-100,4,1,0,37,0,0
113712,-100,4,1,0,25,0,0
113998,-100,4,1,0,12,0,0

[HitObjects]
256,192,1090,8,0,2090,0:0:0:0:
256,192,2284,5,0,0:0:0:0:
256,192,2712,1,8,0:0:0:0:
256,192,3426,1,0,0:0:0:0:
256,192,3855,1,8,0:0:0:0:
256,192,4569,1,8,0:0:0:0:
256,192,4998,1,0,0:0:0:0:
256,192,5712,1,0,0:0:0:0:
256,192,5998,1,0,0:0:0:0:
256,192,6284,1,8,0:0:0:0:
256,192,6569,1,8,0:0:0:0:
256,192,6855,1,0,0:0:0:0:
256,192,7284,1,8,0:0:0:0:
256,192,7998,1,0,0:0:0:0:
256,192,8426,1,8,0:0:0:0:
256,192,9141,1,8,0:0:0:0:
256,192,9569,1,0,0:0:0:0:
256,96,10284,1,4,0:0:0:0:
256,192,10855,1,0,0:0:0:0:
256,192,11141,1,8,0:0:0:0:
256,192,11284,1,0,0:0:0:0:
256,96,11426,1,12,0:0:0:0:
256,192,11712,1,8,0:0:0:0:
256,192,11855,1,8,0:0:0:0:
256,192,11926,1,8,0:0:0:0:
256,192,11998,1,0,0:0:0:0:
256,192,12141,1,0,0:0:0:0:
256,192,12284,1,8,0:0:0:0:
256,192,12426,1,0,0:0:0:0:
256,192,12569,1,8,0:0:0:0:
256,192,12855,1,0,0:0:0:0:
256,192,12998,1,8,0:0:0:0:
256,192,13069,1,8,0:0:0:0:
256,192,13141,1,0,0:0:0:0:
256,192,13284,1,0,0:0:0:0:
256,192,13426,1,8,0:0:0:0:
256,192,13569,1,0,0:0:0:0:
256,192,13641,1,0,0:0:0:0:
256,192,13712,1,8,0:0:0:0:
256,192,13998,1,8,0:0:0:0:
256,192,14141,1,0,0:0:0:0:
256,192,14212,1,0,0:0:0:0:
256,192,14284,1,8,0:0:0:0:
256,192,14426,1,0,0:0:0:0:
256,192,14569,1,8,0:0:0:0:
256,192,14712,1,8,0:0:0:0:
256,192,14855,1,0,0:0:0:0:
256,192,15141,1,8,0:0:0:0:
256,192,15284,1,0,0:0:0:0:
256,192,15426,1,8,0:0:0:0:
256,192,15569,1,8,0:0:0:0:
256,192,15712,1,0,0:0:0:0:
256,192,15855,1,0,0:0:0:0:
256,192,15926,1,0,0:0:0:0:
256,192,15998,1,8,0:0:0:0:
256,192,16284,1,0,0:0:0:0:
256,192,16426,1,8,0:0:0:0:
256,192,16498,1,0,0:0:0:0:
256,192,16569,1,8,0:0:0:0:
256,192,16712,1,0,0:0:0:0:
256,192,16855,1,8,0:0:0:0:
256,192,16998,1,8,0:0:0:0:
256,192,17141,1,0,0:0:0:0:
256,192,17426,1,0,0:0:0:0:
256,192,17569,1,8,0:0:0:0:
256,192,17641,1,8,0:0:0:0:
256,192,17712,1,0,0:0:0:0:
256,192,17855,1,0,0:0:0:0:
256,192,17998,1,0,0:0:0:0:
256,192,18069,1,8,0:0:0:0:
256,192,18141,1,8,0:0:0:0:
256,192,18284,1,8,0:0:0:0:
256,192,18569,1,8,0:0:0:0:
256,192,18664,1,0,0:0:0:0:
256,192,18760,1,0,0:0:0:0:
256,192,18855,1,8,0:0:0:0:
256,192,18998,1,8,0:0:0:0:
256,192,19069,1,8,0:0:0:0:
256,192,19141,1,0,0:0:0:0:
256,192,19284,1,8,0:0:0:0:
256,192,19426,1,8,0:0:0:0:
256,192,19712,1,0,0:0:0:0:
256,192,19855,1,8,0:0:0:0:
256,192,19998,1,8,0:0:0:0:
256,192,20069,1,0,0:0:0:0:
256,192,20141,1,0,0:0:0:0:
256,192,20284,1,8,0:0:0:0:
256,192,20426,1,8,0:0:0:0:
256,192,20498,1,8,0:0:0:0:
256,192,20569,1,0,0:0:0:0:
256,96,20855,1,12,0:0:0:0:
256,192,21141,1,8,0:0:0:0:
256,192,21284,1,0,0:0:0:0:
256,192,21426,1,8,0:0:0:0:
256,192,21569,1,0,0:0:0:0:
256,192,21641,1,0,0:0:0:0:
256,192,21712,1,8,0:0:0:0:
256,192,21855,1,0,0:0:0:0:
256,192,21998,1,8,0:0:0:0:
256,192,22141,1,0,0:0:0:0:
256,192,22284,1,8,0:0:0:0:
256,192,22426,1,0,0:0:0:0:
256,192,22569,1,8,0:0:0:0:
256,192,22712,1,8,0:0:0:0:
256,192,22784,1,8,0:0:0:0:
256,192,22855,1,0,0:0:0:0:
256,192,23141,1,0,0:0:0:0:
256,192,23212,1,0,0:0:0:0:
256,192,23284,1,8,0:0:0:0:
256,192,23426,1,8,0:0:0:0:
256,192,23569,1,0,0:0:0:0:
256,192,23712,1,8,0:0:0:0:
256,192,23998,1,8,0:0:0:0:
256,192,24069,1,8,0:0:0:0:
256,192,24141,1,8,0:0:0:0:
256,192,24284,1,0,0:0:0:0:
256,192,24426,1,0,0:0:0:0:
256,192,24569,1,8,0:0:0:0:
256,192,24712,1,8,0:0:0:0:
256,192,24855,1,0,0:0:0:0:
256,192,24926,1,0,0:0:0:0:
256,192,24998,1,0,0:0:0:0:
256,192,25141,1,8,0:0:0:0:
256,192,25426,1,0,0:0:0:0:
256,192,25498,1,0,0:0:0:0:
256,192,25569,1,8,0:0:0:0:
256,192,25712,1,8,0:0:0:0:
256,192,25855,1,0,0:0:0:0:
256,192,25998,1,8,0:0:0:0:
256,192,26069,1,0,0:0:0:0:
256,192,26141,1,0,0:0:0:0:
256,192,26284,1,0,0:0:0:0:
256,192,26569,1,8,0:0:0:0:
256,192,26712,1,0,0:0:0:0:
256,192,26784,1,0,0:0:0:0:
256,192,26855,1,8,0:0:0:0:
256,192,26998,1,0,0:0:0:0:
256,192,27141,1,8,0:0:0:0:
256,192,27284,1,8,0:0:0:0:
256,192,27355,1,8,0:0:0:0:
256,192,27426,1,0,0:0:0:0:
256,192,27712,1,0,0:0:0:0:
256,192,27855,1,0,0:0:0:0:
256,192,27926,1,8,0:0:0:0:
256,192,27998,1,8,0:0:0:0:
256,192,28141,1,0,0:0:0:0:
256,192,28284,1,8,0:0:0:0:
256,192,28426,1,8,0:0:0:0:
256,192,28498,1,0,0:0:0:0:
256,192,28569,1,0,0:0:0:0:
256,192,28855,1,0,0:0:0:0:
256,192,28998,1,8,0:0:0:0:
256,192,29069,1,0,0:0:0:0:
256,192,29141,1,8,0:0:0:0:
256,192,29284,1,0,0:0:0:0:
256,192,29426,1,8,0:0:0:0:
256,192,29569,1,8,0:0:0:0:
256,192,29641,1,8,0:0:0:0:
256,192,29712,1,0,0:0:0:0:
256,192,29998,1,8,0:0:0:0:
256,192,30141,1,0,0:0:0:0:
256,192,30284,1,8,0:0:0:0:
256,192,30355,1,8,0:0:0:0:
256,192,30426,1,0,0:0:0:0:
256,192,30569,1,0,0:0:0:0:
256,192,30712,1,0,0:0:0:0:
256,192,30855,1,8,0:0:0:0:
256,192,31141,1,8,0:0:0:0:
256,192,31212,1,8,0:0:0:0:
256,192,31284,1,0,0:0:0:0:
256,192,31426,1,8,0:0:0:0:
256,192,31569,1,8,0:0:0:0:
256,192,31712,1,0,0:0:0:0:
256,192,31855,1,0,0:0:0:0:
256,192,31926,1,0,0:0:0:0:
256,192,31998,1,8,0:0:0:0:
256,192,32284,1,8,0:0:0:0:
256,192,32426,1,8,0:0:0:0:
256,192,32498,1,8,0:0:0:0:
256,192,32569,1,0,0:0:0:0:
256,192,32712,1,0,0:0:0:0:
256,192,32855,1,8,0:0:0:0:
256,192,32998,1,0,0:0:0:0:
256,192,33069,1,0,0:0:0:0:
256,192,33141,1,8,0:0:0:0:
256,192,33426,1,8,0:0:0:0:
256,192,33498,1,8,0:0:0:0:
256,192,33569,1,0,0:0:0:0:
256,192,33712,1,8,0:0:0:0:
256,192,33855,1,0,0:0:0:0:
256,192,33998,1,8,0:0:0:0:
256,192,34069,1,8,0:0:0:0:
256,192,34141,1,0,0:0:0:0:
256,192,34212,1,0,0:0:0:0:
256,192,34284,1,8,0:0:0:0:
256,192,34569,1,0,0:0:0:0:
256,192,34712,1,0,0:0:0:0:
256,192,34855,1,8,0:0:0:0:
256,192,34926,1,8,0:0:0:0:
256,192,34998,1,8,0:0:0:0:
256,192,35284,1,8,0:0:0:0:
256,192,35426,1,8,0:0:0:0:
256,192,35498,1,8,0:0:0:0:
256,192,35569,1,0,0:0:0:0:
256,192,35712,1,8,0:0:0:0:
256,192,35855,1,0,0:0:0:0:
256,192,35998,1,8,0:0:0:0:
256,192,36141,1,0,0:0:0:0:
256,192,36212,1,0,0:0:0:0:
256,192,36284,1,8,0:0:0:0:
256,192,36426,1,0,0:0:0:0:
256,192,36569,1,8,0:0:0:0:
256,192,36855,1,0,0:0:0:0:
256,192,36926,1,0,0:0:0:0:
256,192,36998,1,8,0:0:0:0:
256,192,37141,1,0,0:0:0:0:
256,192,37284,1,8,0:0:0:0:
256,192,37426,1,8,0:0:0:0:
256,192,37498,1,0,0:0:0:0:
256,192,37569,1,8,0:0:0:0:
256,192,37641,1,8,0:0:0:0:
256,192,37712,1,0,0:0:0:0:
256,192,37998,1,8,0:0:0:0:
256,192,38069,1,0,0:0:0:0:
256,192,38141,1,0,0:0:0:0:
256,192,38284,1,8,0:0:0:0:
256,192,38426,1,0,0:0:0:0:
256,192,38569,1,0,0:0:0:0:
256,192,38641,1,0,0:0:0:0:
256,192,38712,1,8,0:0:0:0:
256,192,38784,1,8,0:0:0:0:
256,192,38855,1,0,0:0:0:0:
256,192,39069,1,0,0:0:0:0:
256,192,39284,1,0,0:0:0:0:
256,96,39426,1,12,0:0:0:0:
256,96,39641,1,12,0:0:0:0:
256,96,39855,1,4,0:0:0:0:
256,96,39998,1,12,0:0:0:0:
256,192,40284,1,0,0:0:0:0:
256,192,40426,1,8,0:0:0:0:
256,192,40569,1,8,0:0:0:0:
256,192,40641,1,0,0:0:0:0:
256,192,40712,1,8,0:0:0:0:
256,192,40855,1,0,0:0:0:0:
256,192,40998,1,0,0:0:0:0:
256,192,41141,1,8,0:0:0:0:
256,192,41212,1,0,0:0:0:0:
256,192,41284,1,0,0:0:0:0:
256,192,41426,1,8,0:0:0:0:
256,192,41569,1,0,0:0:0:0:
256,192,41641,1,8,0:0:0:0:
256,192,41712,1,8,0:0:0:0:
256,192,41855,1,8,0:0:0:0:
256,192,41998,1,0,0:0:0:0:
256,192,42284,1,8,0:0:0:0:
256,192,42355,1,8,0:0:0:0:
256,192,42426,1,0,0:0:0:0:
256,192,42569,1,8,0:0:0:0:
256,192,42712,1,0,0:0:0:0:
256,192,42855,1,8,0:0:0:0:
256,192,42926,1,0,0:0:0:0:
256,192,42998,1,8,0:0:0:0:
256,192,43141,1,0,0:0:0:0:
256,192,43426,1,8,0:0:0:0:
256,192,43569,1,0,0:0:0:0:
256,192,43641,1,0,0:0:0:0:
256,192,43712,1,8,0:0:0:0:
256,192,43855,1,8,0:0:0:0:
256,192,43998,1,0,0:0:0:0:
256,192,44069,1,0,0:0:0:0:
256,192,44141,1,8,0:0:0:0:
256,192,44284,1,0,0:0:0:0:
256,192,44569,1,8,0:0:0:0:
256,192,44712,1,0,0:0:0:0:
256,192,44784,1,8,0:0:0:0:
256,192,44855,1,8,0:0:0:0:
256,192,44998,1,0,0:0:0:0:
256,192,45141,1,0,0:0:0:0:
256,192,45212,1,8,0:0:0:0:
256,192,45284,1,8,0:0:0:0:
256,192,45426,1,0,0:0:0:0:
256,192,45712,1,8,0:0:0:0:
256,192,45855,1,0,0:0:0:0:
256,192,45926,1,0,0:0:0:0:
256,192,45998,1,8,0:0:0:0:
256,192,46141,1,8,0:0:0:0:
256,192,46284,1,0,0:0:0:0:
256,192,46426,1,8,0:0:0:0:
256,192,46498,1,8,0:0:0:0:
256,192,46569,1,0,0:0:0:0:
256,192,46712,1,0,0:0:0:0:
256,192,46855,1,8,0:0:0:0:
256,192,47141,1,0,0:0:0:0:
256,192,47284,1,8,0:0:0:0:
256,192,47426,1,0,0:0:0:0:
256,192,47498,1,0,0:0:0:0:
256,192,47569,1,8,0:0:0:0:
256,192,47712,1,8,0:0:0:0:
256,192,47784,1,8,0:0:0:0:
256,192,47855,1,0,0:0:0:0:
256,192,47926,1,0,0:0:0:0:
256,96,47998,1,12,0:0:0:0:
256,192,48212,1,0,0:0:0:0:
256,192,48284,1,0,0:0:0:0:
256,192,48426,1,8,0:0:0:0:
256,192,48569,1,8,0:0:0:0:
256,192,48712,1,0,0:0:0:0:
256,192,48784,1,8,0:0:0:0:
256,192,48855,1,0,0:0:0:0:
256,192,48998,1,0,0:0:0:0:
256,192,49141,1,8,0:0:0:0:
256,192,49355,1,0,0:0:0:0:
256,192,49426,1,0,0:0:0:0:
256,192,49569,1,8,0:0:0:0:
256,192,49712,1,8,0:0:0:0:
256,192,49784,1,0,0:0:0:0:
256,192,49855,1,8,0:0:0:0:
256,192,49998,1,0,0:0:0:0:
256,192,50141,1,0,0:0:0:0:
256,192,50284,1,8,0:0:0:0:
256,192,50355,1,0,0:0:0:0:
256,192,50426,1,0,0:0:0:0:
256,192,50569,1,8,0:0:0:0:
256,192,50712,1,0,0:0:0:0:
256,192,50784,1,8,0:0:0:0:
256,192,50855,1,8,0:0:0:0:
256,192,50998,1,8,0:0:0:0:
256,192,51141,1,0,0:0:0:0:
256,192,51426,1,8,0:0:0:0:
256,192,51498,1,8,0:0:0:0:
256,192,51569,1,0,0:0:0:0:
256,192,51712,1,8,0:0:0:0:
256,192,51855,1,0,0:0:0:0:
256,192,51998,1,8,0:0:0:0:
256,192,52069,1,0,0:0:0:0:
256,192,52141,1,8,0:0:0:0:
256,192,52284,1,0,0:0:0:0:
256,192,52569,1,0,0:0:0:0:
256,192,52712,1,0,0:0:0:0:
256,192,52784,1,0,0:0:0:0:
256,192,52855,1,8,0:0:0:0:
256,192,52998,1,0,0:0:0:0:
256,192,53141,1,0,0:0:0:0:
256,192,53212,1,0,0:0:0:0:
256,192,53284,1,8,0:0:0:0:
256,192,53426,1,0,0:0:0:0:
256,192,53712,1,8,0:0:0:0:
256,192,53855,1,8,0:0:0:0:
256,192,53926,1,8,0:0:0:0:
256,192,53998,1,0,0:0:0:0:
256,192,54141,1,0,0:0:0:0:
256,192,54284,1,8,0:0:0:0:
256,192,54355,1,8,0:0:0:0:
256,192,54426,1,0,0:0:0:0:
256,192,54569,1,0,0:0:0:0:
256,192,54855,1,8,0:0:0:0:
256,192,54950,1,8,0:0:0:0:
256,192,55045,1,0,0:0:0:0:
256,192,55141,1,8,0:0:0:0:
256,192,55284,1,0,0:0:0:0:
256,192,55426,1,8,0:0:0:0:
256,192,55569,1,8,0:0:0:0:
256,192,55641,1,8,0:0:0:0:
256,192,55712,1,0,0:0:0:0:
256,192,55855,1,0,0:0:0:0:
256,192,55998,1,8,0:0:0:0:
256,192,56284,1,0,0:0:0:0:
256,192,56426,1,8,0:0:0:0:
256,192,56498,1,8,0:0:0:0:
256,192,56569,1,0,0:0:0:0:
256,192,56712,1,0,0:0:0:0:
256,192,56855,1,8,0:0:0:0:
256,192,56926,1,0,0:0:0:0:
256,192,56998,1,0,0:0:0:0:
256,192,57069,1,8,0:0:0:0:
256,192,57141,1,8,0:0:0:0:
256,192,57284,12,0,61141,0:0:0:0:
256,192,61712,5,8,0:0:0:0:
256,192,62855,1,0,0:0:0:0:
256,192,63998,1,0,0:0:0:0:
256,192,66284,5,8,0:0:0:0:
256,192,66426,1,0,0:0:0:0:
256,192,66569,1,8,0:0:0:0:
256,192,66712,1,8,0:0:0:0:
256,192,66855,1,8,0:0:0:0:
256,192,66998,1,0,0:0:0:0:
256,192,67141,1,0,0:0:0:0:
256,192,67426,1,8,0:0:0:0:
256,192,67569,1,0,0:0:0:0:
256,192,67641,1,0,0:0:0:0:
256,192,67712,1,8,0:0:0:0:
256,192,67855,1,8,0:0:0:0:
256,192,67998,1,8,0:0:0:0:
256,192,68141,1,0,0:0:0:0:
256,192,68284,1,0,0:0:0:0:
256,192,68569,1,8,0:0:0:0:
256,192,68712,1,0,0:0:0:0:
256,192,68855,1,8,0:0:0:0:
256,192,68998,1,8,0:0:0:0:
256,192,69141,1,0,0:0:0:0:
256,192,69284,1,8,0:0:0:0:
256,192,69426,1,0,0:0:0:0:
256,192,69712,1,8,0:0:0:0:
256,192,69855,1,0,0:0:0:0:
256,192,69926,1,0,0:0:0:0:
256,192,69998,1,8,0:0:0:0:
256,192,70141,1,8,0:0:0:0:
256,192,70284,1,8,0:0:0:0:
256,192,70355,1,0,0:0:0:0:
256,192,70426,1,8,0:0:0:0:
256,192,70569,1,0,0:0:0:0:
256,192,70855,1,8,0:0:0:0:
256,192,70998,1,0,0:0:0:0:
256,192,71141,1,8,0:0:0:0:
256,192,71284,1,8,0:0:0:0:
256,192,71426,1,8,0:0:0:0:
256,192,71569,1,0,0:0:0:0:
256,192,71712,1,0,0:0:0:0:
256,192,71998,1,8,0:0:0:0:
256,192,72141,1,0,0:0:0:0:
256,192,72212,1,0,0:0:0:0:
256,192,72284,1,8,0:0:0:0:
256,192,72426,1,8,0:0:0:0:
256,192,72569,1,0,0:0:0:0:
256,192,72712,1,0,0:0:0:0:
256,192,72855,1,0,0:0:0:0:
256,192,73141,1,8,0:0:0:0:
256,192,73284,1,0,0:0:0:0:
256,192,73426,1,8,0:0:0:0:
256,192,73569,1,8,0:0:0:0:
256,192,73712,1,0,0:0:0:0:
256,192,73855,1,8,0:0:0:0:
256,192,73998,1,0,0:0:0:0:
256,192,74284,1,0,0:0:0:0:
256,192,74426,1,0,0:0:0:0:
256,192,74569,1,8,0:0:0:0:
256,192,74712,1,8,0:0:0:0:
256,192,74855,1,0,0:0:0:0:
256,192,74926,1,0,0:0:0:0:
256,192,74998,1,8,0:0:0:0:
256,192,75141,1,0,0:0:0:0:
256,192,75284,1,8,0:0:0:0:
256,192,75355,1,8,0:0:0:0:
256,96,75426,1,4,0:0:0:0:
256,192,75998,1,0,0:0:0:0:
256,192,76284,1,8,0:0:0:0:
256,192,76569,1,8,0:0:0:0:
256,192,76664,1,0,0:0:0:0:
256,192,76760,1,0,0:0:0:0:
256,192,76855,1,8,0:0:0:0:
256,192,77141,1,8,0:0:0:0:
256,192,77426,1,8,0:0:0:0:
256,192,77712,1,0,0:0:0:0:
256,192,77998,1,0,0:0:0:0:
256,192,78141,1,0,0:0:0:0:
256,192,78284,1,8,0:0:0:0:
256,192,78569,1,8,0:0:0:0:
256,192,78855,1,0,0:0:0:0:
256,192,78950,1,8,0:0:0:0:
256,192,79045,1,8,0:0:0:0:
256,192,79141,1,0,0:0:0:0:
256,192,79426,1,8,0:0:0:0:
256,192,79712,1,8,0:0:0:0:
256,192,79807,1,0,0:0:0:0:
256,192,79903,1,0,0:0:0:0:
256,192,79998,1,8,0:0:0:0:
256,192,80284,1,0,0:0:0:0:
256,192,80569,1,8,0:0:0:0:
256,192,80855,1,0,0:0:0:0:
256,192,81141,1,8,0:0:0:0:
256,192,81236,1,0,0:0:0:0:
256,192,81331,1,0,0:0:0:0:
256,192,81426,1,8,0:0:0:0:
256,192,81712,1,8,0:0:0:0:
256,192,81855,1,0,0:0:0:0:
256,192,82141,1,8,0:0:0:0:
256,192,82284,1,0,0:0:0:0:
256,192,82569,1,8,0:0:0:0:
256,192,82855,1,0,0:0:0:0:
256,192,83141,1,8,0:0:0:0:
256,192,83426,1,0,0:0:0:0:
256,192,83522,1,0,0:0:0:0:
256,192,83617,1,8,0:0:0:0:
256,192,83712,1,8,0:0:0:0:
256,192,83855,1,0,0:0:0:0:
256,192,83998,1,8,0:0:0:0:
256,192,84284,1,8,0:0:0:0:
256,192,84379,1,8,0:0:0:0:
256,192,84474,1,8,0:0:0:0:
256,192,84569,1,0,0:0:0:0:
256,192,85141,1,8,0:0:0:0:
256,192,85712,1,8,0:0:0:0:
256,192,85998,1,0,0:0:0:0:
256,192,86284,1,8,0:0:0:0:
256,192,86426,1,0,0:0:0:0:
256,192,86712,1,0,0:0:0:0:
256,192,87141,1,8,0:0:0:0:
256,192,87426,1,8,0:0:0:0:
256,192,87569,1,0,0:0:0:0:
256,192,87855,1,8,0:0:0:0:
256,192,88569,1,0,0:0:0:0:
256,192,88855,1,0,0:0:0:0:
256,96,89141,1,12,0:0:0:0:
256,192,89284,1,0,0:0:0:0:
256,192,89426,1,0,0:0:0:0:
256,192,89569,1,0,0:0:0:0:
256,192,89712,1,8,0:0:0:0:
256,192,89855,1,0,0:0:0:0:
256,192,89998,1,8,0:0:0:0:
256,192,90284,1,8,0:0:0:0:
256,192,90426,1,0,0:0:0:0:
256,192,90569,1,8,0:0:0:0:
256,192,90712,1,0,0:0:0:0:
256,192,90855,1,0,0:0:0:0:
256,192,90926,1,0,0:0:0:0:
256,192,90998,1,8,0:0:0:0:
256,192,91141,1,8,0:0:0:0:
256,192,91284,1,0,0:0:0:0:
256,192,91426,1,8,0:0:0:0:
256,192,91712,1,0,0:0:0:0:
256,192,91784,1,0,0:0:0:0:
256,192,91855,1,8,0:0:0:0:
256,192,91998,1,0,0:0:0:0:
256,192,92141,1,8,0:0:0:0:
256,192,92284,1,8,0:0:0:0:
256,192,92355,1,0,0:0:0:0:
256,192,92426,1,8,0:0:0:0:
256,192,92498,1,8,0:0:0:0:
256,192,92569,1,0,0:0:0:0:
256,192,92855,1,8,0:0:0:0:
256,192,92926,1,0,0:0:0:0:
256,192,92998,1,0,0:0:0:0:
256,192,93141,1,8,0:0:0:0:
256,192,93284,1,0,0:0:0:0:
256,192,93426,1,0,0:0:0:0:
256,192,93498,1,0,0:0:0:0:
256,192,93569,1,8,0:0:0:0:
256,192,93641,1,8,0:0:0:0:
256,192,93712,1,0,0:0:0:0:
256,192,93926,1,0,0:0:0:0:
256,192,94141,1,0,0:0:0:0:
256,96,94284,1,12,0:0:0:0:
256,96,94498,1,12,0:0:0:0:
256,96,94712,1,4,0:0:0:0:
256,96,94855,1,12,0:0:0:0:
256,192,95069,1,8,0:0:0:0:
256,192,95284,1,8,0:0:0:0:
256,192,95426,1,8,0:0:0:0:
256,192,95712,1,0,0:0:0:0:
256,192,95855,1,0,0:0:0:0:
256,192,95998,1,8,0:0:0:0:
256,192,96141,1,0,0:0:0:0:
256,192,96212,1,0,0:0:0:0:
256,96,96284,1,12,0:0:0:0:
256,192,96569,1,8,0:0:0:0:
256,192,96712,1,8,0:0:0:0:
256,192,96855,1,0,0:0:0:0:
256,192,97141,1,8,0:0:0:0:
256,192,97212,1,8,0:0:0:0:
256,192,97284,1,0,0:0:0:0:
256,192,97426,1,8,0:0:0:0:
256,192,97569,1,0,0:0:0:0:
256,192,97712,1,8,0:0:0:0:
256,192,97784,1,0,0:0:0:0:
256,192,97855,1,8,0:0:0:0:
256,192,97998,1,0,0:0:0:0:
256,192,98284,1,8,0:0:0:0:
256,192,98426,1,0,0:0:0:0:
256,192,98498,1,0,0:0:0:0:
256,192,98569,1,8,0:0:0:0:
256,192,98712,1,8,0:0:0:0:
256,192,98855,1,0,0:0:0:0:
256,192,98926,1,0,0:0:0:0:
256,192,98998,1,8,0:0:0:0:
256,192,99141,1,0,0:0:0:0:
256,192,99426,1,8,0:0:0:0:
256,192,99569,1,0,0:0:0:0:
256,192,99641,1,8,0:0:0:0:
256,192,99712,1,8,0:0:0:0:
256,192,99855,1,0,0:0:0:0:
256,192,99998,1,0,0:0:0:0:
256,192,100069,1,8,0:0:0:0:
256,192,100141,1,8,0:0:0:0:
256,192,100284,1,0,0:0:0:0:
256,192,100569,1,8,0:0:0:0:
256,192,100712,1,0,0:0:0:0:
256,192,100784,1,0,0:0:0:0:
256,192,100855,1,8,0:0:0:0:
256,192,100998,1,8,0:0:0:0:
256,192,101141,1,0,0:0:0:0:
256,192,101284,1,8,0:0:0:0:
256,192,101355,1,8,0:0:0:0:
256,192,101426,1,0,0:0:0:0:
256,192,101569,1,0,0:0:0:0:
256,192,101712,1,8,0:0:0:0:
256,192,101998,1,0,0:0:0:0:
256,192,102141,1,8,0:0:0:0:
256,192,102284,1,0,0:0:0:0:
256,192,102355,1,0,0:0:0:0:
256,192,102426,1,8,0:0:0:0:
256,192,102569,1,8,0:0:0:0:
256,192,102641,1,8,0:0:0:0:
256,192,102712,1,0,0:0:0:0:
256,192,102784,1,0,0:0:0:0:
256,96,102855,1,12,0:0:0:0:
256,192,103069,1,0,0:0:0:0:
256,192,103141,1,0,0:0:0:0:
256,192,103284,1,8,0:0:0:0:
256,192,103426,1,8,0:0:0:0:
256,192,103569,1,0,0:0:0:0:
256,192,103641,1,0,0:0:0:0:
256,192,103712,1,8,0:0:0:0:
256,192,103855,1,8,0:0:0:0:
256,192,103998,1,0,0:0:0:0:
256,192,104212,1,8,0:0:0:0:
256,192,104284,1,0,0:0:0:0:
256,192,104426,1,8,0:0:0:0:
256,192,104569,1,0,0:0:0:0:
256,192,104641,1,8,0:0:0:0:
256,192,104712,1,0,0:0:0:0:
256,192,104855,1,8,0:0:0:0:
256,192,104998,1,0,0:0:0:0:
256,192,105141,1,8,0:0:0:0:
256,192,105212,1,0,0:0:0:0:
256,192,105284,1,0,0:0:0:0:
256,192,105426,1,8,0:0:0:0:
256,192,105569,1,0,0:0:0:0:
256,192,105641,1,8,0:0:0:0:
256,192,105712,1,8,0:0:0:0:
256,192,105855,1,8,0:0:0:0:
256,192,105998,1,0,0:0:0:0:
256,192,106284,1,8,0:0:0:0:
256,192,106355,1,8,0:0:0:0:
256,192,106426,1,0,0:0:0:0:
256,192,106569,1,8,0:0:0:0:
256,192,106712,1,0,0:0:0:0:
256,192,106855,1,8,0:0:0:0:
256,192,106926,1,0,0:0:0:0:
256,192,106998,1,8,0:0:0:0:
256,192,107141,1,0,0:0:0:0:
256,192,107426,1,0,0:0:0:0:
256,192,107569,1,0,0:0:0:0:
256,192,107641,1,0,0:0:0:0:
256,192,107712,1,8,0:0:0:0:
256,192,107855,1,8,0:0:0:0:
256,192,107998,1,0,0:0:0:0:
256,192,108069,1,0,0:0:0:0:
256,192,108141,1,8,0:0:0:0:
256,192,108284,1,0,0:0:0:0:
256,192,108569,1,8,0:0:0:0:
256,192,108712,1,8,0:0:0:0:
256,192,108784,1,8,0:0:0:0:
256,192,108855,1,0,0:0:0:0:
256,192,108998,1,0,0:0:0:0:
256,192,109141,1,8,0:0:0:0:
256,192,109212,1,8,0:0:0:0:
256,192,109284,1,0,0:0:0:0:
256,192,109426,1,8,0:0:0:0:
256,192,109712,1,8,0:0:0:0:
256,192,109807,1,0,0:0:0:0:
256,192,109903,1,0,0:0:0:0:
256,192,109998,1,8,0:0:0:0:
256,192,110141,1,0,0:0:0:0:
256,192,110284,1,8,0:0:0:0:
256,192,110426,1,8,0:0:0:0:
256,192,110498,1,8,0:0:0:0:
256,192,110569,1,0,0:0:0:0:
256,192,110712,1,0,0:0:0:0:
256,192,110855,1,8,0:0:0:0:
256,192,111141,1,0,0:0:0:0:
256,192,111284,1,8,0:0:0:0:
256,192,111355,1,8,0:0:0:0:
256,192,111426,1,0,0:0:0:0:
256,192,111569,1,0,0:0:0:0:
256,192,111712,1,8,0:0:0:0:
256,192,111784,1,8,0:0:0:0:
256,192,111855,1,8,0:0:0:0:
256,192,111926,1,8,0:0:0:0:
256,96,111998,1,4,0:0:0:0:
256,192,112141,8,0,114284,0:0:0:0:
