osu file format v14

[General]
AudioFilename: audio.mp3
AudioLeadIn: 0
PreviewTime: 84516
Countdown: 0
SampleSet: Normal
StackLeniency: 0.7
Mode: 1
LetterboxInBreaks: 0
WidescreenStoryboard: 1

[Editor]
Bookmarks: 2266,11408,20551,38837,47980,57123,66266,75408,84551,93694,102837,111980
DistanceSpacing: 2.3
BeatDivisor: 4
GridSize: 32
TimelineZoom: 1.099999

[Metadata]
Title:LvC3
TitleUnicode:LvC3
Artist:Rohi
ArtistUnicode:ろひ
Creator:Hivie
Version:Kantan
Source:osu!
Tags:electronic instrumental fa featured artist mappers' guild mg axer idealism
BeatmapID:2455957
BeatmapSetID:1176918

[Difficulty]
HPDrainRate:8
CircleSize:2
OverallDifficulty:3
ApproachRate:9
SliderMultiplier:1.4
SliderTickRate:1

[Events]
//Background and Video events
0,0,"background.jpg",0,0
//Break Periods
//Storyboard Layer 0 (Background)
//Storyboard Layer 1 (Fail)
//Storyboard Layer 2 (Pass)
//Storyboard Layer 3 (Foreground)
//Storyboard Layer 4 (Overlay)
//Storyboard Sound Samples

[TimingPoints]
1090,285.714285714286,4,1,0,100,1,0
2232,285.714285714286,4,1,0,100,1,8
2284,285.714285714286,4,1,0,100,1,0
2284,-142.857142857143,4,1,0,100,0,0
10284,-133.333333333333,4,1,0,100,0,0
11424,-125,4,1,0,100,0,0
39998,-117.647058823529,4,1,0,100,0,1
57141,-117.647058823529,4,1,0,100,0,0
57355,-142.857142857143,4,1,0,50,0,0
66210,-125,4,1,0,100,0,0
96284,-117.647058823529,4,1,0,100,0,1
111998,-117.647058823529,4,1,0,100,0,0
112284,-117.647058823529,4,1,0,87,0,0
112569,-117.647058823529,4,1,0,75,0,0
112855,-117.647058823529,4,1,0,62,0,0
113141,-117.647058823529,4,1,0,50,0,0
113426,-117.647058823529,4,1,0,37,0,0
113712,-117.647058823529,4,1,0,25,0,0
113998,-117.647058823529,4,1,0,12,0,0

[HitObjects]
256,192,1090,8,0,1947,0:0:0:0:
256,192,2284,5,0,0:0:0:0:
256,192,3426,1,0,0:0:0:0:
256,192,4569,1,8,0:0:0:0:
256,192,5712,1,0,0:0:0:0:
256,192,6284,1,8,0:0:0:0:
256,192,6855,1,0,0:0:0:0:
256,192,7998,1,0,0:0:0:0:
256,192,9141,1,8,0:0:0:0:
256,96,10284,1,4,0:0:0:0:
256,96,11426,1,12,0:0:0:0:
256,192,11855,1,0,0:0:0:0:
256,192,12569,1,0,0:0:0:0:
256,192,12998,1,8,0:0:0:0:
256,192,13712,1,8,0:0:0:0:
256,192,14855,1,0,0:0:0:0:
256,192,15426,1,8,0:0:0:0:
256,192,15998,1,0,0:0:0:0:
256,192,16426,1,8,0:0:0:0:
256,192,17141,1,0,0:0:0:0:
256,192,17569,1,8,0:0:0:0:
256,192,18284,1,0,0:0:0:0:
256,192,19141,1,0,0:0:0:0:
256,192,19426,1,8,0:0:0:0:
256,192,19998,1,8,0:0:0:0:
256,192,20569,1,0,0:0:0:0:
256,96,20855,1,12,0:0:0:0:
256,192,21712,1,8,0:0:0:0:
256,192,22284,1,8,0:0:0:0:
256,192,22855,1,0,0:0:0:0:
256,192,23141,1,0,0:0:0:0:
256,192,23426,1,8,0:0:0:0:
256,192,23998,1,8,0:0:0:0:
256,192,24569,1,0,0:0:0:0:
256,192,25141,1,8,0:0:0:0:
256,192,26284,1,0,0:0:0:0:
256,192,26855,1,0,0:0:0:0:
256,192,27426,1,8,0:0:0:0:
256,192,27712,1,0,0:0:0:0:
256,192,27998,1,8,0:0:0:0:
256,192,28569,1,8,0:0:0:0:
256,192,29141,1,8,0:0:0:0:
256,192,29712,1,0,0:0:0:0:
256,192,30855,1,8,0:0:0:0:
256,192,31426,1,8,0:0:0:0:
256,192,31998,1,0,0:0:0:0:
256,192,32284,1,8,0:0:0:0:
256,192,32569,1,0,0:0:0:0:
256,192,33141,1,0,0:0:0:0:
256,192,33998,1,0,0:0:0:0:
256,192,34284,1,8,0:0:0:0:
256,192,34855,1,8,0:0:0:0:
256,192,35426,1,0,0:0:0:0:
256,192,35712,1,0,0:0:0:0:
256,192,35998,1,8,0:0:0:0:
256,192,36569,1,8,0:0:0:0:
256,192,37284,1,8,0:0:0:0:
256,192,37712,1,8,0:0:0:0:
256,192,38426,1,0,0:0:0:0:
256,192,38855,1,8,0:0:0:0:
256,96,39998,1,12,0:0:0:0:
256,192,41141,1,8,0:0:0:0:
256,192,41712,1,0,0:0:0:0:
256,192,41998,1,0,0:0:0:0:
256,192,42284,1,8,0:0:0:0:
256,192,42855,1,8,0:0:0:0:
256,192,43141,1,8,0:0:0:0:
256,192,43426,1,0,0:0:0:0:
256,192,44284,1,0,0:0:0:0:
256,192,44569,1,8,0:0:0:0:
256,192,45426,1,8,0:0:0:0:
256,192,45712,1,0,0:0:0:0:
256,192,46284,1,0,0:0:0:0:
256,192,46855,1,0,0:0:0:0:
256,192,47426,1,0,0:0:0:0:
256,192,47712,1,8,0:0:0:0:
256,96,47998,1,4,0:0:0:0:
256,192,49141,1,0,0:0:0:0:
256,192,49712,1,8,0:0:0:0:
256,192,50284,1,8,0:0:0:0:
256,192,50855,1,0,0:0:0:0:
256,192,51141,1,0,0:0:0:0:
256,192,51426,1,8,0:0:0:0:
256,192,51998,1,8,0:0:0:0:
256,192,52284,1,0,0:0:0:0:
256,192,52569,1,8,0:0:0:0:
256,192,53426,1,8,0:0:0:0:
256,192,53712,1,0,0:0:0:0:
256,192,54569,1,0,0:0:0:0:
256,192,54855,1,8,0:0:0:0:
256,192,55426,1,0,0:0:0:0:
256,192,55998,1,8,0:0:0:0:
256,192,56569,1,0,0:0:0:0:
256,192,56855,1,0,0:0:0:0:
256,96,57141,1,12,0:0:0:0:
256,192,57426,12,0,61141,0:0:0:0:
256,192,61712,5,8,0:0:0:0:
256,192,62855,1,0,0:0:0:0:
256,192,63998,1,0,0:0:0:0:
256,192,66284,5,0,0:0:0:0:
256,192,66855,1,8,0:0:0:0:
256,192,67426,1,0,0:0:0:0:
256,192,68569,1,0,0:0:0:0:
256,192,69141,1,8,0:0:0:0:
256,192,69712,1,0,0:0:0:0:
256,192,70855,1,8,0:0:0:0:
256,192,71426,1,0,0:0:0:0:
256,192,71998,1,8,0:0:0:0:
256,192,73141,1,8,0:0:0:0:
256,192,73712,1,0,0:0:0:0:
256,192,74284,1,0,0:0:0:0:
256,96,75426,1,4,0:0:0:0:
256,192,76569,1,8,0:0:0:0:
256,192,77712,1,0,0:0:0:0:
256,192,78284,1,0,0:0:0:0:
256,192,78855,1,8,0:0:0:0:
256,192,79998,1,0,0:0:0:0:
256,192,80569,1,8,0:0:0:0:
256,192,81141,1,0,0:0:0:0:
256,192,82284,1,8,0:0:0:0:
256,192,83426,1,0,0:0:0:0:
256,192,83998,1,8,0:0:0:0:
256,192,84569,1,0,0:0:0:0:
256,192,85712,1,8,0:0:0:0:
256,192,86855,1,0,0:0:0:0:
256,192,87998,1,0,0:0:0:0:
256,192,89141,1,12,0:0:0:0:
256,192,90284,1,8,0:0:0:0:
256,192,91426,1,0,0:0:0:0:
256,192,91998,1,0,0:0:0:0:
256,192,92569,1,8,0:0:0:0:
256,192,93141,1,8,0:0:0:0:
256,192,93712,1,0,0:0:0:0:
256,96,94855,1,12,0:0:0:0:
256,192,95998,1,0,0:0:0:0:
256,96,96284,1,12,0:0:0:0:
256,192,97141,1,8,0:0:0:0:
256,192,97712,1,8,0:0:0:0:
256,192,97998,1,8,0:0:0:0:
256,192,98284,1,0,0:0:0:0:
256,192,99141,1,0,0:0:0:0:
256,192,99426,1,8,0:0:0:0:
256,192,100284,1,8,0:0:0:0:
256,192,100569,1,0,0:0:0:0:
256,192,101141,1,0,0:0:0:0:
256,192,101712,1,0,0:0:0:0:
256,192,102284,1,0,0:0:0:0:
256,192,102569,1,8,0:0:0:0:
256,96,102855,1,4,0:0:0:0:
256,192,103998,1,0,0:0:0:0:
256,192,104569,1,8,0:0:0:0:
256,192,105141,1,8,0:0:0:0:
256,192,105712,1,0,0:0:0:0:
256,192,105998,1,0,0:0:0:0:
256,192,106284,1,8,0:0:0:0:
256,192,106855,1,8,0:0:0:0:
256,192,107141,1,0,0:0:0:0:
256,192,107426,1,8,0:0:0:0:
256,192,108284,1,8,0:0:0:0:
256,192,108569,1,0,0:0:0:0:
256,192,109426,1,0,0:0:0:0:
256,192,109712,1,8,0:0:0:0:
256,192,110284,1,0,0:0:0:0:
256,192,110855,1,8,0:0:0:0:
256,192,111426,1,8,0:0:0:0:
256,192,111712,1,8,0:0:0:0:
256,96,111998,1,4,0:0:0:0:
256,192,112284,12,0,114284,0:0:0:0:
