osu file format v14

[General]
AudioFilename: audio.mp3
AudioLeadIn: 0
PreviewTime: 84516
Countdown: 0
SampleSet: Normal
StackLeniency: 0.7
Mode: 1
LetterboxInBreaks: 0
WidescreenStoryboard: 1

[Editor]
Bookmarks: 2266,20551,39980,57123,75408,96266,111980
DistanceSpacing: 2.3
BeatDivisor: 4
GridSize: 32
TimelineZoom: 1.8

[Metadata]
Title:LvC3
TitleUnicode:LvC3
Artist:Rohi
ArtistUnicode:ろひ
Creator:Hivie
Version:Hivism's Muzukashii
Source:osu!
Tags:electronic instrumental fa featured artist mappers' guild mg axer idealism
BeatmapID:2649380
BeatmapSetID:1176918

[Difficulty]
HPDrainRate:6
CircleSize:2
OverallDifficulty:5
ApproachRate:9
SliderMultiplier:1.4
SliderTickRate:1

[Events]
//Background and Video events
0,0,"background.jpg",0,0
//Break Periods
//Storyboard Layer 0 (Background)
//Storyboard Layer 1 (Fail)
//Storyboard Layer 2 (Pass)
//Storyboard Layer 3 (Foreground)
//Storyboard Layer 4 (Overlay)
//Storyboard Sound Samples

[TimingPoints]
1090,285.714285714286,4,1,0,100,1,0
2232,285.714285714286,4,1,0,100,1,8
2284,285.714285714286,4,1,0,100,1,0
2284,-142.857142857143,4,1,0,100,0,0
10282,-133.333333333333,4,1,0,100,0,0
11424,-125,4,1,0,100,0,0
20855,-117.647058823529,4,1,0,100,0,0
39998,-111.111111111111,4,1,0,100,0,1
57141,-111.111111111111,4,1,0,100,0,0
57284,-111.111111111111,4,1,0,50,0,0
61426,-142.857142857143,4,1,0,50,0,0
66210,-125,4,1,0,100,0,0
96284,-111.111111111111,4,1,0,100,0,1
111998,-111.111111111111,4,1,0,100,0,0
112284,-111.111111111111,4,1,0,87,0,0
112569,-111.111111111111,4,1,0,75,0,0
112855,-111.111111111111,4,1,0,62,0,0
113141,-111.111111111111,4,1,0,50,0,0
113426,-111.111111111111,4,1,0,37,0,0
113712,-111.111111111111,4,1,0,25,0,0
113998,-111.111111111111,4,1,0,12,0,0

[HitObjects]
256,192,1090,8,0,2090,0:0:0:0:
256,192,2284,5,0,0:0:0:0:
256,192,2712,1,8,0:0:0:0:
256,192,3426,1,0,0:0:0:0:
256,192,3855,1,8,0:0:0:0:
256,192,4569,1,8,0:0:0:0:
256,192,4998,1,0,0:0:0:0:
256,192,5712,1,0,0:0:0:0:
256,192,6284,1,8,0:0:0:0:
256,192,6569,1,8,0:0:0:0:
256,192,6855,1,0,0:0:0:0:
256,192,7284,1,8,0:0:0:0:
256,192,7998,1,0,0:0:0:0:
256,192,8426,1,8,0:0:0:0:
256,192,9141,1,8,0:0:0:0:
256,192,9569,1,0,0:0:0:0:
256,96,10284,1,4,0:0:0:0:
256,192,10855,1,0,0:0:0:0:
256,192,11141,1,0,0:0:0:0:
256,96,11426,1,12,0:0:0:0:
256,192,11712,1,0,0:0:0:0:
256,192,11855,1,8,0:0:0:0:
256,192,12141,1,0,0:0:0:0:
256,192,12284,1,8,0:0:0:0:
256,192,12569,1,8,0:0:0:0:
256,192,12712,1,0,0:0:0:0:
256,192,12855,1,0,0:0:0:0:
256,192,12998,1,8,0:0:0:0:
256,192,13284,1,0,0:0:0:0:
256,192,13426,1,8,0:0:0:0:
256,192,13712,1,8,0:0:0:0:
256,192,13998,1,0,0:0:0:0:
256,192,14141,1,8,0:0:0:0:
256,192,14284,1,8,0:0:0:0:
256,192,14426,1,0,0:0:0:0:
256,192,14569,1,8,0:0:0:0:
256,192,14855,1,0,0:0:0:0:
256,192,15141,1,8,0:0:0:0:
256,192,15284,1,8,0:0:0:0:
256,192,15426,1,0,0:0:0:0:
256,192,15569,1,8,0:0:0:0:
256,192,15641,1,8,0:0:0:0:
256,192,15712,1,8,0:0:0:0:
256,192,15998,1,8,0:0:0:0:
256,192,16426,1,8,0:0:0:0:
256,192,16712,1,0,0:0:0:0:
256,192,16855,1,8,0:0:0:0:
256,192,17141,1,0,0:0:0:0:
256,192,17284,1,8,0:0:0:0:
256,192,17426,1,0,0:0:0:0:
256,192,17569,1,8,0:0:0:0:
256,192,17855,1,0,0:0:0:0:
256,192,17998,1,8,0:0:0:0:
256,192,18284,1,8,0:0:0:0:
256,192,18569,1,0,0:0:0:0:
256,192,18712,1,0,0:0:0:0:
256,192,18855,1,8,0:0:0:0:
256,192,18998,1,8,0:0:0:0:
256,192,19069,1,8,0:0:0:0:
256,192,19141,1,8,0:0:0:0:
256,192,19284,1,0,0:0:0:0:
256,192,19426,1,8,0:0:0:0:
256,192,19712,1,0,0:0:0:0:
256,192,19855,1,8,0:0:0:0:
256,192,19998,1,0,0:0:0:0:
256,192,20141,1,0,0:0:0:0:
256,192,20284,1,8,0:0:0:0:
256,192,20426,1,8,0:0:0:0:
256,192,20498,1,8,0:0:0:0:
256,192,20569,1,8,0:0:0:0:
256,192,20855,1,12,0:0:0:0:
247,195,21284,1,0,0:0:0:0:
247,195,21426,1,8,0:0:0:0:
256,192,21712,1,0,0:0:0:0:
256,192,21855,1,8,0:0:0:0:
247,195,21926,1,8,0:0:0:0:
253,191,21998,1,8,0:0:0:0:
254,191,22141,1,0,0:0:0:0:
254,191,22284,1,8,0:0:0:0:
256,192,22569,1,8,0:0:0:0:
256,192,22855,1,8,0:0:0:0:
253,191,22998,1,0,0:0:0:0:
254,191,23141,1,8,0:0:0:0:
254,191,23284,1,0,0:0:0:0:
256,192,23426,1,0,0:0:0:0:
256,192,23712,1,0,0:0:0:0:
253,191,23998,1,8,0:0:0:0:
254,191,24284,1,8,0:0:0:0:
256,192,24426,1,0,0:0:0:0:
260,193,24569,1,8,0:0:0:0:
263,192,24855,1,0,0:0:0:0:
254,191,25141,1,8,0:0:0:0:
254,191,25212,1,8,0:0:0:0:
254,191,25284,1,8,0:0:0:0:
256,192,25426,1,8,0:0:0:0:
255,187,25712,1,8,0:0:0:0:
254,191,26284,1,0,0:0:0:0:
251,192,26569,1,8,0:0:0:0:
255,187,26712,1,0,0:0:0:0:
248,194,26855,1,8,0:0:0:0:
254,191,26998,1,8,0:0:0:0:
242,187,27141,1,0,0:0:0:0:
240,188,27426,1,8,0:0:0:0:
239,185,27498,1,8,0:0:0:0:
239,185,27569,1,8,0:0:0:0:
239,185,27712,1,8,0:0:0:0:
228,181,27998,1,8,0:0:0:0:
228,181,28284,1,8,0:0:0:0:
228,181,28569,1,0,0:0:0:0:
228,181,28998,1,8,0:0:0:0:
228,181,29069,1,8,0:0:0:0:
228,181,29141,1,8,0:0:0:0:
228,181,29426,1,8,0:0:0:0:
228,181,29712,1,12,0:0:0:0:
217,180,29998,1,0,0:0:0:0:
217,180,30141,1,8,0:0:0:0:
216,178,30212,1,8,0:0:0:0:
217,180,30284,1,8,0:0:0:0:
214,178,30569,1,8,0:0:0:0:
214,178,30712,1,0,0:0:0:0:
217,180,30855,1,8,0:0:0:0:
210,175,30998,1,8,0:0:0:0:
210,175,31141,1,0,0:0:0:0:
214,178,31426,1,8,0:0:0:0:
214,178,31712,1,0,0:0:0:0:
208,181,31998,1,8,0:0:0:0:
210,175,32141,1,8,0:0:0:0:
207,180,32212,1,8,0:0:0:0:
207,180,32284,1,8,0:0:0:0:
207,180,32569,1,8,0:0:0:0:
208,181,32855,1,0,0:0:0:0:
207,180,33141,1,8,0:0:0:0:
207,180,33569,1,8,0:0:0:0:
208,181,33641,1,8,0:0:0:0:
208,181,33712,1,8,0:0:0:0:
197,189,33855,1,0,0:0:0:0:
191,183,33998,1,0,0:0:0:0:
191,183,34141,1,0,0:0:0:0:
191,183,34284,1,8,0:0:0:0:
193,192,34569,1,8,0:0:0:0:
194,192,34712,1,8,0:0:0:0:
197,189,34784,1,8,0:0:0:0:
197,189,34855,1,8,0:0:0:0:
191,191,35141,1,8,0:0:0:0:
191,191,35284,1,8,0:0:0:0:
193,192,35426,1,0,0:0:0:0:
193,192,35569,1,8,0:0:0:0:
194,192,35712,1,0,0:0:0:0:
191,191,35998,1,8,0:0:0:0:
191,191,36284,1,8,0:0:0:0:
182,191,36569,1,8,0:0:0:0:
182,191,36712,1,0,0:0:0:0:
182,191,36784,1,0,0:0:0:0:
182,191,36855,1,0,0:0:0:0:
182,191,36998,1,0,0:0:0:0:
182,191,37069,1,0,0:0:0:0:
182,191,37141,1,0,0:0:0:0:
182,189,37284,1,0,0:0:0:0:
182,191,37426,1,8,0:0:0:0:
182,191,37712,1,8,0:0:0:0:
182,191,37855,1,8,0:0:0:0:
182,191,37926,1,8,0:0:0:0:
182,191,37998,1,8,0:0:0:0:
182,191,38141,1,0,0:0:0:0:
182,189,38212,1,0,0:0:0:0:
182,189,38284,1,0,0:0:0:0:
182,191,38569,1,8,0:0:0:0:
179,197,38855,1,8,0:0:0:0:
256,192,39426,1,12,0:0:0:0:
256,192,39641,1,4,0:0:0:0:
256,192,39855,1,4,0:0:0:0:
256,192,39998,5,12,0:0:0:0:
256,192,40284,1,0,0:0:0:0:
256,192,40569,1,8,0:0:0:0:
256,192,40712,1,8,0:0:0:0:
256,192,40855,1,0,0:0:0:0:
256,192,40998,1,0,0:0:0:0:
256,192,41141,1,8,0:0:0:0:
256,192,41426,1,8,0:0:0:0:
256,192,41569,1,0,0:0:0:0:
256,192,41712,1,8,0:0:0:0:
256,192,41784,1,8,0:0:0:0:
256,192,41855,1,8,0:0:0:0:
256,192,41998,1,0,0:0:0:0:
256,192,42141,1,0,0:0:0:0:
256,192,42284,1,8,0:0:0:0:
256,192,42569,1,8,0:0:0:0:
256,192,42712,1,0,0:0:0:0:
256,192,42855,1,8,0:0:0:0:
256,192,42998,1,8,0:0:0:0:
256,192,43141,1,0,0:0:0:0:
256,192,43426,1,8,0:0:0:0:
256,192,43855,1,0,0:0:0:0:
256,192,44141,1,8,0:0:0:0:
256,192,44284,1,0,0:0:0:0:
256,192,44569,1,8,0:0:0:0:
256,192,44998,1,8,0:0:0:0:
256,192,45284,1,0,0:0:0:0:
256,192,45426,1,8,0:0:0:0:
256,192,45712,1,8,0:0:0:0:
256,192,46141,1,8,0:0:0:0:
256,192,46284,1,0,0:0:0:0:
256,192,46426,1,8,0:0:0:0:
256,192,46569,1,8,0:0:0:0:
256,192,46712,1,0,0:0:0:0:
256,192,46855,1,8,0:0:0:0:
256,192,47141,1,0,0:0:0:0:
256,192,47284,1,8,0:0:0:0:
256,192,47426,1,0,0:0:0:0:
256,192,47569,1,8,0:0:0:0:
256,192,47712,1,0,0:0:0:0:
256,192,47784,1,0,0:0:0:0:
256,192,47855,1,0,0:0:0:0:
256,96,47998,1,12,0:0:0:0:
256,192,48426,1,8,0:0:0:0:
256,192,48569,1,0,0:0:0:0:
256,192,48855,1,0,0:0:0:0:
256,192,48998,1,8,0:0:0:0:
256,192,49141,1,0,0:0:0:0:
256,192,49426,1,0,0:0:0:0:
256,192,49569,1,8,0:0:0:0:
256,192,49712,1,8,0:0:0:0:
256,192,49855,1,8,0:0:0:0:
256,192,49998,1,0,0:0:0:0:
256,192,50141,1,0,0:0:0:0:
256,192,50284,1,8,0:0:0:0:
256,192,50569,1,0,0:0:0:0:
256,192,50712,1,8,0:0:0:0:
256,192,50784,1,8,0:0:0:0:
256,192,50855,1,8,0:0:0:0:
256,192,50998,1,0,0:0:0:0:
256,192,51141,1,8,0:0:0:0:
256,192,51284,1,0,0:0:0:0:
256,192,51426,1,8,0:0:0:0:
256,192,51712,1,8,0:0:0:0:
256,192,51855,1,0,0:0:0:0:
256,192,51998,1,8,0:0:0:0:
256,192,52141,1,8,0:0:0:0:
256,192,52284,1,0,0:0:0:0:
256,192,52569,1,0,0:0:0:0:
256,192,52998,1,8,0:0:0:0:
256,192,53284,1,0,0:0:0:0:
256,192,53426,1,8,0:0:0:0:
256,192,53712,1,8,0:0:0:0:
256,192,54141,1,0,0:0:0:0:
256,192,54426,1,8,0:0:0:0:
256,192,54569,1,0,0:0:0:0:
256,192,54855,1,8,0:0:0:0:
256,192,55284,1,8,0:0:0:0:
256,192,55426,1,0,0:0:0:0:
256,192,55569,1,8,0:0:0:0:
256,192,55641,1,8,0:0:0:0:
256,192,55712,1,8,0:0:0:0:
256,192,55855,1,0,0:0:0:0:
256,192,55998,1,8,0:0:0:0:
256,192,56284,1,8,0:0:0:0:
256,192,56426,1,0,0:0:0:0:
256,192,56569,1,0,0:0:0:0:
256,192,56712,1,8,0:0:0:0:
256,192,56855,1,0,0:0:0:0:
256,192,56998,1,8,0:0:0:0:
256,192,57069,1,8,0:0:0:0:
256,192,57141,1,8,0:0:0:0:
256,192,57284,12,0,61141,0:0:0:0:
256,192,61712,5,8,0:0:0:0:
256,192,62855,1,0,0:0:0:0:
256,192,63998,1,0,0:0:0:0:
259,190,66284,5,8,0:0:0:0:
259,190,66569,1,0,0:0:0:0:
259,190,66712,1,8,0:0:0:0:
259,190,66855,1,8,0:0:0:0:
259,190,66998,1,0,0:0:0:0:
259,190,67141,1,8,0:0:0:0:
259,190,67426,1,8,0:0:0:0:
259,190,67712,1,0,0:0:0:0:
259,190,67855,1,8,0:0:0:0:
259,190,67998,1,0,0:0:0:0:
251,189,68141,1,0,0:0:0:0:
236,186,68284,1,0,0:0:0:0:
256,192,68569,1,8,0:0:0:0:
256,192,68712,1,0,0:0:0:0:
256,192,68855,1,8,0:0:0:0:
256,192,68998,1,8,0:0:0:0:
256,192,69141,1,0,0:0:0:0:
256,192,69426,1,0,0:0:0:0:
256,192,69712,1,8,0:0:0:0:
256,192,69855,1,0,0:0:0:0:
256,192,69998,1,0,0:0:0:0:
256,192,70141,1,8,0:0:0:0:
256,192,70284,1,8,0:0:0:0:
256,192,70855,1,0,0:0:0:0:
256,192,71141,1,0,0:0:0:0:
256,192,71284,1,8,0:0:0:0:
256,192,71426,1,0,0:0:0:0:
256,192,71569,1,0,0:0:0:0:
256,192,71712,1,8,0:0:0:0:
256,192,71998,1,0,0:0:0:0:
256,192,72284,1,0,0:0:0:0:
256,192,72426,1,8,0:0:0:0:
256,192,72569,1,0,0:0:0:0:
256,192,72712,1,0,0:0:0:0:
247,198,72855,1,0,0:0:0:0:
256,192,73141,1,8,0:0:0:0:
256,192,73284,1,0,0:0:0:0:
256,192,73426,1,8,0:0:0:0:
256,192,73569,1,8,0:0:0:0:
256,192,73712,1,0,0:0:0:0:
256,192,73998,1,0,0:0:0:0:
256,192,74284,1,8,0:0:0:0:
256,192,74426,1,8,0:0:0:0:
256,192,74498,1,8,0:0:0:0:
256,192,74569,1,8,0:0:0:0:
256,192,74712,1,8,0:0:0:0:
224,192,74855,1,8,0:0:0:0:
224,192,74998,1,0,0:0:0:0:
256,192,75141,1,8,0:0:0:0:
256,96,75426,5,4,0:0:0:0:
256,192,75998,1,0,0:0:0:0:
256,192,76284,1,8,0:0:0:0:
256,192,76426,1,8,0:0:0:0:
256,192,76569,1,0,0:0:0:0:
256,192,77141,1,8,0:0:0:0:
256,192,77426,1,8,0:0:0:0:
256,192,77712,1,0,0:0:0:0:
256,192,77998,1,0,0:0:0:0:
256,192,78141,1,0,0:0:0:0:
256,192,78284,1,8,0:0:0:0:
256,192,78569,1,8,0:0:0:0:
256,192,78855,1,0,0:0:0:0:
256,192,79141,1,8,0:0:0:0:
256,192,79426,1,0,0:0:0:0:
256,192,79569,1,8,0:0:0:0:
256,192,79855,1,8,0:0:0:0:
256,192,79998,1,0,0:0:0:0:
256,192,80569,1,8,0:0:0:0:
256,192,81141,1,0,0:0:0:0:
256,192,81426,1,8,0:0:0:0:
256,192,81712,1,8,0:0:0:0:
256,192,81855,1,0,0:0:0:0:
256,192,82141,1,8,0:0:0:0:
256,192,82284,1,8,0:0:0:0:
256,192,82569,1,0,0:0:0:0:
256,192,82855,1,8,0:0:0:0:
256,192,83141,1,8,0:0:0:0:
256,192,83284,1,0,0:0:0:0:
256,192,83855,1,8,0:0:0:0:
256,192,83926,1,8,0:0:0:0:
256,192,83998,1,8,0:0:0:0:
256,192,84284,1,0,0:0:0:0:
256,192,84569,1,0,0:0:0:0:
256,192,85141,1,8,0:0:0:0:
256,192,85712,1,8,0:0:0:0:
256,192,85998,1,0,0:0:0:0:
256,192,86284,1,8,0:0:0:0:
256,192,86426,1,0,0:0:0:0:
256,192,86712,1,0,0:0:0:0:
256,192,87141,1,8,0:0:0:0:
256,192,87426,1,8,0:0:0:0:
256,192,87569,1,0,0:0:0:0:
256,192,87855,1,8,0:0:0:0:
256,192,88569,1,0,0:0:0:0:
256,192,89141,1,12,0:0:0:0:
256,192,89426,1,0,0:0:0:0:
256,192,89712,1,8,0:0:0:0:
256,192,89998,1,0,0:0:0:0:
256,192,90141,1,0,0:0:0:0:
256,192,90284,1,8,0:0:0:0:
256,192,90569,1,8,0:0:0:0:
256,192,90855,1,0,0:0:0:0:
256,192,90998,1,8,0:0:0:0:
256,192,91141,1,8,0:0:0:0:
256,192,91284,1,0,0:0:0:0:
256,192,91426,1,8,0:0:0:0:
256,192,91712,1,0,0:0:0:0:
256,192,91855,1,8,0:0:0:0:
256,192,91998,1,0,0:0:0:0:
256,192,92141,1,8,0:0:0:0:
256,192,92284,1,0,0:0:0:0:
256,192,92355,1,0,0:0:0:0:
256,192,92426,1,0,0:0:0:0:
256,192,92569,1,8,0:0:0:0:
256,192,92855,1,8,0:0:0:0:
256,192,92998,1,8,0:0:0:0:
256,192,93141,1,0,0:0:0:0:
256,192,93284,1,0,0:0:0:0:
256,192,93426,1,8,0:0:0:0:
256,192,93498,1,8,0:0:0:0:
256,192,93569,1,8,0:0:0:0:
256,192,93712,1,0,0:0:0:0:
256,96,94284,1,12,0:0:0:0:
256,96,94498,1,12,0:0:0:0:
256,96,94712,1,4,0:0:0:0:
256,96,94855,1,12,0:0:0:0:
256,192,95426,1,8,0:0:0:0:
256,192,95641,1,0,0:0:0:0:
256,192,95855,1,0,0:0:0:0:
256,192,95998,1,0,0:0:0:0:
256,192,96069,1,0,0:0:0:0:
256,192,96141,1,0,0:0:0:0:
256,96,96284,1,12,0:0:0:0:
256,192,96569,1,8,0:0:0:0:
256,192,96712,1,8,0:0:0:0:
256,192,96855,1,0,0:0:0:0:
256,192,97141,1,8,0:0:0:0:
256,192,97284,1,8,0:0:0:0:
256,192,97355,1,8,0:0:0:0:
256,192,97426,1,8,0:0:0:0:
256,192,97569,1,0,0:0:0:0:
256,192,97712,1,8,0:0:0:0:
256,192,97998,1,8,0:0:0:0:
256,192,98141,1,8,0:0:0:0:
256,192,98284,1,0,0:0:0:0:
256,192,98712,1,0,0:0:0:0:
256,192,98998,1,0,0:0:0:0:
256,192,99141,1,8,0:0:0:0:
256,192,99426,1,0,0:0:0:0:
256,192,99855,1,0,0:0:0:0:
256,192,100141,1,0,0:0:0:0:
256,192,100284,1,8,0:0:0:0:
256,192,100569,1,0,0:0:0:0:
256,192,100712,1,8,0:0:0:0:
256,192,100784,1,8,0:0:0:0:
256,192,100855,1,8,0:0:0:0:
256,192,101141,1,8,0:0:0:0:
256,192,101284,1,0,0:0:0:0:
256,192,101355,1,0,0:0:0:0:
256,192,101426,1,0,0:0:0:0:
256,192,101712,1,0,0:0:0:0:
256,192,101998,1,0,0:0:0:0:
256,192,102284,1,0,0:0:0:0:
256,192,102426,1,0,0:0:0:0:
256,192,102569,1,8,0:0:0:0:
256,192,102855,1,12,0:0:0:0:
256,192,103284,1,8,0:0:0:0:
256,192,103426,1,0,0:0:0:0:
256,192,103498,1,0,0:0:0:0:
256,192,103569,1,0,0:0:0:0:
256,192,103712,1,8,0:0:0:0:
256,192,103998,1,8,0:0:0:0:
256,192,104284,1,0,0:0:0:0:
256,192,104426,1,8,0:0:0:0:
256,192,104569,1,0,0:0:0:0:
256,192,104712,1,0,0:0:0:0:
256,192,104855,1,8,0:0:0:0:
256,192,105141,1,8,0:0:0:0:
256,192,105212,1,8,0:0:0:0:
256,192,105284,1,8,0:0:0:0:
256,192,105426,1,8,0:0:0:0:
256,192,105712,1,0,0:0:0:0:
256,192,105998,1,8,0:0:0:0:
256,192,106141,1,0,0:0:0:0:
256,192,106284,1,8,0:0:0:0:
256,192,106426,1,8,0:0:0:0:
256,192,106498,1,8,0:0:0:0:
256,192,106569,1,8,0:0:0:0:
256,192,106855,1,8,0:0:0:0:
256,192,106998,1,8,0:0:0:0:
256,192,107141,1,0,0:0:0:0:
256,192,107426,1,0,0:0:0:0:
256,192,107855,1,0,0:0:0:0:
256,192,108141,1,0,0:0:0:0:
256,192,108284,1,8,0:0:0:0:
256,192,108569,1,0,0:0:0:0:
256,192,108998,1,0,0:0:0:0:
256,192,109284,1,0,0:0:0:0:
256,192,109426,1,8,0:0:0:0:
256,192,109712,1,8,0:0:0:0:
256,192,109807,1,8,0:0:0:0:
256,192,109903,1,8,0:0:0:0:
256,192,109998,1,8,0:0:0:0:
256,192,110284,1,0,0:0:0:0:
256,192,110379,1,0,0:0:0:0:
256,192,110474,1,0,0:0:0:0:
256,192,110569,1,0,0:0:0:0:
256,192,110855,1,0,0:0:0:0:
256,192,111141,1,0,0:0:0:0:
256,192,111284,1,0,0:0:0:0:
256,192,111355,1,0,0:0:0:0:
256,192,111426,1,0,0:0:0:0:
256,192,111569,1,0,0:0:0:0:
256,192,111712,1,8,0:0:0:0:
256,192,111855,1,8,0:0:0:0:
256,192,111926,1,8,0:0:0:0:
256,192,111998,1,8,0:0:0:0:
256,192,112141,12,0,114284,0:0:0:0:
