osu file format v14

[General]
AudioFilename: audio.mp3
AudioLeadIn: 0
PreviewTime: 84516
Countdown: 0
SampleSet: None
StackLeniency: 0.7
Mode: 1
LetterboxInBreaks: 0
WidescreenStoryboard: 0

[Editor]
Bookmarks: 2266,11408,20551,38837,47980,57123,66266,75408,84551,93694,102837,111980
DistanceSpacing: 2.7
BeatDivisor: 4
GridSize: 32
TimelineZoom: 3.899998

[Metadata]
Title:LvC3
TitleUnicode:LvC3
Artist:Rohi
ArtistUnicode:ろひ
Creator:Hivie
Version:Hell Oni
Source:osu!
Tags:electronic instrumental fa featured artist mappers' guild mg axer idealism
BeatmapID:2454551
BeatmapSetID:1176918

[Difficulty]
HPDrainRate:6
CircleSize:2
OverallDifficulty:7.2
ApproachRate:9
SliderMultiplier:1.4
SliderTickRate:1

[Events]
//Background and Video events
0,0,"background.jpg",0,0
//Break Periods
//Storyboard Layer 0 (Background)
//Storyboard Layer 1 (Fail)
//Storyboard Layer 2 (Pass)
//Storyboard Layer 3 (Foreground)
//Storyboard Layer 4 (Overlay)
//Storyboard Sound Samples

[TimingPoints]
1090,285.714285714286,4,1,0,100,1,0
2232,285.714285714286,4,1,0,100,1,8
2284,285.714285714286,4,1,0,100,1,0
2284,-125,4,1,0,100,0,0
10282,-111.111111111111,4,1,0,100,0,0
11424,-100,4,1,0,100,0,0
18282,-95.2380952380952,4,1,0,100,0,0
20853,-71.4285714285714,4,1,0,100,0,0
20924,-100,4,1,0,100,0,0
36569,-100,4,1,0,100,0,0
36641,-99.5346753925399,4,1,0,100,0,0
36712,-99.0735631113458,4,1,0,100,0,0
36784,-98.6168007526434,4,1,0,100,0,0
36855,-98.1642307212813,4,1,0,100,0,0
36926,-97.7157000792474,4,1,0,100,0,0
36998,-97.271344251069,4,1,0,100,0,0
37069,-96.8310114870629,4,1,0,100,0,0
37141,-96.3945544788284,4,1,0,100,0,0
37212,-95.9621064833918,4,1,0,100,0,0
37284,-95.5335212796142,4,1,0,100,0,0
37355,-95.1086568850583,4,1,0,100,0,0
37426,-94.6876443986577,4,1,0,100,0,0
37498,-94.2703428329558,4,1,0,100,0,0
37569,-93.8566152488843,4,1,0,100,0,0
37641,-93.4465906011419,4,1,0,100,0,0
37712,-93.0401328613097,4,1,0,100,0,0
37784,-92.6371098703914,4,1,0,100,0,0
37855,-92.2376484564952,4,1,0,100,0,0
37926,-91.8416172941439,4,1,0,100,0,0
37998,-91.4489723878973,4,1,0,100,0,0
38069,-91.059587572916,4,1,0,100,0,0
38141,-90.6735868748169,4,1,0,100,0,0
38212,-90.2908448694936,4,1,0,100,0,0
38284,-89.9112396242429,4,1,0,100,0,0
38355,-89.5348930908609,4,1,0,100,0,0
38426,-89.1616840145583,4,1,0,100,0,0
38498,-88.7914944851603,4,1,0,100,0,0
38569,-88.4244444071097,4,1,0,100,0,0
38641,-88.0604164905458,4,1,0,100,0,0
38712,-87.6992966516409,4,1,0,100,0,0
38784,-87.3412027757034,4,1,0,100,0,0
38853,-86.9565217391304,4,1,0,100,0,0
38924,-87.6674667784135,4,1,0,100,0,0
38996,-88.3902109609165,4,1,0,100,0,0
39067,-89.1248916018506,4,1,0,100,0,0
39139,-89.8719683938262,4,1,0,100,0,0
39210,-90.6315934484234,4,1,0,100,0,0
39282,-91.4042526742599,4,1,0,100,0,0
39353,-92.1901144540271,4,1,0,100,0,0
39424,-92.9896065516757,4,1,0,100,0,0
39639,-96.1538461538461,4,1,0,100,0,0
39853,-100,4,1,0,100,0,0
39996,-90.9090909090909,4,1,0,100,0,0
39998,-90.9090909090909,4,1,0,100,0,1
45710,-90.9090909090909,4,1,0,100,0,1
45782,-90.5243623690226,4,1,0,100,0,1
45853,-90.1427952018793,4,1,0,100,0,1
45924,-89.7645117797969,4,1,0,100,0,1
45996,-89.3893900157415,4,1,0,100,0,1
46067,-89.0173111965084,4,1,0,100,0,1
46139,-88.6483956413357,4,1,0,100,0,1
46210,-88.2825252686658,4,1,0,100,0,1
46282,-87.9195852305647,4,1,0,100,0,1
46353,-87.5596938212627,4,1,0,100,0,1
46424,-87.2027367706908,4,1,0,100,0,1
46496,-86.8486029099493,4,1,0,100,0,1
46567,-86.4974085376402,4,1,0,100,0,1
46639,-86.1490430133557,4,1,0,100,0,1
46710,-85.8033986726214,4,1,0,100,0,1
46853,-85.120509361128,4,1,0,100,0,1
46924,-84.7830528851249,4,1,0,100,0,1
46996,-84.4483328210135,4,1,0,100,0,1
47067,-84.1162452863359,4,1,0,100,0,1
47139,-83.7867593459941,4,1,0,100,0,1
47210,-83.4597748922952,4,1,0,100,0,1
47282,-83.1354017975537,4,1,0,100,0,1
47353,-82.8135403451006,4,1,0,100,0,1
47424,-82.4940934229109,4,1,0,100,0,1
47496,-82.1771690458327,4,1,0,100,0,1
47567,-81.8626704585456,4,1,0,100,0,1
47639,-81.5505034112576,4,1,0,100,0,1
47710,-81.2407740945919,4,1,0,100,0,1
47758,-81.0355697529874,4,1,0,100,0,1
47805,-80.8313994421017,4,1,0,100,0,1
47853,-80.6282553658104,4,1,0,100,0,1
47924,-80.3254788402607,4,1,0,100,0,1
47996,-80.0249677899505,4,1,0,100,0,1
48067,-90.951920995523,4,1,0,100,0,1
54853,-86.9565217391304,4,1,0,100,0,1
57139,-86.9565217391304,4,1,0,100,0,1
57141,-86.9565217391304,4,1,0,50,0,0
57355,-125,4,1,0,50,0,0
66210,-100,4,1,0,100,0,0
74853,-98.0392156862745,4,1,0,100,0,0
74924,-97.0873786407767,4,1,0,100,0,0
74996,-96.1538461538461,4,1,0,100,0,0
75067,-95.2380952380952,4,1,0,100,0,0
75139,-94.3396226415094,4,1,0,100,0,0
75210,-93.4579439252336,4,1,0,100,0,0
75282,-92.5925925925926,4,1,0,100,0,0
75353,-91.743119266055,4,1,0,100,0,0
75424,-90.9090909090909,4,1,0,100,0,0
75496,-100,4,1,0,100,0,0
84710,-111.111111111111,4,1,0,100,0,0
88996,-105.263157894737,4,1,0,100,0,0
89139,-100,4,1,0,100,0,0
90139,-95.2380952380952,4,1,0,100,0,0
90282,-90.9090909090909,4,1,0,100,0,0
91426,-90.9090909090909,4,1,0,100,0,0
91498,-90.7805126920235,4,1,0,100,0,0
91569,-90.6522154948206,4,1,0,100,0,0
91641,-90.5243623690226,4,1,0,100,0,0
91712,-90.3967876597537,4,1,0,100,0,0
91784,-90.269653508962,4,1,0,100,0,0
91855,-90.1427952018793,4,1,0,100,0,0
91926,-90.0163739784267,4,1,0,100,0,0
91998,-89.8902260559405,4,1,0,100,0,0
92069,-89.7645117797969,4,1,0,100,0,0
92141,-89.6391486432219,4,1,0,100,0,0
92212,-89.5140550493536,4,1,0,100,0,0
92284,-89.3893900157415,4,1,0,100,0,0
92355,-89.2649920554157,4,1,0,100,0,0
92426,-89.1410193097276,4,1,0,100,0,0
92498,-89.0173111965084,4,1,0,100,0,0
92569,-88.8940249881104,4,1,0,100,0,0
92617,-88.8119974351095,4,1,0,100,0,0
92664,-88.7301211254883,4,1,0,100,0,0
92712,-88.6483956413357,4,1,0,100,0,0
92784,-88.5261284868229,4,1,0,100,0,0
92855,-88.4041199856078,4,1,0,100,0,0
92926,-88.2825252686658,4,1,0,100,0,0
92998,-88.161186861162,4,1,0,100,0,0
93069,-88.0402590496582,4,1,0,100,0,0
93141,-87.9195852305647,4,1,0,100,0,0
93188,-87.839345350927,4,1,0,100,0,0
93236,-87.7592517997229,4,1,0,100,0,0
93284,-87.6793810537133,4,1,0,100,0,0
93355,-87.5596938212627,4,1,0,100,0,0
93426,-87.4404093610205,4,1,0,100,0,0
93498,-87.3213732159152,4,1,0,100,0,0
93569,-87.2027367706908,4,1,0,100,0,0
93641,-87.0843464145633,4,1,0,100,0,0
93712,-86.9663527181334,4,1,0,100,0,0
93782,-87.6674667784135,4,1,0,100,0,0
93853,-88.3902109609165,4,1,0,100,0,0
93924,-89.1248916018506,4,1,0,100,0,0
93996,-89.8719683938262,4,1,0,100,0,0
94067,-90.6315934484234,4,1,0,100,0,0
94139,-91.4042526742599,4,1,0,100,0,0
94210,-92.1901144540271,4,1,0,100,0,0
94282,-92.9896065516757,4,1,0,100,0,0
94496,-95.4736879289752,4,1,0,100,0,0
94710,-98.0940329399763,4,1,0,100,0,0
94853,-100,4,1,0,100,0,0
95996,-100,4,1,0,100,0,0
96067,-97.6095423088561,4,1,0,100,0,0
96139,-95.3307022059524,4,1,0,100,0,0
96210,-93.1559271856011,4,1,0,100,0,0
96282,-91.0780821506086,4,1,0,100,0,0
96284,-90.9090909090908,4,1,0,100,0,1
100567,-90.9090909090909,4,1,0,100,0,1
100639,-90.5243623690226,4,1,0,100,0,1
100710,-90.1427952018793,4,1,0,100,0,1
100781,-89.7645117797969,4,1,0,100,0,1
100853,-89.3893900157415,4,1,0,100,0,1
100924,-89.0173111965084,4,1,0,100,0,1
100996,-88.6483956413357,4,1,0,100,0,1
101067,-88.2825252686658,4,1,0,100,0,1
101139,-87.9195852305647,4,1,0,100,0,1
101210,-87.5596938212627,4,1,0,100,0,1
101281,-87.2027367706908,4,1,0,100,0,1
101353,-86.8486029099493,4,1,0,100,0,1
101424,-86.4974085376402,4,1,0,100,0,1
101496,-86.1490430133557,4,1,0,100,0,1
101567,-85.8033986726214,4,1,0,100,0,1
101710,-85.120509361128,4,1,0,100,0,1
101781,-84.7830528851249,4,1,0,100,0,1
101853,-84.4483328210135,4,1,0,100,0,1
101924,-84.1162452863359,4,1,0,100,0,1
101996,-83.7867593459941,4,1,0,100,0,1
102067,-83.4597748922952,4,1,0,100,0,1
102139,-83.1354017975537,4,1,0,100,0,1
102210,-82.8135403451006,4,1,0,100,0,1
102281,-82.4940934229109,4,1,0,100,0,1
102353,-82.1771690458327,4,1,0,100,0,1
102424,-81.8626704585456,4,1,0,100,0,1
102496,-81.5505034112576,4,1,0,100,0,1
102567,-81.2407740945919,4,1,0,100,0,1
102615,-81.0355697529874,4,1,0,100,0,1
102662,-80.8313994421017,4,1,0,100,0,1
102710,-80.6282553658104,4,1,0,100,0,1
102781,-80.3254788402607,4,1,0,100,0,1
102853,-80.0249677899505,4,1,0,100,0,1
102924,-90.951920995523,4,1,0,100,0,1
109710,-86.9565217391304,4,1,0,100,0,1
111996,-86.9565217391304,4,1,0,100,0,1
111998,-86.9565217391304,4,1,0,100,0,0
112284,-86.9565217391304,4,1,0,87,0,0
112569,-86.9565217391304,4,1,0,75,0,0
112855,-86.9565217391304,4,1,0,62,0,0
113141,-86.9565217391304,4,1,0,50,0,0
113426,-86.9565217391304,4,1,0,37,0,0
113712,-86.9565217391304,4,1,0,25,0,0
113998,-86.9565217391304,4,1,0,12,0,0

[HitObjects]
256,192,1090,12,0,2090,0:0:0:0:
256,192,2284,5,0,0:0:0:0:
256,192,2712,1,8,0:0:0:0:
256,192,3141,1,0,0:0:0:0:
256,192,3426,1,0,0:0:0:0:
256,192,3855,1,8,0:0:0:0:
256,192,4284,1,8,0:0:0:0:
256,192,4569,1,0,0:0:0:0:
256,192,4998,1,8,0:0:0:0:
256,192,5426,1,8,0:0:0:0:
256,192,5712,1,0,0:0:0:0:
256,192,5998,1,0,0:0:0:0:
256,192,6284,1,8,0:0:0:0:
256,192,6569,1,8,0:0:0:0:
256,192,6855,1,0,0:0:0:0:
256,192,7284,1,8,0:0:0:0:
256,192,7712,1,0,0:0:0:0:
256,192,7998,1,0,0:0:0:0:
256,192,8426,1,8,0:0:0:0:
256,192,8855,1,0,0:0:0:0:
256,192,9141,1,8,0:0:0:0:
256,192,9569,1,0,0:0:0:0:
256,192,9998,1,8,0:0:0:0:
256,96,10284,1,4,0:0:0:0:
256,192,10855,1,8,0:0:0:0:
352,192,11141,1,0,0:0:0:0:
352,192,11176,1,0,0:0:0:0:
352,192,11284,1,0,0:0:0:0:
352,192,11319,1,0,0:0:0:0:
256,96,11426,1,12,0:0:0:0:
256,192,11569,1,0,0:0:0:0:
256,192,11712,1,8,0:0:0:0:
256,192,11855,1,8,0:0:0:0:
256,192,11926,1,8,0:0:0:0:
256,192,11998,1,0,0:0:0:0:
256,192,12141,1,0,0:0:0:0:
256,192,12284,1,8,0:0:0:0:
256,192,12426,1,0,0:0:0:0:
256,192,12569,1,8,0:0:0:0:
256,192,12641,1,0,0:0:0:0:
256,192,12712,1,0,0:0:0:0:
256,192,12855,1,0,0:0:0:0:
256,192,12998,1,8,0:0:0:0:
256,192,13069,1,8,0:0:0:0:
256,192,13141,1,0,0:0:0:0:
256,192,13284,1,0,0:0:0:0:
256,192,13426,1,8,0:0:0:0:
256,192,13498,1,8,0:0:0:0:
256,192,13569,1,0,0:0:0:0:
256,192,13641,1,0,0:0:0:0:
256,192,13712,1,8,0:0:0:0:
256,192,13855,1,0,0:0:0:0:
256,192,13998,1,8,0:0:0:0:
256,192,14141,1,0,0:0:0:0:
256,192,14212,1,0,0:0:0:0:
256,192,14284,1,8,0:0:0:0:
256,192,14426,1,0,0:0:0:0:
256,192,14569,1,8,0:0:0:0:
256,192,14712,1,8,0:0:0:0:
256,192,14855,1,0,0:0:0:0:
256,192,14998,1,0,0:0:0:0:
256,192,15069,1,0,0:0:0:0:
256,192,15141,1,8,0:0:0:0:
256,192,15284,1,0,0:0:0:0:
256,192,15426,1,8,0:0:0:0:
256,192,15498,1,0,0:0:0:0:
256,192,15569,1,0,0:0:0:0:
256,192,15641,1,8,0:0:0:0:
256,192,15712,1,0,0:0:0:0:
256,192,15784,1,0,0:0:0:0:
256,192,15855,1,8,0:0:0:0:
256,192,15926,1,0,0:0:0:0:
256,192,15998,1,8,0:0:0:0:
256,192,16141,1,0,0:0:0:0:
256,192,16284,1,8,0:0:0:0:
256,192,16426,1,8,0:0:0:0:
256,192,16498,1,8,0:0:0:0:
256,192,16569,1,0,0:0:0:0:
256,192,16712,1,0,0:0:0:0:
256,192,16855,1,8,0:0:0:0:
256,192,16998,1,8,0:0:0:0:
256,192,17141,1,0,0:0:0:0:
256,192,17212,1,0,0:0:0:0:
256,192,17284,1,8,0:0:0:0:
256,192,17426,1,0,0:0:0:0:
256,192,17569,1,8,0:0:0:0:
256,192,17641,1,8,0:0:0:0:
256,192,17712,1,0,0:0:0:0:
256,192,17855,1,0,0:0:0:0:
256,192,17998,1,0,0:0:0:0:
256,192,18069,1,8,0:0:0:0:
256,192,18141,1,8,0:0:0:0:
256,192,18284,1,8,0:0:0:0:
256,192,18379,1,0,0:0:0:0:
256,192,18474,1,0,0:0:0:0:
256,192,18569,1,8,0:0:0:0:
256,192,18664,1,0,0:0:0:0:
256,192,18760,1,0,0:0:0:0:
256,192,18855,1,8,0:0:0:0:
160,192,18998,1,8,0:0:0:0:
160,192,19045,1,8,0:0:0:0:
160,192,19093,1,8,0:0:0:0:
160,192,19141,1,0,0:0:0:0:
256,192,19212,1,0,0:0:0:0:
256,192,19284,1,8,0:0:0:0:
256,192,19355,1,0,0:0:0:0:
256,192,19426,1,8,0:0:0:0:
256,192,19569,1,0,0:0:0:0:
256,192,19641,1,0,0:0:0:0:
256,192,19712,1,8,0:0:0:0:
256,192,19784,1,0,0:0:0:0:
256,192,19855,1,8,0:0:0:0:
256,192,19926,1,8,0:0:0:0:
256,192,19998,1,0,0:0:0:0:
256,192,20069,1,0,0:0:0:0:
256,192,20141,1,0,0:0:0:0:
256,192,20212,1,0,0:0:0:0:
256,192,20284,1,8,0:0:0:0:
256,192,20355,1,0,0:0:0:0:
256,192,20426,1,8,0:0:0:0:
352,192,20569,1,0,0:0:0:0:
352,192,20605,1,0,0:0:0:0:
256,96,20855,1,12,0:0:0:0:
256,192,21141,1,8,0:0:0:0:
256,192,21212,1,0,0:0:0:0:
256,192,21284,1,0,0:0:0:0:
256,192,21426,1,8,0:0:0:0:
256,192,21569,1,0,0:0:0:0:
256,192,21641,1,0,0:0:0:0:
256,192,21712,1,8,0:0:0:0:
256,192,21855,1,0,0:0:0:0:
256,192,21926,1,0,0:0:0:0:
256,192,21998,1,8,0:0:0:0:
256,192,22141,1,0,0:0:0:0:
256,192,22284,1,8,0:0:0:0:
256,192,22355,1,0,0:0:0:0:
256,192,22426,1,0,0:0:0:0:
256,192,22569,1,8,0:0:0:0:
256,192,22641,1,8,0:0:0:0:
256,192,22712,1,0,0:0:0:0:
256,192,22855,1,8,0:0:0:0:
256,192,22998,1,0,0:0:0:0:
256,192,23141,1,8,0:0:0:0:
256,192,23212,1,8,0:0:0:0:
256,192,23284,1,0,0:0:0:0:
256,192,23355,1,0,0:0:0:0:
256,192,23426,1,8,0:0:0:0:
256,192,23569,1,0,0:0:0:0:
256,192,23641,1,0,0:0:0:0:
256,192,23712,1,8,0:0:0:0:
256,192,23855,1,0,0:0:0:0:
256,192,23998,1,8,0:0:0:0:
256,192,24069,1,8,0:0:0:0:
256,192,24141,1,8,0:0:0:0:
256,192,24284,1,0,0:0:0:0:
256,192,24355,1,0,0:0:0:0:
256,192,24426,1,0,0:0:0:0:
256,192,24569,1,8,0:0:0:0:
256,192,24641,1,8,0:0:0:0:
256,192,24712,1,0,0:0:0:0:
256,192,24855,1,8,0:0:0:0:
256,192,24926,1,0,0:0:0:0:
256,192,24998,1,0,0:0:0:0:
256,192,25141,1,8,0:0:0:0:
256,192,25212,1,0,0:0:0:0:
256,192,25284,1,8,0:0:0:0:
256,192,25355,1,0,0:0:0:0:
256,192,25426,1,0,0:0:0:0:
256,192,25498,1,0,0:0:0:0:
256,192,25569,1,8,0:0:0:0:
256,192,25641,1,8,0:0:0:0:
256,192,25712,1,0,0:0:0:0:
256,192,25784,1,0,0:0:0:0:
256,192,25855,1,8,0:0:0:0:
256,192,25926,1,0,0:0:0:0:
256,192,25998,1,8,0:0:0:0:
256,192,26069,1,0,0:0:0:0:
256,192,26141,1,0,0:0:0:0:
256,192,26212,1,0,0:0:0:0:
256,192,26284,1,8,0:0:0:0:
256,192,26355,1,0,0:0:0:0:
256,192,26426,1,8,0:0:0:0:
256,192,26498,1,0,0:0:0:0:
256,192,26569,1,8,0:0:0:0:
256,192,26641,1,0,0:0:0:0:
256,192,26712,1,0,0:0:0:0:
256,192,26784,1,0,0:0:0:0:
256,192,26855,1,8,0:0:0:0:
256,192,26926,1,0,0:0:0:0:
256,192,26998,1,0,0:0:0:0:
256,192,27069,1,0,0:0:0:0:
256,192,27141,1,8,0:0:0:0:
256,192,27212,1,8,0:0:0:0:
256,192,27284,1,0,0:0:0:0:
256,192,27355,1,0,0:0:0:0:
256,192,27426,1,8,0:0:0:0:
256,192,27498,1,0,0:0:0:0:
256,192,27569,1,0,0:0:0:0:
256,192,27641,1,0,0:0:0:0:
256,192,27712,1,8,0:0:0:0:
256,192,27784,1,8,0:0:0:0:
256,192,27855,1,0,0:0:0:0:
256,192,27926,1,0,0:0:0:0:
256,192,27998,1,8,0:0:0:0:
256,192,28069,1,0,0:0:0:0:
256,192,28141,1,8,0:0:0:0:
256,192,28212,1,8,0:0:0:0:
256,192,28284,1,0,0:0:0:0:
256,192,28355,1,0,0:0:0:0:
256,192,28426,1,8,0:0:0:0:
256,192,28498,1,0,0:0:0:0:
256,192,28569,1,8,0:0:0:0:
256,192,28641,1,8,0:0:0:0:
256,192,28712,1,0,0:0:0:0:
256,192,28784,1,0,0:0:0:0:
256,192,28855,1,8,0:0:0:0:
256,192,28926,1,0,0:0:0:0:
256,192,28998,1,8,0:0:0:0:
256,192,29069,1,8,0:0:0:0:
256,192,29141,1,0,0:0:0:0:
256,192,29212,1,0,0:0:0:0:
256,192,29284,1,8,0:0:0:0:
256,192,29355,1,0,0:0:0:0:
256,192,29426,1,8,0:0:0:0:
256,192,29498,1,0,0:0:0:0:
256,192,29569,1,8,0:0:0:0:
256,192,29641,1,8,0:0:0:0:
256,192,29712,1,0,0:0:0:0:
256,192,29855,1,0,0:0:0:0:
256,192,29926,1,0,0:0:0:0:
256,192,29998,1,8,0:0:0:0:
256,192,30141,1,0,0:0:0:0:
256,192,30284,1,8,0:0:0:0:
256,192,30355,1,8,0:0:0:0:
256,192,30426,1,0,0:0:0:0:
256,192,30569,1,0,0:0:0:0:
256,192,30712,1,0,0:0:0:0:
256,192,30784,1,0,0:0:0:0:
256,192,30855,1,8,0:0:0:0:
256,192,30998,1,0,0:0:0:0:
256,192,31141,1,8,0:0:0:0:
256,192,31212,1,8,0:0:0:0:
256,192,31284,1,0,0:0:0:0:
256,192,31426,1,8,0:0:0:0:
256,192,31498,1,0,0:0:0:0:
256,192,31569,1,8,0:0:0:0:
256,192,31712,1,8,0:0:0:0:
256,192,31855,1,0,0:0:0:0:
256,192,31926,1,0,0:0:0:0:
256,192,31998,1,8,0:0:0:0:
256,192,32141,1,0,0:0:0:0:
256,192,32284,1,8,0:0:0:0:
256,192,32355,1,8,0:0:0:0:
256,192,32426,1,8,0:0:0:0:
256,192,32569,1,0,0:0:0:0:
256,192,32641,1,0,0:0:0:0:
256,192,32712,1,0,0:0:0:0:
256,192,32855,1,8,0:0:0:0:
256,192,32998,1,0,0:0:0:0:
256,192,33069,1,0,0:0:0:0:
256,192,33141,1,8,0:0:0:0:
256,192,33284,1,0,0:0:0:0:
256,192,33426,1,8,0:0:0:0:
256,192,33498,1,8,0:0:0:0:
256,192,33569,1,0,0:0:0:0:
256,192,33712,1,8,0:0:0:0:
256,192,33855,1,8,0:0:0:0:
256,192,33926,1,0,0:0:0:0:
256,192,33998,1,8,0:0:0:0:
256,192,34069,1,8,0:0:0:0:
256,192,34141,1,0,0:0:0:0:
256,192,34212,1,0,0:0:0:0:
256,192,34284,1,8,0:0:0:0:
256,192,34426,1,0,0:0:0:0:
256,192,34569,1,8,0:0:0:0:
256,192,34641,1,8,0:0:0:0:
256,192,34712,1,0,0:0:0:0:
256,192,34855,1,8,0:0:0:0:
256,192,34998,1,0,0:0:0:0:
256,192,35069,1,0,0:0:0:0:
256,192,35141,1,8,0:0:0:0:
256,192,35284,1,8,0:0:0:0:
256,192,35426,1,8,0:0:0:0:
256,192,35498,1,8,0:0:0:0:
256,192,35569,1,0,0:0:0:0:
256,192,35712,1,8,0:0:0:0:
256,192,35784,1,0,0:0:0:0:
256,192,35855,1,0,0:0:0:0:
256,192,35998,1,8,0:0:0:0:
256,192,36069,1,8,0:0:0:0:
256,192,36141,1,0,0:0:0:0:
256,192,36284,1,8,0:0:0:0:
256,192,36426,1,0,0:0:0:0:
256,192,36569,1,8,0:0:0:0:
256,192,36641,1,8,0:0:0:0:
256,192,36712,1,8,0:0:0:0:
256,192,36784,1,0,0:0:0:0:
256,192,36855,1,0,0:0:0:0:
256,192,36926,1,0,0:0:0:0:
256,192,36998,1,8,0:0:0:0:
256,192,37069,1,0,0:0:0:0:
256,192,37141,1,8,0:0:0:0:
256,192,37212,1,0,0:0:0:0:
256,192,37284,1,0,0:0:0:0:
256,192,37355,1,8,0:0:0:0:
256,192,37426,1,0,0:0:0:0:
256,192,37498,1,0,0:0:0:0:
256,192,37569,1,8,0:0:0:0:
256,192,37641,1,0,0:0:0:0:
256,192,37712,1,8,0:0:0:0:
256,192,37784,1,8,0:0:0:0:
256,192,37855,1,8,0:0:0:0:
256,192,37926,1,0,0:0:0:0:
256,192,37998,1,0,0:0:0:0:
256,192,38069,1,0,0:0:0:0:
256,192,38141,1,8,0:0:0:0:
256,192,38212,1,0,0:0:0:0:
256,192,38284,1,8,0:0:0:0:
256,192,38355,1,0,0:0:0:0:
256,192,38426,1,0,0:0:0:0:
256,192,38498,1,8,0:0:0:0:
256,192,38569,1,0,0:0:0:0:
256,192,38641,1,0,0:0:0:0:
256,192,38712,1,8,0:0:0:0:
256,192,38784,1,0,0:0:0:0:
256,192,38855,1,8,0:0:0:0:
256,192,38926,1,0,0:0:0:0:
256,192,38998,1,0,0:0:0:0:
256,192,39069,1,8,0:0:0:0:
256,192,39141,1,0,0:0:0:0:
256,192,39212,1,0,0:0:0:0:
256,192,39284,1,8,0:0:0:0:
256,192,39355,1,0,0:0:0:0:
256,96,39426,1,12,0:0:0:0:
256,96,39641,1,12,0:0:0:0:
256,96,39855,1,4,0:0:0:0:
256,96,39998,1,12,0:0:0:0:
256,192,40141,1,0,0:0:0:0:
256,192,40212,1,8,0:0:0:0:
256,192,40355,1,0,0:0:0:0:
256,192,40426,1,8,0:0:0:0:
256,192,40569,1,8,0:0:0:0:
256,192,40641,1,0,0:0:0:0:
256,192,40712,1,8,0:0:0:0:
256,192,40784,1,8,0:0:0:0:
256,192,40855,1,0,0:0:0:0:
256,192,40998,1,0,0:0:0:0:
256,192,41141,1,8,0:0:0:0:
256,192,41212,1,0,0:0:0:0:
256,192,41284,1,0,0:0:0:0:
256,192,41355,1,8,0:0:0:0:
256,192,41426,1,0,0:0:0:0:
256,192,41498,1,0,0:0:0:0:
256,192,41569,1,8,0:0:0:0:
256,192,41641,1,8,0:0:0:0:
256,192,41712,1,0,0:0:0:0:
256,192,41784,1,8,0:0:0:0:
256,192,41855,1,0,0:0:0:0:
256,192,41926,1,0,0:0:0:0:
256,192,41998,1,8,0:0:0:0:
256,192,42141,1,0,0:0:0:0:
256,192,42284,1,8,0:0:0:0:
256,192,42355,1,0,0:0:0:0:
256,192,42426,1,8,0:0:0:0:
256,192,42498,1,8,0:0:0:0:
256,192,42569,1,0,0:0:0:0:
256,192,42641,1,8,0:0:0:0:
256,192,42712,1,0,0:0:0:0:
256,192,42784,1,0,0:0:0:0:
256,192,42855,1,8,0:0:0:0:
256,192,42926,1,0,0:0:0:0:
256,192,42998,1,8,0:0:0:0:
256,192,43069,1,8,0:0:0:0:
256,192,43141,1,0,0:0:0:0:
256,192,43212,1,0,0:0:0:0:
256,192,43284,1,8,0:0:0:0:
256,192,43426,1,8,0:0:0:0:
256,192,43498,1,0,0:0:0:0:
256,192,43569,1,0,0:0:0:0:
256,192,43641,1,0,0:0:0:0:
256,192,43712,1,8,0:0:0:0:
256,192,43855,1,8,0:0:0:0:
256,192,43926,1,0,0:0:0:0:
256,192,43998,1,0,0:0:0:0:
256,192,44069,1,0,0:0:0:0:
256,192,44141,1,8,0:0:0:0:
256,192,44284,1,0,0:0:0:0:
256,192,44426,1,8,0:0:0:0:
256,192,44498,1,0,0:0:0:0:
256,192,44569,1,8,0:0:0:0:
256,192,44641,1,8,0:0:0:0:
256,192,44712,1,0,0:0:0:0:
256,192,44784,1,0,0:0:0:0:
256,192,44855,1,8,0:0:0:0:
256,192,44998,1,8,0:0:0:0:
256,192,45069,1,8,0:0:0:0:
256,192,45141,1,0,0:0:0:0:
256,192,45212,1,0,0:0:0:0:
256,192,45284,1,8,0:0:0:0:
256,192,45426,1,8,0:0:0:0:
256,192,45569,1,0,0:0:0:0:
256,192,45712,1,8,0:0:0:0:
256,192,45784,1,0,0:0:0:0:
256,192,45855,1,0,0:0:0:0:
256,192,45926,1,8,0:0:0:0:
256,192,45998,1,8,0:0:0:0:
256,192,46069,1,0,0:0:0:0:
256,192,46141,1,8,0:0:0:0:
256,192,46212,1,0,0:0:0:0:
256,192,46284,1,8,0:0:0:0:
256,192,46355,1,0,0:0:0:0:
256,192,46426,1,0,0:0:0:0:
256,192,46498,1,8,0:0:0:0:
256,192,46569,1,0,0:0:0:0:
256,192,46641,1,0,0:0:0:0:
256,192,46712,1,8,0:0:0:0:
256,192,46855,1,8,0:0:0:0:
256,192,46926,1,0,0:0:0:0:
256,192,46998,1,8,0:0:0:0:
256,192,47069,1,8,0:0:0:0:
256,192,47141,1,0,0:0:0:0:
256,192,47212,1,0,0:0:0:0:
256,192,47284,1,8,0:0:0:0:
256,192,47355,1,0,0:0:0:0:
256,192,47426,1,8,0:0:0:0:
256,192,47498,1,0,0:0:0:0:
256,192,47569,1,8,0:0:0:0:
256,192,47641,1,0,0:0:0:0:
160,192,47712,1,8,0:0:0:0:
160,192,47760,1,8,0:0:0:0:
160,192,47807,1,8,0:0:0:0:
160,192,47855,1,0,0:0:0:0:
256,192,47926,1,0,0:0:0:0:
256,96,47998,1,12,0:0:0:0:
256,192,48212,1,0,0:0:0:0:
256,192,48284,1,0,0:0:0:0:
256,192,48426,1,8,0:0:0:0:
256,192,48569,1,8,0:0:0:0:
256,192,48712,1,0,0:0:0:0:
256,192,48784,1,8,0:0:0:0:
256,192,48855,1,0,0:0:0:0:
256,192,48998,1,8,0:0:0:0:
256,192,49069,1,0,0:0:0:0:
256,192,49141,1,8,0:0:0:0:
256,192,49355,1,8,0:0:0:0:
256,192,49426,1,0,0:0:0:0:
256,192,49569,1,8,0:0:0:0:
256,192,49712,1,8,0:0:0:0:
256,192,49784,1,0,0:0:0:0:
256,192,49855,1,8,0:0:0:0:
256,192,49926,1,8,0:0:0:0:
256,192,49998,1,0,0:0:0:0:
256,192,50141,1,0,0:0:0:0:
256,192,50284,1,8,0:0:0:0:
256,192,50355,1,0,0:0:0:0:
256,192,50426,1,0,0:0:0:0:
256,192,50498,1,8,0:0:0:0:
256,192,50569,1,0,0:0:0:0:
256,192,50641,1,0,0:0:0:0:
256,192,50712,1,8,0:0:0:0:
256,192,50784,1,8,0:0:0:0:
256,192,50855,1,0,0:0:0:0:
256,192,50926,1,0,0:0:0:0:
256,192,50998,1,8,0:0:0:0:
256,192,51069,1,0,0:0:0:0:
256,192,51141,1,8,0:0:0:0:
256,192,51284,1,0,0:0:0:0:
256,192,51426,1,8,0:0:0:0:
256,192,51498,1,0,0:0:0:0:
256,192,51569,1,8,0:0:0:0:
256,192,51641,1,8,0:0:0:0:
256,192,51712,1,0,0:0:0:0:
256,192,51784,1,8,0:0:0:0:
256,192,51855,1,0,0:0:0:0:
256,192,51926,1,0,0:0:0:0:
256,192,51998,1,8,0:0:0:0:
256,192,52069,1,0,0:0:0:0:
256,192,52141,1,8,0:0:0:0:
256,192,52212,1,8,0:0:0:0:
256,192,52284,1,0,0:0:0:0:
256,192,52355,1,0,0:0:0:0:
256,192,52426,1,8,0:0:0:0:
256,192,52569,1,0,0:0:0:0:
256,192,52641,1,0,0:0:0:0:
256,192,52712,1,8,0:0:0:0:
256,192,52784,1,0,0:0:0:0:
256,192,52855,1,8,0:0:0:0:
256,192,52998,1,0,0:0:0:0:
256,192,53069,1,0,0:0:0:0:
256,192,53141,1,8,0:0:0:0:
256,192,53212,1,0,0:0:0:0:
256,192,53284,1,8,0:0:0:0:
256,192,53426,1,0,0:0:0:0:
256,192,53569,1,0,0:0:0:0:
256,192,53641,1,0,0:0:0:0:
256,192,53712,1,8,0:0:0:0:
256,192,53784,1,0,0:0:0:0:
256,192,53855,1,8,0:0:0:0:
256,192,53926,1,0,0:0:0:0:
256,192,53998,1,8,0:0:0:0:
256,192,54141,1,8,0:0:0:0:
256,192,54212,1,0,0:0:0:0:
256,192,54284,1,8,0:0:0:0:
256,192,54355,1,0,0:0:0:0:
256,192,54426,1,8,0:0:0:0:
256,192,54569,1,8,0:0:0:0:
256,192,54712,1,0,0:0:0:0:
256,192,54855,1,8,0:0:0:0:
256,192,54950,1,8,0:0:0:0:
256,192,55045,1,8,0:0:0:0:
256,192,55141,1,0,0:0:0:0:
256,192,55236,1,0,0:0:0:0:
256,192,55331,1,0,0:0:0:0:
160,192,55426,1,8,0:0:0:0:
160,192,55498,1,0,0:0:0:0:
160,192,55569,1,8,0:0:0:0:
160,192,55617,1,8,0:0:0:0:
160,192,55664,1,8,0:0:0:0:
160,192,55712,1,0,0:0:0:0:
256,192,55784,1,0,0:0:0:0:
256,192,55855,1,8,0:0:0:0:
256,192,55926,1,0,0:0:0:0:
256,192,55998,1,8,0:0:0:0:
256,192,56069,1,0,0:0:0:0:
256,192,56141,1,0,0:0:0:0:
256,192,56212,1,8,0:0:0:0:
256,192,56284,1,0,0:0:0:0:
256,192,56355,1,0,0:0:0:0:
160,192,56426,1,8,0:0:0:0:
160,192,56474,1,8,0:0:0:0:
160,192,56522,1,8,0:0:0:0:
160,192,56569,1,0,0:0:0:0:
256,192,56641,1,0,0:0:0:0:
256,192,56712,1,0,0:0:0:0:
256,192,56784,1,0,0:0:0:0:
256,192,56855,1,8,0:0:0:0:
256,192,56926,1,0,0:0:0:0:
256,192,56998,1,0,0:0:0:0:
256,192,57069,1,8,0:0:0:0:
256,192,57141,1,8,0:0:0:0:
256,192,57284,12,0,61141,0:0:0:0:
256,192,61712,5,8,0:0:0:0:
256,192,62855,1,0,0:0:0:0:
256,192,63998,1,0,0:0:0:0:
256,192,65712,12,0,66141,0:0:0:0:
256,192,66284,5,8,0:0:0:0:
256,192,66426,1,0,0:0:0:0:
256,192,66498,1,0,0:0:0:0:
256,192,66569,1,8,0:0:0:0:
256,192,66712,1,8,0:0:0:0:
256,192,66855,1,8,0:0:0:0:
256,192,66998,1,0,0:0:0:0:
256,192,67141,1,0,0:0:0:0:
256,192,67284,1,8,0:0:0:0:
256,192,67426,1,8,0:0:0:0:
256,192,67498,1,0,0:0:0:0:
256,192,67569,1,0,0:0:0:0:
256,192,67641,1,0,0:0:0:0:
256,192,67712,1,8,0:0:0:0:
256,192,67855,1,8,0:0:0:0:
256,192,67998,1,8,0:0:0:0:
256,192,68141,1,0,0:0:0:0:
256,192,68284,1,0,0:0:0:0:
256,192,68426,1,8,0:0:0:0:
256,192,68569,1,8,0:0:0:0:
256,192,68712,1,0,0:0:0:0:
256,192,68784,1,0,0:0:0:0:
256,192,68855,1,8,0:0:0:0:
256,192,68998,1,8,0:0:0:0:
256,192,69141,1,0,0:0:0:0:
256,192,69284,1,8,0:0:0:0:
256,192,69426,1,0,0:0:0:0:
256,192,69569,1,8,0:0:0:0:
256,192,69712,1,8,0:0:0:0:
256,192,69855,1,0,0:0:0:0:
256,192,69926,1,0,0:0:0:0:
256,192,69998,1,8,0:0:0:0:
256,192,70141,1,8,0:0:0:0:
256,192,70284,1,8,0:0:0:0:
256,192,70355,1,0,0:0:0:0:
256,192,70426,1,8,0:0:0:0:
256,192,70498,1,8,0:0:0:0:
256,192,70569,1,0,0:0:0:0:
256,192,70712,1,0,0:0:0:0:
256,192,70855,1,8,0:0:0:0:
256,192,70998,1,0,0:0:0:0:
256,192,71069,1,0,0:0:0:0:
256,192,71141,1,8,0:0:0:0:
256,192,71284,1,8,0:0:0:0:
256,192,71426,1,8,0:0:0:0:
256,192,71569,1,0,0:0:0:0:
256,192,71712,1,0,0:0:0:0:
256,192,71855,1,8,0:0:0:0:
256,192,71998,1,8,0:0:0:0:
256,192,72069,1,8,0:0:0:0:
256,192,72141,1,0,0:0:0:0:
256,192,72212,1,0,0:0:0:0:
256,192,72284,1,8,0:0:0:0:
256,192,72426,1,8,0:0:0:0:
256,192,72569,1,0,0:0:0:0:
256,192,72712,1,0,0:0:0:0:
256,192,72855,1,0,0:0:0:0:
256,192,72998,1,8,0:0:0:0:
256,192,73141,1,8,0:0:0:0:
256,192,73284,1,0,0:0:0:0:
256,192,73355,1,0,0:0:0:0:
256,192,73426,1,8,0:0:0:0:
256,192,73569,1,8,0:0:0:0:
256,192,73712,1,0,0:0:0:0:
256,192,73855,1,8,0:0:0:0:
256,192,73998,1,0,0:0:0:0:
256,192,74141,1,8,0:0:0:0:
256,192,74284,1,0,0:0:0:0:
256,192,74426,1,0,0:0:0:0:
256,192,74498,1,0,0:0:0:0:
256,192,74569,1,8,0:0:0:0:
256,192,74712,1,8,0:0:0:0:
256,192,74855,1,8,0:0:0:0:
256,192,74926,1,0,0:0:0:0:
256,192,74998,1,8,0:0:0:0:
256,192,75069,1,8,0:0:0:0:
256,192,75141,1,8,0:0:0:0:
256,192,75212,1,0,0:0:0:0:
256,192,75284,1,8,0:0:0:0:
256,192,75355,1,8,0:0:0:0:
256,96,75426,1,4,0:0:0:0:
256,192,75998,1,0,0:0:0:0:
256,192,76284,1,8,0:0:0:0:
256,192,76569,1,8,0:0:0:0:
256,192,76664,1,0,0:0:0:0:
256,192,76760,1,0,0:0:0:0:
256,192,76855,1,8,0:0:0:0:
256,192,76950,1,0,0:0:0:0:
256,192,77045,1,0,0:0:0:0:
256,192,77141,1,8,0:0:0:0:
256,192,77426,1,8,0:0:0:0:
256,192,77617,1,8,0:0:0:0:
256,192,77712,1,0,0:0:0:0:
256,192,77998,1,0,0:0:0:0:
256,192,78141,1,0,0:0:0:0:
256,192,78212,1,0,0:0:0:0:
256,192,78284,1,8,0:0:0:0:
256,192,78569,1,8,0:0:0:0:
256,192,78855,1,0,0:0:0:0:
256,192,78950,1,8,0:0:0:0:
256,192,79045,1,8,0:0:0:0:
256,192,79141,1,0,0:0:0:0:
256,192,79284,1,0,0:0:0:0:
256,192,79426,1,8,0:0:0:0:
256,192,79712,1,8,0:0:0:0:
256,192,79807,1,0,0:0:0:0:
256,192,79903,1,0,0:0:0:0:
256,192,79998,1,8,0:0:0:0:
256,192,80284,1,0,0:0:0:0:
256,192,80474,1,0,0:0:0:0:
256,192,80569,1,8,0:0:0:0:
256,192,80855,1,0,0:0:0:0:
256,192,81141,1,8,0:0:0:0:
256,192,81236,1,0,0:0:0:0:
256,192,81331,1,0,0:0:0:0:
256,192,81426,1,8,0:0:0:0:
256,192,81522,1,0,0:0:0:0:
256,192,81617,1,0,0:0:0:0:
256,192,81712,1,8,0:0:0:0:
256,192,81855,1,0,0:0:0:0:
256,192,82141,1,8,0:0:0:0:
256,192,82284,1,0,0:0:0:0:
256,192,82569,1,8,0:0:0:0:
256,192,82760,1,0,0:0:0:0:
256,192,82855,1,8,0:0:0:0:
256,192,83141,1,8,0:0:0:0:
256,192,83284,1,8,0:0:0:0:
256,192,83426,1,0,0:0:0:0:
256,192,83522,1,0,0:0:0:0:
256,192,83617,1,0,0:0:0:0:
256,192,83712,1,8,0:0:0:0:
256,192,83855,1,0,0:0:0:0:
256,192,83926,1,0,0:0:0:0:
256,192,83998,1,8,0:0:0:0:
256,192,84284,1,8,0:0:0:0:
256,192,84379,1,8,0:0:0:0:
256,192,84474,1,8,0:0:0:0:
256,192,84569,1,0,0:0:0:0:
256,192,85141,1,8,0:0:0:0:
256,192,85712,1,8,0:0:0:0:
256,192,85998,1,0,0:0:0:0:
256,192,86284,1,8,0:0:0:0:
256,192,86426,1,0,0:0:0:0:
256,192,86712,1,0,0:0:0:0:
256,192,87141,1,8,0:0:0:0:
256,192,87426,1,8,0:0:0:0:
256,192,87569,1,0,0:0:0:0:
256,192,87855,1,8,0:0:0:0:
256,192,88569,1,0,0:0:0:0:
256,192,88855,1,0,0:0:0:0:
256,192,88998,1,0,0:0:0:0:
256,96,89141,1,12,0:0:0:0:
256,192,89284,1,0,0:0:0:0:
256,192,89426,1,8,0:0:0:0:
256,192,89569,1,8,0:0:0:0:
256,192,89712,1,8,0:0:0:0:
256,192,89784,1,8,0:0:0:0:
256,192,89855,1,0,0:0:0:0:
256,192,89998,1,8,0:0:0:0:
256,192,90141,1,8,0:0:0:0:
256,192,90284,1,0,0:0:0:0:
256,192,90355,1,0,0:0:0:0:
256,192,90426,1,8,0:0:0:0:
256,192,90569,1,8,0:0:0:0:
256,192,90712,1,0,0:0:0:0:
256,192,90855,1,0,0:0:0:0:
256,192,90926,1,0,0:0:0:0:
256,192,90998,1,8,0:0:0:0:
256,192,91141,1,8,0:0:0:0:
256,192,91284,1,0,0:0:0:0:
256,192,91426,1,8,0:0:0:0:
256,192,91498,1,8,0:0:0:0:
256,192,91569,1,0,0:0:0:0:
256,192,91641,1,8,0:0:0:0:
256,192,91712,1,0,0:0:0:0:
256,192,91784,1,0,0:0:0:0:
256,192,91855,1,8,0:0:0:0:
256,192,91926,1,0,0:0:0:0:
256,192,91998,1,8,0:0:0:0:
256,192,92069,1,0,0:0:0:0:
256,192,92141,1,0,0:0:0:0:
256,192,92212,1,8,0:0:0:0:
256,192,92284,1,8,0:0:0:0:
256,192,92355,1,0,0:0:0:0:
256,192,92426,1,8,0:0:0:0:
256,192,92498,1,0,0:0:0:0:
160,192,92569,1,8,0:0:0:0:
160,192,92617,1,8,0:0:0:0:
160,192,92664,1,8,0:0:0:0:
160,192,92712,1,0,0:0:0:0:
256,192,92784,1,0,0:0:0:0:
256,192,92855,1,8,0:0:0:0:
256,192,92926,1,0,0:0:0:0:
256,192,92998,1,8,0:0:0:0:
256,192,93069,1,0,0:0:0:0:
160,192,93141,1,8,0:0:0:0:
160,192,93188,1,0,0:0:0:0:
160,192,93236,1,0,0:0:0:0:
160,192,93284,1,8,0:0:0:0:
256,192,93355,1,8,0:0:0:0:
256,192,93426,1,0,0:0:0:0:
256,192,93498,1,8,0:0:0:0:
256,192,93569,1,8,0:0:0:0:
256,192,93641,1,0,0:0:0:0:
256,192,93712,1,8,0:0:0:0:
256,192,93784,1,0,0:0:0:0:
256,192,93855,1,0,0:0:0:0:
256,192,93926,1,8,0:0:0:0:
256,192,93998,1,0,0:0:0:0:
256,192,94069,1,0,0:0:0:0:
256,192,94141,1,8,0:0:0:0:
256,192,94212,1,0,0:0:0:0:
256,96,94284,1,12,0:0:0:0:
256,96,94498,1,12,0:0:0:0:
256,96,94712,1,4,0:0:0:0:
256,96,94855,1,12,0:0:0:0:
256,192,94998,1,0,0:0:0:0:
256,192,95069,1,8,0:0:0:0:
256,192,95212,1,0,0:0:0:0:
256,192,95284,1,8,0:0:0:0:
256,192,95426,1,8,0:0:0:0:
256,192,95498,1,0,0:0:0:0:
256,192,95569,1,8,0:0:0:0:
256,192,95641,1,8,0:0:0:0:
256,192,95712,1,0,0:0:0:0:
256,192,95855,1,0,0:0:0:0:
256,192,95998,1,8,0:0:0:0:
256,192,96069,1,0,0:0:0:0:
256,192,96141,1,0,0:0:0:0:
256,192,96212,1,0,0:0:0:0:
256,96,96284,1,12,0:0:0:0:
256,192,96426,1,0,0:0:0:0:
256,192,96498,1,8,0:0:0:0:
256,192,96569,1,0,0:0:0:0:
256,192,96641,1,0,0:0:0:0:
256,192,96712,1,8,0:0:0:0:
256,192,96784,1,8,0:0:0:0:
256,192,96855,1,0,0:0:0:0:
256,192,96998,1,0,0:0:0:0:
256,192,97141,1,8,0:0:0:0:
256,192,97212,1,0,0:0:0:0:
256,192,97284,1,8,0:0:0:0:
256,192,97355,1,8,0:0:0:0:
256,192,97426,1,0,0:0:0:0:
256,192,97498,1,8,0:0:0:0:
256,192,97569,1,0,0:0:0:0:
256,192,97641,1,0,0:0:0:0:
256,192,97712,1,8,0:0:0:0:
256,192,97784,1,0,0:0:0:0:
256,192,97855,1,8,0:0:0:0:
256,192,97926,1,8,0:0:0:0:
256,192,97998,1,0,0:0:0:0:
256,192,98069,1,0,0:0:0:0:
256,192,98141,1,8,0:0:0:0:
256,192,98284,1,8,0:0:0:0:
256,192,98355,1,0,0:0:0:0:
256,192,98426,1,0,0:0:0:0:
256,192,98498,1,0,0:0:0:0:
256,192,98569,1,8,0:0:0:0:
256,192,98712,1,8,0:0:0:0:
256,192,98784,1,0,0:0:0:0:
256,192,98855,1,0,0:0:0:0:
256,192,98926,1,0,0:0:0:0:
256,192,98998,1,8,0:0:0:0:
256,192,99141,1,0,0:0:0:0:
256,192,99284,1,8,0:0:0:0:
256,192,99355,1,0,0:0:0:0:
256,192,99426,1,8,0:0:0:0:
256,192,99498,1,8,0:0:0:0:
256,192,99569,1,0,0:0:0:0:
256,192,99641,1,0,0:0:0:0:
256,192,99712,1,8,0:0:0:0:
256,192,99855,1,8,0:0:0:0:
256,192,99926,1,8,0:0:0:0:
256,192,99998,1,0,0:0:0:0:
256,192,100069,1,0,0:0:0:0:
256,192,100141,1,8,0:0:0:0:
256,192,100284,1,8,0:0:0:0:
256,192,100426,1,0,0:0:0:0:
256,192,100569,1,8,0:0:0:0:
256,192,100641,1,0,0:0:0:0:
256,192,100712,1,0,0:0:0:0:
256,192,100784,1,8,0:0:0:0:
256,192,100855,1,8,0:0:0:0:
256,192,100926,1,0,0:0:0:0:
256,192,100998,1,8,0:0:0:0:
256,192,101069,1,0,0:0:0:0:
256,192,101141,1,8,0:0:0:0:
256,192,101212,1,0,0:0:0:0:
256,192,101284,1,0,0:0:0:0:
256,192,101355,1,8,0:0:0:0:
256,192,101426,1,0,0:0:0:0:
256,192,101498,1,0,0:0:0:0:
256,192,101569,1,8,0:0:0:0:
256,192,101712,1,8,0:0:0:0:
256,192,101784,1,0,0:0:0:0:
256,192,101855,1,8,0:0:0:0:
256,192,101926,1,8,0:0:0:0:
256,192,101998,1,0,0:0:0:0:
256,192,102069,1,0,0:0:0:0:
256,192,102141,1,8,0:0:0:0:
256,192,102212,1,0,0:0:0:0:
256,192,102284,1,8,0:0:0:0:
256,192,102355,1,0,0:0:0:0:
256,192,102426,1,8,0:0:0:0:
256,192,102498,1,0,0:0:0:0:
160,192,102569,1,8,0:0:0:0:
160,192,102617,1,8,0:0:0:0:
160,192,102664,1,8,0:0:0:0:
160,192,102712,1,0,0:0:0:0:
256,192,102784,1,0,0:0:0:0:
256,96,102855,1,12,0:0:0:0:
256,192,103069,1,0,0:0:0:0:
256,192,103141,1,0,0:0:0:0:
256,192,103284,1,8,0:0:0:0:
256,192,103426,1,8,0:0:0:0:
256,192,103569,1,0,0:0:0:0:
256,192,103641,1,8,0:0:0:0:
256,192,103712,1,0,0:0:0:0:
256,192,103855,1,8,0:0:0:0:
256,192,103926,1,0,0:0:0:0:
256,192,103998,1,8,0:0:0:0:
256,192,104212,1,8,0:0:0:0:
256,192,104284,1,0,0:0:0:0:
256,192,104426,1,8,0:0:0:0:
256,192,104569,1,8,0:0:0:0:
256,192,104641,1,0,0:0:0:0:
256,192,104712,1,8,0:0:0:0:
256,192,104784,1,8,0:0:0:0:
256,192,104855,1,0,0:0:0:0:
256,192,104998,1,0,0:0:0:0:
256,192,105141,1,8,0:0:0:0:
256,192,105212,1,0,0:0:0:0:
256,192,105284,1,0,0:0:0:0:
256,192,105355,1,8,0:0:0:0:
256,192,105426,1,0,0:0:0:0:
256,192,105498,1,0,0:0:0:0:
256,192,105569,1,8,0:0:0:0:
256,192,105641,1,8,0:0:0:0:
256,192,105712,1,0,0:0:0:0:
256,192,105784,1,0,0:0:0:0:
256,192,105855,1,8,0:0:0:0:
256,192,105926,1,0,0:0:0:0:
256,192,105998,1,8,0:0:0:0:
256,192,106141,1,0,0:0:0:0:
256,192,106284,1,8,0:0:0:0:
256,192,106355,1,0,0:0:0:0:
256,192,106426,1,8,0:0:0:0:
256,192,106498,1,8,0:0:0:0:
256,192,106569,1,0,0:0:0:0:
256,192,106641,1,8,0:0:0:0:
256,192,106712,1,0,0:0:0:0:
256,192,106784,1,0,0:0:0:0:
256,192,106855,1,8,0:0:0:0:
256,192,106926,1,0,0:0:0:0:
256,192,106998,1,8,0:0:0:0:
256,192,107069,1,8,0:0:0:0:
256,192,107141,1,0,0:0:0:0:
256,192,107212,1,0,0:0:0:0:
256,192,107284,1,8,0:0:0:0:
256,192,107426,1,0,0:0:0:0:
256,192,107498,1,0,0:0:0:0:
256,192,107569,1,8,0:0:0:0:
256,192,107641,1,0,0:0:0:0:
256,192,107712,1,8,0:0:0:0:
256,192,107855,1,0,0:0:0:0:
256,192,107926,1,0,0:0:0:0:
256,192,107998,1,8,0:0:0:0:
256,192,108069,1,0,0:0:0:0:
256,192,108141,1,8,0:0:0:0:
256,192,108284,1,0,0:0:0:0:
256,192,108426,1,0,0:0:0:0:
256,192,108498,1,0,0:0:0:0:
256,192,108569,1,8,0:0:0:0:
256,192,108641,1,0,0:0:0:0:
256,192,108712,1,8,0:0:0:0:
256,192,108784,1,0,0:0:0:0:
256,192,108855,1,8,0:0:0:0:
256,192,108998,1,8,0:0:0:0:
256,192,109069,1,0,0:0:0:0:
256,192,109141,1,8,0:0:0:0:
256,192,109212,1,0,0:0:0:0:
256,192,109284,1,8,0:0:0:0:
256,192,109426,1,8,0:0:0:0:
256,192,109569,1,0,0:0:0:0:
256,192,109712,1,8,0:0:0:0:
256,192,109807,1,0,0:0:0:0:
256,192,109903,1,0,0:0:0:0:
256,192,109998,1,8,0:0:0:0:
256,192,110093,1,0,0:0:0:0:
256,192,110188,1,0,0:0:0:0:
160,192,110284,1,8,0:0:0:0:
160,192,110355,1,0,0:0:0:0:
160,192,110426,1,8,0:0:0:0:
160,192,110474,1,8,0:0:0:0:
160,192,110522,1,8,0:0:0:0:
160,192,110569,1,0,0:0:0:0:
256,192,110641,1,0,0:0:0:0:
256,192,110712,1,8,0:0:0:0:
256,192,110784,1,0,0:0:0:0:
256,192,110855,1,8,0:0:0:0:
256,192,110926,1,0,0:0:0:0:
256,192,110998,1,0,0:0:0:0:
256,192,111069,1,8,0:0:0:0:
256,192,111141,1,0,0:0:0:0:
256,192,111212,1,0,0:0:0:0:
160,192,111284,1,8,0:0:0:0:
160,192,111331,1,0,0:0:0:0:
160,192,111379,1,0,0:0:0:0:
160,192,111426,1,8,0:0:0:0:
256,192,111498,1,8,0:0:0:0:
256,192,111569,1,0,0:0:0:0:
256,192,111641,1,0,0:0:0:0:
256,192,111712,1,8,0:0:0:0:
256,192,111784,1,0,0:0:0:0:
256,192,111855,1,8,0:0:0:0:
256,192,111926,1,8,0:0:0:0:
256,96,111998,1,4,0:0:0:0:
256,192,112141,12,0,114284,0:0:0:0:
