osu file format v14

[General]
AudioFilename: audio.mp3
AudioLeadIn: 0
PreviewTime: 84516
Countdown: 0
SampleSet: Normal
StackLeniency: 0.7
Mode: 1
LetterboxInBreaks: 0
WidescreenStoryboard: 1

[Editor]
Bookmarks: 2266,11408,20551,38837,47980,57123,66266,75408,84551,93694,102837,111980
DistanceSpacing: 2.7
BeatDivisor: 4
GridSize: 32
TimelineZoom: 1.8

[Metadata]
Title:LvC3
TitleUnicode:LvC3
Artist:Rohi
ArtistUnicode:ろひ
Creator:Hivie
Version:Axer's Inner Oni
Source:osu!
Tags:electronic instrumental fa featured artist mappers' guild mg axer idealism
BeatmapID:2455266
BeatmapSetID:1176918

[Difficulty]
HPDrainRate:5.5
CircleSize:2
OverallDifficulty:6
ApproachRate:9
SliderMultiplier:1.4
SliderTickRate:1

[Events]
//Background and Video events
0,0,"background.jpg",0,0
//Break Periods
//Storyboard Layer 0 (Background)
//Storyboard Layer 1 (Fail)
//Storyboard Layer 2 (Pass)
//Storyboard Layer 3 (Foreground)
//Storyboard Layer 4 (Overlay)
//Storyboard Sound Samples

[TimingPoints]
1090,285.714285714286,4,1,0,100,1,0
1090,-142.857142857143,4,1,0,100,0,0
2232,285.714285714286,4,1,0,100,1,8
2284,285.714285714286,4,1,0,100,1,0
2284,-142.857142857143,4,1,0,100,0,0
10284,-125,4,1,0,100,0,0
11426,-111.111111111111,4,1,0,100,0,0
20855,-76.9230769230769,4,1,0,100,0,0
20926,-100,4,1,0,100,0,0
38855,-100,4,1,0,100,0,0
39426,-102.522042239081,4,1,0,100,0,0
39641,-105.552037154317,4,1,0,100,0,0
39855,-108.766586904503,4,1,0,100,0,0
39998,-99.9200639488409,4,1,0,100,0,1
46855,-100,4,1,0,100,0,1
46926,-99.3838203140529,4,1,0,100,0,1
46998,-98.7751876728566,4,1,0,100,0,1
47069,-98.1643270835378,4,1,0,100,0,1
47141,-97.570494682408,4,1,0,100,0,1
47212,-96.9838037047813,4,1,0,100,0,1
47284,-96.4041260965969,4,1,0,100,0,1
47355,-95.831336847149,4,1,0,100,0,1
47426,-95.2653138992093,4,1,0,100,0,1
47497,-94.6969696969697,4,1,0,100,0,1
47569,-94.1442289587648,4,1,0,100,0,1
47640,-93.5979034069637,4,1,0,100,0,1
47712,-93.0578820026056,4,1,0,100,0,1
47760,-92.695587690026,4,1,0,100,0,1
47807,-92.3446301597562,4,1,0,100,0,1
47855,-91.9963201471941,4,1,0,100,0,1
47926,-91.4662032379036,4,1,0,100,0,1
47998,-90.9504320145521,4,1,0,100,0,1
48069,-100.050025012506,4,1,0,100,0,1
54855,-95.2380952380954,4,1,0,100,0,1
57141,-95.2380952380954,4,1,0,100,0,0
57284,-66.6666666666667,4,1,0,50,0,0
57426,-142.857142857143,4,1,0,50,0,0
66212,-111.111111111111,4,1,0,100,0,0
74855,-108.695652173913,4,1,0,100,0,0
74926,-107.52688172043,4,1,0,100,0,0
74998,-106.382978723404,4,1,0,100,0,0
75069,-105.263157894737,4,1,0,100,0,0
75141,-104.166666666667,4,1,0,100,0,0
75212,-103.092783505155,4,1,0,100,0,0
75284,-102.040816326531,4,1,0,100,0,0
75355,-101.010101010101,4,1,0,100,0,0
75426,-100,4,1,0,100,0,0
75498,-111.111111111111,4,1,0,100,0,0
84712,-142.857142857143,4,1,0,100,0,0
89141,-125,4,1,0,100,0,0
90141,-117.647058823529,4,1,0,100,0,0
90284,-111.111111111111,4,1,0,100,0,0
91284,-105.263157894737,4,1,0,100,0,0
91426,-100,4,1,0,100,0,0
93712,-100,4,1,0,100,0,0
94283,-102.522042239081,4,1,0,100,0,0
94498,-105.552037154317,4,1,0,100,0,0
94712,-108.766586904503,4,1,0,100,0,0
94855,-111.01243339254,4,1,0,100,0,0
95998,-111.111111111111,4,1,0,100,0,0
96069,-108.167746541336,4,1,0,100,0,0
96141,-105.376298762882,4,1,0,100,0,0
96212,-102.725407794188,4,1,0,100,0,0
96284,-99.9200639488409,4,1,0,100,0,1
101712,-100,4,1,0,100,0,1
101783,-99.3838203140529,4,1,0,100,0,1
101855,-98.7751876728566,4,1,0,100,0,1
101926,-98.1643270835378,4,1,0,100,0,1
101998,-97.570494682408,4,1,0,100,0,1
102069,-96.9838037047813,4,1,0,100,0,1
102141,-96.4041260965969,4,1,0,100,0,1
102212,-95.831336847149,4,1,0,100,0,1
102283,-95.2653138992093,4,1,0,100,0,1
102354,-94.6969696969697,4,1,0,100,0,1
102426,-94.1442289587648,4,1,0,100,0,1
102497,-93.5979034069637,4,1,0,100,0,1
102569,-93.0578820026056,4,1,0,100,0,1
102617,-92.695587690026,4,1,0,100,0,1
102664,-92.3446301597562,4,1,0,100,0,1
102712,-91.9963201471941,4,1,0,100,0,1
102783,-91.4662032379036,4,1,0,100,0,1
102855,-90.9504320145521,4,1,0,100,0,1
102926,-100.050025012506,4,1,0,100,0,1
109712,-95.2380952380954,4,1,0,100,0,1
111998,-95.2380952380954,4,1,0,100,0,0

[HitObjects]
256,192,1090,12,0,2090,0:0:0:0:
160,288,2284,5,4,0:0:0:0:
352,96,2712,1,8,0:0:0:0:
160,96,3426,1,0,0:0:0:0:
352,96,3855,1,8,0:0:0:0:
160,96,4569,1,0,0:0:0:0:
352,96,4998,1,8,0:0:0:0:
352,96,5426,1,8,0:0:0:0:
160,96,5998,1,0,0:0:0:0:
352,96,6284,1,8,0:0:0:0:
352,96,6569,1,8,0:0:0:0:
160,96,6855,1,0,0:0:0:0:
352,96,7284,1,8,0:0:0:0:
160,96,7998,1,0,0:0:0:0:
352,96,8426,1,8,0:0:0:0:
160,96,9141,1,0,0:0:0:0:
352,96,9569,1,8,0:0:0:0:
160,96,9998,1,0,0:0:0:0:
352,288,10284,1,12,0:0:0:0:
160,96,10855,1,0,0:0:0:0:
160,96,10998,1,0,0:0:0:0:
160,96,11069,1,0,0:0:0:0:
352,96,11141,1,8,0:0:0:0:
352,96,11284,1,8,0:0:0:0:
160,288,11426,1,4,0:0:0:0:
352,96,11712,1,8,0:0:0:0:
352,96,11855,1,8,0:0:0:0:
352,96,11926,1,8,0:0:0:0:
160,96,11998,1,0,0:0:0:0:
160,96,12141,1,0,0:0:0:0:
352,96,12284,1,8,0:0:0:0:
160,96,12569,1,0,0:0:0:0:
160,96,12712,1,0,0:0:0:0:
160,96,12784,1,0,0:0:0:0:
352,96,12855,1,8,0:0:0:0:
160,96,12998,1,0,0:0:0:0:
352,96,13069,1,8,0:0:0:0:
352,96,13212,1,8,0:0:0:0:
160,96,13284,1,0,0:0:0:0:
160,96,13355,1,0,0:0:0:0:
352,96,13426,1,8,0:0:0:0:
352,96,13569,1,8,0:0:0:0:
352,96,13641,1,8,0:0:0:0:
160,96,13712,1,0,0:0:0:0:
160,96,13855,1,0,0:0:0:0:
160,96,13926,1,0,0:0:0:0:
352,96,13998,1,8,0:0:0:0:
352,96,14141,1,8,0:0:0:0:
352,96,14212,1,8,0:0:0:0:
160,96,14284,1,0,0:0:0:0:
352,96,14355,1,8,0:0:0:0:
160,96,14426,1,0,0:0:0:0:
352,96,14569,1,8,0:0:0:0:
160,96,14855,1,0,0:0:0:0:
160,96,14998,1,0,0:0:0:0:
160,96,15069,1,0,0:0:0:0:
352,96,15141,1,8,0:0:0:0:
160,96,15284,1,0,0:0:0:0:
352,96,15355,1,8,0:0:0:0:
352,96,15498,1,8,0:0:0:0:
160,96,15569,1,0,0:0:0:0:
160,96,15641,1,0,0:0:0:0:
352,96,15712,1,8,0:0:0:0:
352,96,15855,1,8,0:0:0:0:
352,96,15926,1,8,0:0:0:0:
160,96,15998,1,0,0:0:0:0:
160,96,16141,1,0,0:0:0:0:
160,96,16212,1,0,0:0:0:0:
352,96,16284,1,8,0:0:0:0:
352,96,16426,1,8,0:0:0:0:
352,96,16498,1,8,0:0:0:0:
160,96,16569,1,0,0:0:0:0:
160,96,16712,1,0,0:0:0:0:
352,96,16855,1,8,0:0:0:0:
160,96,17141,1,0,0:0:0:0:
160,96,17284,1,0,0:0:0:0:
160,96,17355,1,0,0:0:0:0:
352,96,17426,1,8,0:0:0:0:
160,96,17569,1,0,0:0:0:0:
352,96,17641,1,8,0:0:0:0:
352,96,17784,1,8,0:0:0:0:
160,96,17855,1,0,0:0:0:0:
160,96,17926,1,0,0:0:0:0:
352,96,17998,1,8,0:0:0:0:
352,96,18284,1,8,0:0:0:0:
160,96,18379,1,0,0:0:0:0:
160,96,18474,1,0,0:0:0:0:
352,96,18569,1,8,0:0:0:0:
160,96,18664,1,0,0:0:0:0:
160,96,18760,1,0,0:0:0:0:
352,96,18855,1,8,0:0:0:0:
160,96,18998,1,0,0:0:0:0:
160,96,19045,1,0,0:0:0:0:
160,96,19093,1,0,0:0:0:0:
352,96,19141,1,8,0:0:0:0:
160,96,19284,1,0,0:0:0:0:
352,96,19426,1,8,0:0:0:0:
160,96,19569,1,0,0:0:0:0:
352,96,19712,1,8,0:0:0:0:
352,96,19784,1,8,0:0:0:0:
352,96,19855,1,8,0:0:0:0:
352,96,19926,1,8,0:0:0:0:
160,96,19998,1,0,0:0:0:0:
160,96,20141,1,0,0:0:0:0:
352,96,20284,1,8,0:0:0:0:
352,96,20426,1,8,0:0:0:0:
160,96,20569,1,0,0:0:0:0:
352,288,20855,1,12,0:0:0:0:
160,96,21141,1,0,0:0:0:0:
352,96,21284,1,8,0:0:0:0:
160,96,21569,1,0,0:0:0:0:
352,96,21712,1,8,0:0:0:0:
160,96,21855,1,0,0:0:0:0:
160,96,21926,1,0,0:0:0:0:
352,96,21998,1,8,0:0:0:0:
160,96,22141,1,0,0:0:0:0:
352,96,22284,1,8,0:0:0:0:
160,96,22355,1,0,0:0:0:0:
160,96,22426,1,0,0:0:0:0:
352,96,22569,1,8,0:0:0:0:
352,96,22641,1,8,0:0:0:0:
160,96,22712,1,0,0:0:0:0:
352,96,22855,1,8,0:0:0:0:
160,96,22998,1,0,0:0:0:0:
160,96,23069,1,0,0:0:0:0:
352,96,23141,1,8,0:0:0:0:
352,96,23284,1,8,0:0:0:0:
160,96,23355,1,0,0:0:0:0:
352,96,23426,1,8,0:0:0:0:
352,96,23498,1,8,0:0:0:0:
160,96,23569,1,0,0:0:0:0:
160,96,23641,1,0,0:0:0:0:
352,96,23712,1,8,0:0:0:0:
160,96,23855,1,0,0:0:0:0:
352,96,23998,1,8,0:0:0:0:
352,96,24069,1,8,0:0:0:0:
352,96,24141,1,8,0:0:0:0:
160,96,24284,1,0,0:0:0:0:
160,96,24355,1,0,0:0:0:0:
160,96,24426,1,0,0:0:0:0:
352,96,24569,1,8,0:0:0:0:
352,96,24641,1,8,0:0:0:0:
352,96,24712,1,8,0:0:0:0:
160,96,24855,1,0,0:0:0:0:
352,96,24998,1,8,0:0:0:0:
160,96,25069,1,0,0:0:0:0:
352,96,25141,1,8,0:0:0:0:
160,96,25212,1,0,0:0:0:0:
352,96,25284,1,8,0:0:0:0:
352,96,25355,1,8,0:0:0:0:
160,96,25426,1,0,0:0:0:0:
160,96,25569,1,0,0:0:0:0:
160,96,25641,1,0,0:0:0:0:
352,96,25712,1,8,0:0:0:0:
352,96,25784,1,8,0:0:0:0:
160,96,25855,1,0,0:0:0:0:
160,96,25926,1,0,0:0:0:0:
352,96,25998,1,8,0:0:0:0:
160,96,26141,1,0,0:0:0:0:
160,96,26212,1,0,0:0:0:0:
352,96,26284,1,8,0:0:0:0:
352,96,26355,1,8,0:0:0:0:
160,96,26426,1,0,0:0:0:0:
160,96,26498,1,0,0:0:0:0:
352,96,26569,1,8,0:0:0:0:
160,96,26641,1,0,0:0:0:0:
352,96,26712,1,8,0:0:0:0:
352,96,26855,1,8,0:0:0:0:
352,96,26926,1,8,0:0:0:0:
352,96,26998,1,8,0:0:0:0:
352,96,27069,1,8,0:0:0:0:
160,96,27141,1,0,0:0:0:0:
160,96,27212,1,0,0:0:0:0:
160,96,27284,1,0,0:0:0:0:
352,96,27426,1,8,0:0:0:0:
160,96,27569,1,0,0:0:0:0:
160,96,27641,1,0,0:0:0:0:
352,96,27712,1,8,0:0:0:0:
352,96,27855,1,8,0:0:0:0:
160,96,27926,1,0,0:0:0:0:
352,96,27998,1,8,0:0:0:0:
160,96,28069,1,0,0:0:0:0:
160,96,28141,1,0,0:0:0:0:
160,96,28212,1,0,0:0:0:0:
352,96,28284,1,8,0:0:0:0:
352,96,28426,1,8,0:0:0:0:
160,96,28569,1,0,0:0:0:0:
160,96,28712,1,0,0:0:0:0:
160,96,28784,1,0,0:0:0:0:
352,96,28855,1,8,0:0:0:0:
352,96,28998,1,8,0:0:0:0:
352,96,29069,1,8,0:0:0:0:
160,96,29141,1,0,0:0:0:0:
352,96,29284,1,8,0:0:0:0:
160,96,29355,1,0,0:0:0:0:
352,96,29426,1,8,0:0:0:0:
352,96,29498,1,8,0:0:0:0:
160,96,29569,1,0,0:0:0:0:
352,288,29712,1,12,0:0:0:0:
352,96,29998,1,8,0:0:0:0:
352,96,30141,1,8,0:0:0:0:
352,96,30212,1,8,0:0:0:0:
160,96,30284,1,0,0:0:0:0:
160,96,30426,1,0,0:0:0:0:
160,96,30498,1,0,0:0:0:0:
352,96,30569,1,8,0:0:0:0:
160,96,30712,1,0,0:0:0:0:
160,96,30784,1,0,0:0:0:0:
352,96,30855,1,8,0:0:0:0:
352,96,30998,1,8,0:0:0:0:
160,96,31141,1,0,0:0:0:0:
160,96,31284,1,0,0:0:0:0:
160,96,31355,1,0,0:0:0:0:
352,96,31426,1,8,0:0:0:0:
352,96,31569,1,8,0:0:0:0:
352,96,31641,1,8,0:0:0:0:
160,96,31712,1,0,0:0:0:0:
160,96,31855,1,0,0:0:0:0:
160,96,31926,1,0,0:0:0:0:
352,96,31998,1,8,0:0:0:0:
352,96,32141,1,8,0:0:0:0:
160,96,32284,1,0,0:0:0:0:
160,96,32355,1,0,0:0:0:0:
160,96,32426,1,0,0:0:0:0:
352,96,32569,1,8,0:0:0:0:
352,96,32641,1,8,0:0:0:0:
352,96,32712,1,8,0:0:0:0:
160,96,32855,1,0,0:0:0:0:
160,96,32926,1,0,0:0:0:0:
160,96,32998,1,0,0:0:0:0:
352,96,33141,1,8,0:0:0:0:
160,96,33284,1,0,0:0:0:0:
160,96,33355,1,0,0:0:0:0:
352,96,33426,1,8,0:0:0:0:
160,96,33569,1,0,0:0:0:0:
160,96,33641,1,0,0:0:0:0:
352,96,33712,1,8,0:0:0:0:
160,96,33784,1,0,0:0:0:0:
352,96,33855,1,8,0:0:0:0:
160,96,33926,1,0,0:0:0:0:
352,96,33998,1,8,0:0:0:0:
352,96,34141,1,8,0:0:0:0:
352,96,34212,1,8,0:0:0:0:
160,96,34284,1,0,0:0:0:0:
160,96,34426,1,0,0:0:0:0:
352,96,34569,1,8,0:0:0:0:
160,96,34712,1,0,0:0:0:0:
160,96,34784,1,0,0:0:0:0:
352,96,34855,1,8,0:0:0:0:
352,96,34998,1,8,0:0:0:0:
160,96,35069,1,0,0:0:0:0:
352,96,35141,1,8,0:0:0:0:
160,96,35284,1,0,0:0:0:0:
160,96,35355,1,0,0:0:0:0:
352,96,35426,1,8,0:0:0:0:
160,96,35569,1,0,0:0:0:0:
352,96,35712,1,8,0:0:0:0:
160,96,35784,1,0,0:0:0:0:
160,96,35855,1,0,0:0:0:0:
352,96,35998,1,8,0:0:0:0:
352,96,36069,1,8,0:0:0:0:
160,96,36141,1,0,0:0:0:0:
352,96,36284,1,8,0:0:0:0:
352,96,36355,1,8,0:0:0:0:
352,96,36426,1,8,0:0:0:0:
352,96,36498,1,8,0:0:0:0:
160,96,36569,1,0,0:0:0:0:
160,96,36712,1,0,0:0:0:0:
160,96,36784,1,0,0:0:0:0:
352,96,36855,1,8,0:0:0:0:
352,96,36998,1,8,0:0:0:0:
352,96,37069,1,8,0:0:0:0:
160,96,37141,1,0,0:0:0:0:
160,96,37284,1,0,0:0:0:0:
160,96,37355,1,0,0:0:0:0:
352,96,37426,1,8,0:0:0:0:
160,96,37569,1,0,0:0:0:0:
352,96,37712,1,8,0:0:0:0:
160,96,37855,1,0,0:0:0:0:
160,96,37926,1,0,0:0:0:0:
352,96,37998,1,8,0:0:0:0:
160,96,38141,1,0,0:0:0:0:
352,96,38212,1,8,0:0:0:0:
160,96,38284,1,0,0:0:0:0:
352,96,38426,1,8,0:0:0:0:
160,96,38498,1,0,0:0:0:0:
352,96,38569,1,8,0:0:0:0:
352,96,38712,1,8,0:0:0:0:
160,96,38855,1,0,0:0:0:0:
352,288,39426,1,12,0:0:0:0:
352,288,39641,1,12,0:0:0:0:
352,288,39855,1,12,0:0:0:0:
160,288,39998,1,4,0:0:0:0:
160,96,40141,1,0,0:0:0:0:
352,96,40212,1,8,0:0:0:0:
160,96,40355,1,0,0:0:0:0:
352,96,40426,1,8,0:0:0:0:
160,96,40569,1,0,0:0:0:0:
352,96,40641,1,8,0:0:0:0:
160,96,40712,1,0,0:0:0:0:
160,96,40784,1,0,0:0:0:0:
352,96,40855,1,8,0:0:0:0:
352,96,40926,1,8,0:0:0:0:
160,96,40998,1,0,0:0:0:0:
352,96,41141,1,8,0:0:0:0:
160,96,41212,1,0,0:0:0:0:
160,96,41284,1,0,0:0:0:0:
352,96,41355,1,8,0:0:0:0:
160,96,41498,1,0,0:0:0:0:
352,96,41569,1,8,0:0:0:0:
160,96,41641,1,0,0:0:0:0:
160,96,41712,1,0,0:0:0:0:
352,96,41784,1,8,0:0:0:0:
160,96,41926,1,0,0:0:0:0:
352,96,41998,1,8,0:0:0:0:
352,96,42069,1,8,0:0:0:0:
160,96,42141,1,0,0:0:0:0:
352,96,42284,1,8,0:0:0:0:
160,96,42355,1,0,0:0:0:0:
352,96,42426,1,8,0:0:0:0:
160,96,42498,1,0,0:0:0:0:
352,96,42569,1,8,0:0:0:0:
160,96,42712,1,0,0:0:0:0:
160,96,42784,1,0,0:0:0:0:
352,96,42855,1,8,0:0:0:0:
160,96,42926,1,0,0:0:0:0:
352,96,42998,1,8,0:0:0:0:
352,96,43069,1,8,0:0:0:0:
160,96,43141,1,0,0:0:0:0:
160,96,43212,1,0,0:0:0:0:
352,96,43284,1,8,0:0:0:0:
160,288,43426,1,4,0:0:0:0:
352,96,43569,1,8,0:0:0:0:
352,96,43641,1,8,0:0:0:0:
352,96,43712,1,8,0:0:0:0:
160,288,43855,1,4,0:0:0:0:
352,96,43998,1,8,0:0:0:0:
352,96,44069,1,8,0:0:0:0:
352,96,44141,1,8,0:0:0:0:
160,96,44284,1,0,0:0:0:0:
160,288,44426,1,4,0:0:0:0:
160,288,44569,1,4,0:0:0:0:
352,96,44712,1,8,0:0:0:0:
352,96,44784,1,8,0:0:0:0:
352,96,44855,1,8,0:0:0:0:
160,288,44998,1,4,0:0:0:0:
352,96,45141,1,8,0:0:0:0:
352,96,45212,1,8,0:0:0:0:
352,96,45284,1,8,0:0:0:0:
160,96,45426,1,0,0:0:0:0:
160,288,45569,1,4,0:0:0:0:
352,288,45712,1,12,0:0:0:0:
160,96,45855,1,0,0:0:0:0:
160,96,45926,1,0,0:0:0:0:
352,96,45998,1,8,0:0:0:0:
160,96,46069,1,0,0:0:0:0:
352,96,46141,1,8,0:0:0:0:
352,96,46212,1,8,0:0:0:0:
160,96,46284,1,0,0:0:0:0:
160,96,46426,1,0,0:0:0:0:
160,96,46498,1,0,0:0:0:0:
352,96,46569,1,8,0:0:0:0:
160,96,46641,1,0,0:0:0:0:
160,96,46712,1,0,0:0:0:0:
352,288,46855,1,12,0:0:0:0:
160,96,46998,1,0,0:0:0:0:
160,96,47069,1,0,0:0:0:0:
352,96,47141,1,8,0:0:0:0:
160,96,47284,1,0,0:0:0:0:
160,96,47355,1,0,0:0:0:0:
352,96,47426,1,8,0:0:0:0:
160,96,47569,1,0,0:0:0:0:
160,96,47641,1,0,0:0:0:0:
352,96,47712,1,8,0:0:0:0:
352,96,47784,1,0,0:0:0:0:
160,96,47855,1,0,0:0:0:0:
352,288,47998,1,12,0:0:0:0:
160,96,48212,1,0,0:0:0:0:
352,96,48426,1,8,0:0:0:0:
352,96,48569,1,8,0:0:0:0:
160,96,48641,1,0,0:0:0:0:
160,96,48712,1,0,0:0:0:0:
352,96,48784,1,8,0:0:0:0:
160,96,48926,1,0,0:0:0:0:
352,96,48998,1,8,0:0:0:0:
160,96,49069,1,0,0:0:0:0:
352,96,49141,1,8,0:0:0:0:
160,96,49284,1,0,0:0:0:0:
352,96,49355,1,8,0:0:0:0:
160,96,49498,1,0,0:0:0:0:
352,96,49569,1,8,0:0:0:0:
160,96,49712,1,0,0:0:0:0:
160,96,49784,1,0,0:0:0:0:
352,96,49855,1,8,0:0:0:0:
160,96,49926,1,0,0:0:0:0:
352,96,49998,1,8,0:0:0:0:
352,96,50069,1,8,0:0:0:0:
160,96,50141,1,0,0:0:0:0:
352,96,50284,1,8,0:0:0:0:
160,96,50355,1,0,0:0:0:0:
160,96,50426,1,0,0:0:0:0:
352,96,50498,1,8,0:0:0:0:
160,96,50641,1,0,0:0:0:0:
352,96,50712,1,8,0:0:0:0:
160,96,50784,1,0,0:0:0:0:
160,96,50855,1,0,0:0:0:0:
352,96,50926,1,8,0:0:0:0:
160,96,51069,1,0,0:0:0:0:
352,96,51141,1,8,0:0:0:0:
352,96,51212,1,8,0:0:0:0:
160,96,51284,1,0,0:0:0:0:
352,96,51426,1,8,0:0:0:0:
160,96,51498,1,0,0:0:0:0:
352,96,51569,1,8,0:0:0:0:
160,96,51641,1,0,0:0:0:0:
352,96,51712,1,8,0:0:0:0:
160,96,51855,1,0,0:0:0:0:
160,96,51926,1,0,0:0:0:0:
352,96,51998,1,8,0:0:0:0:
160,96,52069,1,0,0:0:0:0:
352,96,52141,1,8,0:0:0:0:
352,96,52212,1,8,0:0:0:0:
160,96,52284,1,0,0:0:0:0:
160,96,52355,1,0,0:0:0:0:
352,96,52426,1,8,0:0:0:0:
160,288,52569,1,4,0:0:0:0:
352,96,52712,1,8,0:0:0:0:
352,96,52784,1,8,0:0:0:0:
352,96,52855,1,8,0:0:0:0:
160,288,52998,1,4,0:0:0:0:
352,96,53141,1,8,0:0:0:0:
352,96,53212,1,8,0:0:0:0:
352,96,53284,1,8,0:0:0:0:
160,96,53426,1,0,0:0:0:0:
160,288,53569,1,4,0:0:0:0:
160,288,53712,1,4,0:0:0:0:
352,96,53855,1,8,0:0:0:0:
352,96,53926,1,8,0:0:0:0:
352,96,53998,1,8,0:0:0:0:
160,288,54141,1,4,0:0:0:0:
352,96,54284,1,8,0:0:0:0:
352,96,54355,1,8,0:0:0:0:
352,96,54426,1,8,0:0:0:0:
160,96,54569,1,0,0:0:0:0:
352,96,54855,1,8,0:0:0:0:
352,96,54950,1,8,0:0:0:0:
352,96,55045,1,8,0:0:0:0:
160,96,55141,1,0,0:0:0:0:
352,96,55284,1,8,0:0:0:0:
160,96,55355,1,0,0:0:0:0:
352,96,55426,1,8,0:0:0:0:
352,96,55498,1,8,0:0:0:0:
160,96,55569,1,0,0:0:0:0:
160,96,55641,1,0,0:0:0:0:
352,96,55712,1,8,0:0:0:0:
160,96,55855,1,0,0:0:0:0:
352,288,55998,1,12,0:0:0:0:
160,96,56141,1,0,0:0:0:0:
160,96,56212,1,0,0:0:0:0:
352,96,56284,1,8,0:0:0:0:
352,96,56355,1,8,0:0:0:0:
160,96,56426,1,0,0:0:0:0:
160,96,56498,1,0,0:0:0:0:
352,96,56569,1,8,0:0:0:0:
160,96,56712,1,0,0:0:0:0:
160,96,56784,1,0,0:0:0:0:
352,96,56855,1,8,0:0:0:0:
160,96,56926,1,0,0:0:0:0:
160,96,56998,1,0,0:0:0:0:
352,288,57141,1,12,0:0:0:0:
256,192,57284,12,0,61141,0:0:0:0:
352,96,61712,5,8,0:0:0:0:
160,96,62855,1,0,0:0:0:0:
160,96,63998,1,0,0:0:0:0:
352,96,66284,5,8,0:0:0:0:
160,96,66426,1,0,0:0:0:0:
160,96,66498,1,0,0:0:0:0:
352,96,66569,1,8,0:0:0:0:
352,96,66712,1,8,0:0:0:0:
160,96,66855,1,0,0:0:0:0:
160,96,66998,1,0,0:0:0:0:
352,96,67141,1,8,0:0:0:0:
160,96,67426,1,0,0:0:0:0:
160,96,67569,1,0,0:0:0:0:
160,96,67641,1,0,0:0:0:0:
352,96,67712,1,8,0:0:0:0:
160,96,67855,1,0,0:0:0:0:
352,96,67998,1,8,0:0:0:0:
352,96,68141,1,8,0:0:0:0:
160,96,68284,1,0,0:0:0:0:
160,96,68569,1,0,0:0:0:0:
160,96,68712,1,0,0:0:0:0:
160,96,68784,1,0,0:0:0:0:
352,96,68855,1,8,0:0:0:0:
352,96,68998,1,8,0:0:0:0:
160,96,69141,1,0,0:0:0:0:
160,96,69284,1,0,0:0:0:0:
352,96,69426,1,8,0:0:0:0:
160,96,69712,1,0,0:0:0:0:
160,96,69855,1,0,0:0:0:0:
160,96,69926,1,0,0:0:0:0:
352,96,69998,1,8,0:0:0:0:
160,96,70141,1,0,0:0:0:0:
352,96,70284,1,8,0:0:0:0:
352,96,70355,1,8,0:0:0:0:
160,96,70426,1,0,0:0:0:0:
160,96,70498,1,0,0:0:0:0:
352,96,70569,1,8,0:0:0:0:
352,96,70712,1,8,0:0:0:0:
160,96,70855,1,0,0:0:0:0:
160,96,70998,1,0,0:0:0:0:
160,96,71069,1,0,0:0:0:0:
352,96,71141,1,8,0:0:0:0:
352,96,71284,1,8,0:0:0:0:
160,96,71426,1,0,0:0:0:0:
160,96,71569,1,0,0:0:0:0:
352,96,71712,1,8,0:0:0:0:
160,96,71998,1,0,0:0:0:0:
160,96,72141,1,0,0:0:0:0:
160,96,72212,1,0,0:0:0:0:
352,96,72284,1,8,0:0:0:0:
160,96,72426,1,0,0:0:0:0:
352,96,72569,1,8,0:0:0:0:
352,96,72712,1,8,0:0:0:0:
160,96,72855,1,0,0:0:0:0:
160,96,73141,1,0,0:0:0:0:
160,96,73284,1,0,0:0:0:0:
160,96,73355,1,0,0:0:0:0:
352,96,73426,1,8,0:0:0:0:
352,96,73569,1,8,0:0:0:0:
160,96,73712,1,0,0:0:0:0:
160,96,73855,1,0,0:0:0:0:
352,96,73998,1,8,0:0:0:0:
352,96,74284,1,8,0:0:0:0:
160,96,74426,1,0,0:0:0:0:
160,96,74498,1,0,0:0:0:0:
352,96,74569,1,8,0:0:0:0:
160,96,74712,1,0,0:0:0:0:
352,96,74855,1,8,0:0:0:0:
160,96,74926,1,0,0:0:0:0:
352,96,74998,1,8,0:0:0:0:
160,96,75069,1,0,0:0:0:0:
352,96,75141,1,8,0:0:0:0:
352,96,75212,1,8,0:0:0:0:
352,96,75284,1,8,0:0:0:0:
352,96,75355,1,8,0:0:0:0:
160,288,75426,1,4,0:0:0:0:
352,96,75998,1,8,0:0:0:0:
352,96,76284,1,8,0:0:0:0:
160,96,76474,1,0,0:0:0:0:
352,96,76569,1,8,0:0:0:0:
160,96,76664,1,0,0:0:0:0:
160,96,76760,1,0,0:0:0:0:
352,96,76855,1,8,0:0:0:0:
160,96,76950,1,0,0:0:0:0:
160,96,77045,1,0,0:0:0:0:
352,96,77141,1,8,0:0:0:0:
352,96,77426,1,8,0:0:0:0:
352,96,77617,1,8,0:0:0:0:
160,96,77712,1,0,0:0:0:0:
352,96,77998,1,8,0:0:0:0:
160,96,78141,1,0,0:0:0:0:
160,96,78212,1,0,0:0:0:0:
352,96,78284,1,8,0:0:0:0:
160,96,78569,1,0,0:0:0:0:
160,96,78760,1,0,0:0:0:0:
352,96,78855,1,8,0:0:0:0:
352,96,79045,1,8,0:0:0:0:
160,96,79141,1,0,0:0:0:0:
160,96,79284,1,0,0:0:0:0:
352,96,79426,1,8,0:0:0:0:
160,96,79712,1,0,0:0:0:0:
352,96,79807,1,8,0:0:0:0:
352,96,79903,1,8,0:0:0:0:
160,96,79998,1,0,0:0:0:0:
160,96,80284,1,0,0:0:0:0:
160,96,80474,1,0,0:0:0:0:
352,96,80569,1,8,0:0:0:0:
352,96,80855,1,8,0:0:0:0:
352,96,81045,1,8,0:0:0:0:
160,96,81141,1,0,0:0:0:0:
160,96,81236,1,0,0:0:0:0:
160,96,81331,1,0,0:0:0:0:
160,96,81426,1,0,0:0:0:0:
160,96,81522,1,0,0:0:0:0:
160,96,81617,1,0,0:0:0:0:
352,96,81712,1,8,0:0:0:0:
352,96,81998,1,8,0:0:0:0:
352,96,82188,1,8,0:0:0:0:
160,96,82284,1,0,0:0:0:0:
160,96,82569,1,0,0:0:0:0:
160,96,82760,1,0,0:0:0:0:
352,96,82855,1,8,0:0:0:0:
352,96,83141,1,8,0:0:0:0:
352,96,83331,1,8,0:0:0:0:
160,96,83426,1,0,0:0:0:0:
160,96,83522,1,0,0:0:0:0:
160,96,83617,1,0,0:0:0:0:
160,96,83712,1,0,0:0:0:0:
352,96,83855,1,8,0:0:0:0:
160,96,83926,1,0,0:0:0:0:
352,96,83998,1,8,0:0:0:0:
352,96,84284,1,8,0:0:0:0:
160,96,84379,1,0,0:0:0:0:
160,96,84474,1,0,0:0:0:0:
352,288,84569,1,12,0:0:0:0:
352,96,85141,1,8,0:0:0:0:
160,96,85712,1,0,0:0:0:0:
352,96,85998,1,8,0:0:0:0:
160,96,86284,1,0,0:0:0:0:
352,96,86426,1,8,0:0:0:0:
160,96,86712,1,0,0:0:0:0:
352,96,87141,1,8,0:0:0:0:
160,96,87426,1,0,0:0:0:0:
352,96,87569,1,8,0:0:0:0:
160,96,87855,1,0,0:0:0:0:
256,192,88569,12,0,88998,0:0:0:0:
160,288,89141,5,4,0:0:0:0:
352,96,89426,1,8,0:0:0:0:
352,96,89569,1,8,0:0:0:0:
352,96,89641,1,8,0:0:0:0:
160,96,89712,1,0,0:0:0:0:
160,96,89855,1,0,0:0:0:0:
352,288,89998,1,12,0:0:0:0:
352,288,90141,1,12,0:0:0:0:
160,288,90284,1,4,0:0:0:0:
352,96,90569,1,8,0:0:0:0:
160,96,90712,1,0,0:0:0:0:
160,96,90784,1,0,0:0:0:0:
352,96,90855,1,8,0:0:0:0:
160,96,90998,1,0,0:0:0:0:
352,288,91141,1,12,0:0:0:0:
352,288,91284,1,12,0:0:0:0:
160,288,91426,1,4,0:0:0:0:
352,96,91712,1,8,0:0:0:0:
352,96,91855,1,8,0:0:0:0:
160,288,91998,1,4,0:0:0:0:
160,96,92141,1,0,0:0:0:0:
160,96,92212,1,0,0:0:0:0:
352,96,92284,1,8,0:0:0:0:
352,96,92426,1,8,0:0:0:0:
352,96,92498,1,8,0:0:0:0:
160,288,92569,1,4,0:0:0:0:
160,96,92712,1,0,0:0:0:0:
160,96,92784,1,0,0:0:0:0:
352,96,92855,1,8,0:0:0:0:
352,96,92998,1,8,0:0:0:0:
160,96,93069,1,0,0:0:0:0:
352,96,93141,1,8,0:0:0:0:
352,96,93212,1,8,0:0:0:0:
160,96,93284,1,0,0:0:0:0:
160,96,93355,1,0,0:0:0:0:
352,96,93426,1,8,0:0:0:0:
160,96,93498,1,0,0:0:0:0:
160,96,93569,1,0,0:0:0:0:
352,288,93712,1,12,0:0:0:0:
352,288,94284,1,12,0:0:0:0:
352,288,94498,1,12,0:0:0:0:
352,288,94712,1,12,0:0:0:0:
160,288,94855,1,4,0:0:0:0:
160,96,94998,1,0,0:0:0:0:
352,96,95069,1,8,0:0:0:0:
160,96,95212,1,0,0:0:0:0:
352,96,95284,1,8,0:0:0:0:
160,96,95426,1,0,0:0:0:0:
352,96,95498,1,8,0:0:0:0:
160,96,95569,1,0,0:0:0:0:
160,96,95641,1,0,0:0:0:0:
352,96,95712,1,8,0:0:0:0:
352,96,95784,1,8,0:0:0:0:
160,96,95855,1,0,0:0:0:0:
352,96,95998,1,8,0:0:0:0:
160,96,96069,1,0,0:0:0:0:
352,96,96141,1,8,0:0:0:0:
352,96,96212,1,8,0:0:0:0:
160,288,96284,1,4,0:0:0:0:
352,96,96426,1,8,0:0:0:0:
160,96,96498,1,0,0:0:0:0:
160,96,96569,1,0,0:0:0:0:
352,96,96641,1,8,0:0:0:0:
160,96,96784,1,0,0:0:0:0:
352,96,96855,1,8,0:0:0:0:
352,96,96926,1,8,0:0:0:0:
160,96,96998,1,0,0:0:0:0:
352,96,97141,1,8,0:0:0:0:
160,96,97212,1,0,0:0:0:0:
352,96,97284,1,8,0:0:0:0:
160,96,97355,1,0,0:0:0:0:
352,96,97426,1,8,0:0:0:0:
160,96,97569,1,0,0:0:0:0:
160,96,97641,1,0,0:0:0:0:
352,96,97712,1,8,0:0:0:0:
160,96,97784,1,0,0:0:0:0:
352,96,97855,1,8,0:0:0:0:
352,96,97926,1,8,0:0:0:0:
160,96,97998,1,0,0:0:0:0:
160,96,98069,1,0,0:0:0:0:
352,96,98141,1,8,0:0:0:0:
160,288,98284,1,4,0:0:0:0:
352,96,98426,1,8,0:0:0:0:
352,96,98498,1,8,0:0:0:0:
352,96,98569,1,8,0:0:0:0:
160,288,98712,1,4,0:0:0:0:
352,96,98855,1,8,0:0:0:0:
352,96,98926,1,8,0:0:0:0:
352,96,98998,1,8,0:0:0:0:
160,96,99141,1,0,0:0:0:0:
160,288,99284,1,4,0:0:0:0:
160,288,99426,1,4,0:0:0:0:
352,96,99569,1,8,0:0:0:0:
352,96,99641,1,8,0:0:0:0:
352,96,99712,1,8,0:0:0:0:
160,288,99855,1,4,0:0:0:0:
352,96,99998,1,8,0:0:0:0:
352,96,100069,1,8,0:0:0:0:
352,96,100141,1,8,0:0:0:0:
160,96,100284,1,0,0:0:0:0:
160,96,100426,1,0,0:0:0:0:
160,96,100498,1,0,0:0:0:0:
352,96,100569,1,8,0:0:0:0:
160,96,100712,1,0,0:0:0:0:
160,96,100784,1,0,0:0:0:0:
352,96,100855,1,8,0:0:0:0:
160,96,100926,1,0,0:0:0:0:
352,96,100998,1,8,0:0:0:0:
352,96,101069,1,8,0:0:0:0:
160,96,101141,1,0,0:0:0:0:
160,96,101284,1,0,0:0:0:0:
160,96,101355,1,0,0:0:0:0:
352,96,101426,1,8,0:0:0:0:
160,96,101498,1,0,0:0:0:0:
160,96,101569,1,0,0:0:0:0:
352,288,101712,1,12,0:0:0:0:
160,96,101855,1,0,0:0:0:0:
160,96,101926,1,0,0:0:0:0:
352,96,101998,1,8,0:0:0:0:
160,96,102141,1,0,0:0:0:0:
160,96,102212,1,0,0:0:0:0:
352,96,102284,1,8,0:0:0:0:
160,96,102426,1,0,0:0:0:0:
160,96,102498,1,0,0:0:0:0:
352,96,102569,1,8,0:0:0:0:
352,96,102641,1,8,0:0:0:0:
160,96,102712,1,0,0:0:0:0:
160,96,102784,1,0,0:0:0:0:
352,288,102855,1,12,0:0:0:0:
160,96,103069,1,0,0:0:0:0:
352,96,103284,1,8,0:0:0:0:
352,96,103426,1,8,0:0:0:0:
160,96,103498,1,0,0:0:0:0:
160,96,103569,1,0,0:0:0:0:
352,96,103641,1,8,0:0:0:0:
160,96,103784,1,0,0:0:0:0:
352,96,103855,1,8,0:0:0:0:
160,96,103926,1,0,0:0:0:0:
352,96,103998,1,8,0:0:0:0:
160,96,104141,1,0,0:0:0:0:
352,96,104212,1,8,0:0:0:0:
160,96,104355,1,0,0:0:0:0:
352,96,104426,1,8,0:0:0:0:
160,96,104569,1,0,0:0:0:0:
160,96,104641,1,0,0:0:0:0:
352,96,104712,1,8,0:0:0:0:
160,96,104784,1,0,0:0:0:0:
352,96,104855,1,8,0:0:0:0:
352,96,104926,1,8,0:0:0:0:
160,96,104998,1,0,0:0:0:0:
352,96,105141,1,8,0:0:0:0:
160,96,105212,1,0,0:0:0:0:
160,96,105284,1,0,0:0:0:0:
352,96,105355,1,8,0:0:0:0:
160,96,105498,1,0,0:0:0:0:
352,96,105569,1,8,0:0:0:0:
160,96,105641,1,0,0:0:0:0:
160,96,105712,1,0,0:0:0:0:
352,96,105784,1,8,0:0:0:0:
160,96,105926,1,0,0:0:0:0:
352,96,105998,1,8,0:0:0:0:
352,96,106069,1,8,0:0:0:0:
160,96,106141,1,0,0:0:0:0:
352,96,106284,1,8,0:0:0:0:
160,96,106355,1,0,0:0:0:0:
352,96,106426,1,8,0:0:0:0:
160,96,106498,1,0,0:0:0:0:
352,96,106569,1,8,0:0:0:0:
160,96,106712,1,0,0:0:0:0:
160,96,106784,1,0,0:0:0:0:
352,96,106855,1,8,0:0:0:0:
160,96,106926,1,0,0:0:0:0:
352,96,106998,1,8,0:0:0:0:
352,96,107069,1,8,0:0:0:0:
160,96,107141,1,0,0:0:0:0:
160,96,107212,1,0,0:0:0:0:
352,96,107284,1,8,0:0:0:0:
160,288,107426,1,4,0:0:0:0:
352,96,107569,1,8,0:0:0:0:
352,96,107641,1,8,0:0:0:0:
352,96,107712,1,8,0:0:0:0:
160,288,107855,1,4,0:0:0:0:
352,96,107998,1,8,0:0:0:0:
352,96,108069,1,8,0:0:0:0:
352,96,108141,1,8,0:0:0:0:
160,96,108284,1,0,0:0:0:0:
160,288,108426,1,4,0:0:0:0:
160,288,108569,1,4,0:0:0:0:
352,96,108712,1,8,0:0:0:0:
352,96,108784,1,8,0:0:0:0:
352,96,108855,1,8,0:0:0:0:
160,288,108998,1,4,0:0:0:0:
352,96,109141,1,8,0:0:0:0:
352,96,109212,1,8,0:0:0:0:
352,96,109284,1,8,0:0:0:0:
160,96,109426,1,0,0:0:0:0:
352,96,109712,1,8,0:0:0:0:
352,96,109807,1,8,0:0:0:0:
352,96,109903,1,8,0:0:0:0:
160,96,109998,1,0,0:0:0:0:
352,96,110141,1,8,0:0:0:0:
160,96,110212,1,0,0:0:0:0:
352,96,110284,1,8,0:0:0:0:
352,96,110355,1,8,0:0:0:0:
160,96,110426,1,0,0:0:0:0:
160,96,110498,1,0,0:0:0:0:
352,96,110569,1,8,0:0:0:0:
160,96,110712,1,0,0:0:0:0:
352,288,110855,1,12,0:0:0:0:
160,96,110998,1,0,0:0:0:0:
160,96,111069,1,0,0:0:0:0:
352,96,111141,1,8,0:0:0:0:
352,96,111212,1,8,0:0:0:0:
160,96,111284,1,0,0:0:0:0:
160,96,111355,1,0,0:0:0:0:
352,96,111426,1,8,0:0:0:0:
160,96,111569,1,0,0:0:0:0:
160,96,111641,1,0,0:0:0:0:
352,96,111712,1,8,0:0:0:0:
160,96,111784,1,0,0:0:0:0:
160,96,111855,1,0,0:0:0:0:
352,288,111998,1,12,0:0:0:0:
