osu file format v14

[General]
AudioFilename: audio.mp3
AudioLeadIn: 0
PreviewTime: 53156
Countdown: 0
SampleSet: Normal
StackLeniency: 0.7
Mode: 1
LetterboxInBreaks: 0
WidescreenStoryboard: 1

[Editor]
Bookmarks: 1297,11744,22446,32824,43202,53581,63959,74337,84716,85040,95419,105797,116176,126554,136932,147311,157689,168068,178446,188824
DistanceSpacing: 1
BeatDivisor: 4
GridSize: 32
TimelineZoom: 1.4

[Metadata]
Title:Kodoku Egoism
TitleUnicode:孤独≒エゴイズム
Artist:Rohi
ArtistUnicode:ろひ
Creator:DakeDekaane
Version:Muzukashii
Source:
Tags:featured artist vocaloid kagamine rin japanese electronic lonely 鏡音リン Rohi-P
BeatmapID:2451506
BeatmapSetID:1175341

[Difficulty]
HPDrainRate:6.5
CircleSize:2
OverallDifficulty:5
ApproachRate:10
SliderMultiplier:1.4
SliderTickRate:1

[Events]
//Background and Video events
0,0,"83865827_p0.jpg",0,150
//Break Periods
//Storyboard Layer 0 (Background)
//Storyboard Layer 1 (Fail)
//Storyboard Layer 2 (Pass)
//Storyboard Layer 3 (Foreground)
//Storyboard Layer 4 (Overlay)
//Storyboard Sound Samples

[TimingPoints]
1305,324.324324324324,4,1,0,100,1,0
9737,335.195530726257,4,1,0,100,1,8
10407,348.837209302326,4,1,0,100,1,0
11104,324.324324324324,4,1,0,100,1,8
11104,-103.641456582633,4,1,0,100,0,8
11752,324.324324324324,4,1,0,100,1,0
22130,324.324324324324,4,1,0,100,1,8
22454,324.324324324324,4,1,0,100,1,0
53589,-100,4,1,0,100,0,1
74345,-100,4,1,0,100,0,0
84724,324.324324324324,4,1,0,100,1,8
85049,324.324324324324,4,1,0,100,1,0
152832,-100,4,1,0,100,0,1
168076,-100,4,1,0,100,0,0

[HitObjects]
256,192,10407,5,4,0:0:0:0:
256,192,11104,1,4,0:0:0:0:
256,192,11752,1,4,0:0:0:0:
256,192,12076,1,8,0:0:0:0:
256,192,12400,1,0,0:0:0:0:
256,192,12562,1,0,0:0:0:0:
256,192,12724,1,8,0:0:0:0:
256,192,13049,1,0,0:0:0:0:
256,192,13211,1,0,0:0:0:0:
256,192,13373,1,8,0:0:0:0:
256,192,13535,1,8,0:0:0:0:
256,192,13697,1,0,0:0:0:0:
256,192,13860,1,8,0:0:0:0:
256,192,13941,1,8,0:0:0:0:
256,192,14022,1,8,0:0:0:0:
256,192,14184,1,8,0:0:0:0:
256,192,14346,1,0,0:0:0:0:
256,192,14670,1,8,0:0:0:0:
256,192,14995,1,0,0:0:0:0:
256,192,15157,1,0,0:0:0:0:
256,192,15319,1,8,0:0:0:0:
256,192,15643,1,0,0:0:0:0:
256,192,15806,1,0,0:0:0:0:
256,192,15968,1,0,0:0:0:0:
256,192,16130,1,8,0:0:0:0:
256,192,16211,1,8,0:0:0:0:
256,192,16292,1,8,0:0:0:0:
256,192,16454,1,0,0:0:0:0:
256,192,16941,1,0,0:0:0:0:
256,192,17265,1,8,0:0:0:0:
256,192,17589,1,0,0:0:0:0:
256,192,17751,1,0,0:0:0:0:
256,192,17914,1,8,0:0:0:0:
256,192,18238,1,0,0:0:0:0:
256,192,18400,1,0,0:0:0:0:
256,192,18562,1,8,0:0:0:0:
256,192,18724,1,8,0:0:0:0:
256,192,18887,1,0,0:0:0:0:
256,192,19049,1,8,0:0:0:0:
256,192,19130,1,8,0:0:0:0:
256,192,19211,1,8,0:0:0:0:
256,192,19373,1,8,0:0:0:0:
256,192,19535,1,0,0:0:0:0:
256,192,19860,1,8,0:0:0:0:
256,192,20184,1,0,0:0:0:0:
256,192,20346,1,0,0:0:0:0:
256,192,20508,1,8,0:0:0:0:
256,192,20833,12,0,21914,0:0:0:0:
256,192,22454,5,4,0:0:0:0:
256,192,23102,1,0,0:0:0:0:
256,192,23751,1,0,0:0:0:0:
256,192,24075,1,0,0:0:0:0:
256,192,24399,1,0,0:0:0:0:
256,192,24562,1,8,0:0:0:0:
256,192,24724,1,0,0:0:0:0:
256,192,24886,1,8,0:0:0:0:
256,192,25048,1,0,0:0:0:0:
256,192,25697,1,0,0:0:0:0:
256,192,26345,1,0,0:0:0:0:
256,192,26670,1,0,0:0:0:0:
256,192,26994,1,0,0:0:0:0:
256,192,27156,1,8,0:0:0:0:
256,192,27318,1,0,0:0:0:0:
256,192,27481,1,0,0:0:0:0:
256,192,27643,1,0,0:0:0:0:
256,192,28291,1,0,0:0:0:0:
256,192,28940,1,0,0:0:0:0:
256,192,29264,1,0,0:0:0:0:
256,192,29589,1,0,0:0:0:0:
256,192,29751,1,8,0:0:0:0:
256,192,29913,1,0,0:0:0:0:
256,192,30075,1,8,0:0:0:0:
256,192,30237,1,0,0:0:0:0:
256,192,30886,1,0,0:0:0:0:
256,192,31535,1,0,0:0:0:0:
256,192,31859,1,0,0:0:0:0:
256,192,32183,1,0,0:0:0:0:
256,192,32832,1,0,0:0:0:0:
256,192,32994,1,8,0:0:0:0:
256,192,33318,1,0,0:0:0:0:
256,192,33399,1,0,0:0:0:0:
256,192,33481,1,0,0:0:0:0:
256,192,33643,1,8,0:0:0:0:
256,192,33967,1,0,0:0:0:0:
256,192,34129,1,8,0:0:0:0:
256,192,34453,1,8,0:0:0:0:
256,192,34778,1,0,0:0:0:0:
256,192,34859,1,0,0:0:0:0:
256,192,34940,1,0,0:0:0:0:
256,192,35102,1,8,0:0:0:0:
256,192,35264,1,8,0:0:0:0:
256,192,35426,1,0,0:0:0:0:
256,192,35589,1,8,0:0:0:0:
256,192,35913,1,0,0:0:0:0:
256,192,35994,1,0,0:0:0:0:
256,192,36075,1,0,0:0:0:0:
256,192,36237,1,8,0:0:0:0:
256,192,36562,1,0,0:0:0:0:
256,192,36724,1,8,0:0:0:0:
256,192,37048,1,8,0:0:0:0:
256,192,37372,1,8,0:0:0:0:
256,192,37453,1,8,0:0:0:0:
256,192,37535,1,8,0:0:0:0:
256,192,37697,1,0,0:0:0:0:
256,192,37859,1,8,0:0:0:0:
256,192,38021,1,0,0:0:0:0:
256,192,38183,1,8,0:0:0:0:
256,192,38508,1,0,0:0:0:0:
256,192,38589,1,0,0:0:0:0:
256,192,38670,1,0,0:0:0:0:
256,192,38832,1,8,0:0:0:0:
256,192,39156,1,0,0:0:0:0:
256,192,39318,1,8,0:0:0:0:
256,192,39643,1,8,0:0:0:0:
256,192,39967,1,0,0:0:0:0:
256,192,40048,1,0,0:0:0:0:
256,192,40129,1,0,0:0:0:0:
256,192,40291,1,8,0:0:0:0:
256,192,40453,1,8,0:0:0:0:
256,192,40616,1,0,0:0:0:0:
256,192,40778,1,8,0:0:0:0:
256,192,41102,1,0,0:0:0:0:
256,192,41183,1,0,0:0:0:0:
256,192,41264,1,0,0:0:0:0:
256,192,41426,1,8,0:0:0:0:
256,192,41751,1,0,0:0:0:0:
256,192,41913,1,12,0:0:0:0:
256,192,42237,1,12,0:0:0:0:
256,192,42562,1,12,0:0:0:0:
256,192,43210,1,0,0:0:0:0:
256,192,43372,1,0,0:0:0:0:
256,192,43859,1,0,0:0:0:0:
256,192,44021,1,0,0:0:0:0:
256,192,44508,1,0,0:0:0:0:
256,192,44670,1,0,0:0:0:0:
256,192,45156,1,0,0:0:0:0:
256,192,45481,1,8,0:0:0:0:
256,192,45643,1,8,0:0:0:0:
256,192,45805,1,0,0:0:0:0:
256,192,45967,1,0,0:0:0:0:
256,192,46453,1,0,0:0:0:0:
256,192,46616,1,0,0:0:0:0:
256,192,47102,1,0,0:0:0:0:
256,192,47264,1,0,0:0:0:0:
256,192,47751,1,0,0:0:0:0:
256,192,48075,1,8,0:0:0:0:
256,192,48237,1,8,0:0:0:0:
256,192,48399,1,0,0:0:0:0:
256,192,48562,1,0,0:0:0:0:
256,192,49048,1,0,0:0:0:0:
256,192,49210,1,0,0:0:0:0:
256,192,49697,1,0,0:0:0:0:
256,192,49859,1,0,0:0:0:0:
256,192,50345,1,0,0:0:0:0:
256,192,50670,1,8,0:0:0:0:
256,192,50832,1,8,0:0:0:0:
256,192,50994,1,0,0:0:0:0:
256,192,51156,1,0,0:0:0:0:
256,192,51643,1,0,0:0:0:0:
256,192,51805,1,0,0:0:0:0:
256,192,52291,2,0,B|512:192|512:192|512:160,1,280
256,192,53589,1,4,0:0:0:0:
256,192,53751,1,0,0:0:0:0:
256,192,53832,1,0,0:0:0:0:
256,192,53913,1,0,0:0:0:0:
256,192,54075,1,0,0:0:0:0:
256,192,54237,1,8,0:0:0:0:
256,192,54562,1,8,0:0:0:0:
256,192,54724,1,8,0:0:0:0:
256,192,54886,1,0,0:0:0:0:
256,192,55048,1,8,0:0:0:0:
256,192,55129,1,8,0:0:0:0:
256,192,55210,1,8,0:0:0:0:
256,192,55372,1,0,0:0:0:0:
256,192,55535,1,8,0:0:0:0:
256,192,55859,1,8,0:0:0:0:
256,192,56021,1,8,0:0:0:0:
256,192,56183,1,0,0:0:0:0:
256,192,56345,1,0,0:0:0:0:
256,192,56426,1,0,0:0:0:0:
256,192,56508,1,0,0:0:0:0:
256,192,56670,1,0,0:0:0:0:
256,192,56832,1,8,0:0:0:0:
256,192,57156,1,8,0:0:0:0:
256,192,57318,1,8,0:0:0:0:
256,192,57481,12,0,58562,0:0:0:0:
256,192,58778,5,12,0:0:0:0:
256,192,59102,1,0,0:0:0:0:
256,192,59264,1,0,0:0:0:0:
256,192,59426,1,0,0:0:0:0:
256,192,59751,1,0,0:0:0:0:
256,192,59913,1,0,0:0:0:0:
256,192,60075,1,0,0:0:0:0:
256,192,60399,1,0,0:0:0:0:
256,192,60562,1,0,0:0:0:0:
256,192,60724,1,0,0:0:0:0:
256,192,61048,1,0,0:0:0:0:
256,192,61210,1,0,0:0:0:0:
256,192,61372,1,0,0:0:0:0:
256,192,61697,1,8,0:0:0:0:
256,192,61859,1,8,0:0:0:0:
256,192,62021,1,8,0:0:0:0:
256,192,62345,1,8,0:0:0:0:
256,192,62670,1,0,0:0:0:0:
256,192,62832,1,0,0:0:0:0:
256,192,62994,1,8,0:0:0:0:
256,192,63156,1,8,0:0:0:0:
256,192,63318,1,0,0:0:0:0:
256,192,63967,1,4,0:0:0:0:
256,192,64129,1,0,0:0:0:0:
256,192,64210,1,0,0:0:0:0:
256,192,64291,1,0,0:0:0:0:
256,192,64453,1,0,0:0:0:0:
256,192,64616,1,8,0:0:0:0:
256,192,64940,1,8,0:0:0:0:
256,192,65102,1,8,0:0:0:0:
256,192,65264,1,0,0:0:0:0:
256,192,65426,1,8,0:0:0:0:
256,192,65508,1,8,0:0:0:0:
256,192,65589,1,8,0:0:0:0:
256,192,65751,1,0,0:0:0:0:
256,192,65913,1,8,0:0:0:0:
256,192,66237,1,8,0:0:0:0:
256,192,66399,1,8,0:0:0:0:
256,192,66562,1,0,0:0:0:0:
256,192,66724,1,0,0:0:0:0:
256,192,66805,1,0,0:0:0:0:
256,192,66886,1,0,0:0:0:0:
256,192,67048,1,0,0:0:0:0:
256,192,67210,1,8,0:0:0:0:
256,192,67535,1,8,0:0:0:0:
256,192,67697,1,8,0:0:0:0:
256,192,67859,12,0,68940,0:0:0:0:
256,192,69156,5,12,0:0:0:0:
256,192,69481,1,0,0:0:0:0:
256,192,69643,1,0,0:0:0:0:
256,192,69805,1,0,0:0:0:0:
256,192,70129,1,0,0:0:0:0:
256,192,70291,1,0,0:0:0:0:
256,192,70453,1,0,0:0:0:0:
256,192,70778,1,0,0:0:0:0:
256,192,70940,1,0,0:0:0:0:
256,192,71102,1,0,0:0:0:0:
256,192,71426,1,0,0:0:0:0:
256,192,71589,1,0,0:0:0:0:
256,192,71751,1,0,0:0:0:0:
256,192,72075,1,8,0:0:0:0:
256,192,72237,1,8,0:0:0:0:
256,192,72399,1,8,0:0:0:0:
256,192,72724,1,8,0:0:0:0:
256,192,73048,1,8,0:0:0:0:
256,192,73210,1,8,0:0:0:0:
256,192,73372,1,0,0:0:0:0:
256,192,73535,1,0,0:0:0:0:
256,192,73697,1,8,0:0:0:0:
256,192,74345,1,4,0:0:0:0:
256,192,74670,1,8,0:0:0:0:
256,192,74994,1,0,0:0:0:0:
256,192,75318,1,8,0:0:0:0:
256,192,75643,1,0,0:0:0:0:
256,192,75805,1,0,0:0:0:0:
256,192,75886,1,0,0:0:0:0:
256,192,75967,1,0,0:0:0:0:
256,192,76129,1,8,0:0:0:0:
256,192,76291,1,0,0:0:0:0:
256,192,76453,1,8,0:0:0:0:
256,192,76535,1,8,0:0:0:0:
256,192,76616,1,8,0:0:0:0:
256,192,76778,1,8,0:0:0:0:
256,192,76940,1,0,0:0:0:0:
256,192,77264,1,8,0:0:0:0:
256,192,77589,1,0,0:0:0:0:
256,192,77913,1,8,0:0:0:0:
256,192,78237,1,0,0:0:0:0:
256,192,78399,1,0,0:0:0:0:
256,192,78481,1,0,0:0:0:0:
256,192,78562,1,0,0:0:0:0:
256,192,78724,1,8,0:0:0:0:
256,192,78805,1,8,0:0:0:0:
256,192,78886,1,8,0:0:0:0:
256,192,79048,1,0,0:0:0:0:
256,192,79535,1,0,0:0:0:0:
256,192,79859,1,8,0:0:0:0:
256,192,80183,1,0,0:0:0:0:
256,192,80508,1,8,0:0:0:0:
256,192,80832,1,0,0:0:0:0:
256,192,80994,1,0,0:0:0:0:
256,192,81075,1,0,0:0:0:0:
256,192,81156,1,0,0:0:0:0:
256,192,81318,1,8,0:0:0:0:
256,192,81481,1,0,0:0:0:0:
256,192,81643,1,8,0:0:0:0:
256,192,81724,1,8,0:0:0:0:
256,192,81805,1,8,0:0:0:0:
256,192,81967,1,8,0:0:0:0:
256,192,82129,1,0,0:0:0:0:
256,192,82453,1,8,0:0:0:0:
256,192,82778,1,0,0:0:0:0:
256,192,82940,1,8,0:0:0:0:
256,192,83021,1,8,0:0:0:0:
256,192,83102,1,8,0:0:0:0:
256,192,83264,1,8,0:0:0:0:
256,192,83426,12,0,84508,0:0:0:0:
256,192,85048,5,4,0:0:0:0:
256,192,85697,1,0,0:0:0:0:
256,192,86346,1,0,0:0:0:0:
256,192,86670,1,0,0:0:0:0:
256,192,86994,1,0,0:0:0:0:
256,192,87157,1,8,0:0:0:0:
256,192,87319,1,0,0:0:0:0:
256,192,87481,1,8,0:0:0:0:
256,192,87643,1,0,0:0:0:0:
256,192,88292,1,0,0:0:0:0:
256,192,88940,1,0,0:0:0:0:
256,192,89265,1,0,0:0:0:0:
256,192,89589,1,0,0:0:0:0:
256,192,89751,1,8,0:0:0:0:
256,192,89913,1,0,0:0:0:0:
256,192,90076,1,0,0:0:0:0:
256,192,90238,1,0,0:0:0:0:
256,192,90886,1,0,0:0:0:0:
256,192,91535,1,0,0:0:0:0:
256,192,91859,1,0,0:0:0:0:
256,192,92184,1,0,0:0:0:0:
256,192,92346,1,8,0:0:0:0:
256,192,92508,1,0,0:0:0:0:
256,192,92670,1,8,0:0:0:0:
256,192,92832,1,0,0:0:0:0:
256,192,93481,1,0,0:0:0:0:
256,192,94130,1,0,0:0:0:0:
256,192,94454,1,0,0:0:0:0:
256,192,94778,1,0,0:0:0:0:
256,192,95427,1,0,0:0:0:0:
256,192,95589,1,8,0:0:0:0:
256,192,95913,1,0,0:0:0:0:
256,192,96076,1,0,0:0:0:0:
256,192,96238,1,8,0:0:0:0:
256,192,96562,1,0,0:0:0:0:
256,192,96724,1,0,0:0:0:0:
256,192,96886,1,0,0:0:0:0:
256,192,97048,1,8,0:0:0:0:
256,192,97373,1,8,0:0:0:0:
256,192,97535,1,0,0:0:0:0:
256,192,97697,1,8,0:0:0:0:
256,192,97859,1,8,0:0:0:0:
256,192,98021,1,0,0:0:0:0:
256,192,98184,1,8,0:0:0:0:
256,192,98508,1,0,0:0:0:0:
256,192,98670,1,0,0:0:0:0:
256,192,98832,1,8,0:0:0:0:
256,192,99157,1,8,0:0:0:0:
256,192,99319,1,0,0:0:0:0:
256,192,99481,1,0,0:0:0:0:
256,192,99643,1,8,0:0:0:0:
256,192,99967,1,8,0:0:0:0:
256,192,100130,1,0,0:0:0:0:
256,192,100292,1,0,0:0:0:0:
256,192,100454,1,8,0:0:0:0:
256,192,100616,1,0,0:0:0:0:
256,192,100778,1,8,0:0:0:0:
256,192,101103,1,0,0:0:0:0:
256,192,101265,1,0,0:0:0:0:
256,192,101427,1,8,0:0:0:0:
256,192,101751,1,0,0:0:0:0:
256,192,101913,1,0,0:0:0:0:
256,192,102076,1,0,0:0:0:0:
256,192,102238,1,8,0:0:0:0:
256,192,102562,1,8,0:0:0:0:
256,192,102724,1,0,0:0:0:0:
256,192,102886,1,8,0:0:0:0:
256,192,103048,1,8,0:0:0:0:
256,192,103211,1,0,0:0:0:0:
256,192,103373,1,8,0:0:0:0:
256,192,103697,1,0,0:0:0:0:
256,192,103859,1,0,0:0:0:0:
256,192,104021,1,8,0:0:0:0:
256,192,104346,1,0,0:0:0:0:
256,192,104508,1,12,0:0:0:0:
256,192,104832,1,12,0:0:0:0:
256,192,105157,1,12,0:0:0:0:
256,192,105805,1,0,0:0:0:0:
256,192,105967,1,0,0:0:0:0:
256,192,106454,1,0,0:0:0:0:
256,192,106616,1,0,0:0:0:0:
256,192,107103,1,0,0:0:0:0:
256,192,107265,1,0,0:0:0:0:
256,192,107751,1,0,0:0:0:0:
256,192,108076,1,0,0:0:0:0:
256,192,108238,1,8,0:0:0:0:
256,192,108400,1,0,0:0:0:0:
256,192,108562,1,0,0:0:0:0:
256,192,109048,1,0,0:0:0:0:
256,192,109211,1,0,0:0:0:0:
256,192,109697,1,0,0:0:0:0:
256,192,109859,1,0,0:0:0:0:
256,192,110346,1,0,0:0:0:0:
256,192,110670,1,8,0:0:0:0:
256,192,110832,1,8,0:0:0:0:
256,192,110994,1,0,0:0:0:0:
256,192,111157,1,0,0:0:0:0:
256,192,111643,1,0,0:0:0:0:
256,192,111805,1,0,0:0:0:0:
256,192,112292,1,0,0:0:0:0:
256,192,112454,1,0,0:0:0:0:
256,192,112940,1,0,0:0:0:0:
256,192,113265,1,0,0:0:0:0:
256,192,113427,1,8,0:0:0:0:
256,192,113589,1,0,0:0:0:0:
256,192,113751,1,0,0:0:0:0:
256,192,114238,1,0,0:0:0:0:
256,192,114400,1,0,0:0:0:0:
256,192,114886,2,0,B|512:192|512:192|512:160,1,280
256,192,116184,1,0,0:0:0:0:
256,192,116508,1,8,0:0:0:0:
256,192,116670,1,0,0:0:0:0:
256,192,116832,1,0,0:0:0:0:
256,192,117157,1,8,0:0:0:0:
256,192,117481,1,0,0:0:0:0:
256,192,117805,1,8,0:0:0:0:
256,192,117967,1,8,0:0:0:0:
256,192,118130,1,0,0:0:0:0:
256,192,118454,1,8,0:0:0:0:
256,192,118778,12,0,120724,0:0:0:0:
256,192,121373,5,0,0:0:0:0:
256,192,121697,1,8,0:0:0:0:
256,192,121859,1,0,0:0:0:0:
256,192,122021,1,0,0:0:0:0:
256,192,122346,1,8,0:0:0:0:
256,192,122670,1,0,0:0:0:0:
256,192,122994,1,8,0:0:0:0:
256,192,123157,1,8,0:0:0:0:
256,192,123319,1,0,0:0:0:0:
256,192,123643,1,8,0:0:0:0:
256,192,123967,12,0,125913,0:0:0:0:
256,192,126562,5,0,0:0:0:0:
256,192,126886,1,8,0:0:0:0:
256,192,127048,1,8,0:0:0:0:
256,192,127211,1,0,0:0:0:0:
256,192,127535,1,8,0:0:0:0:
256,192,127697,1,0,0:0:0:0:
256,192,127859,1,0,0:0:0:0:
256,192,128184,1,8,0:0:0:0:
256,192,128346,1,8,0:0:0:0:
256,192,128508,1,0,0:0:0:0:
256,192,128832,1,8,0:0:0:0:
256,192,129157,12,0,130130,0:0:0:0:
256,192,130454,12,0,131103,0:0:0:0:
256,192,131751,5,0,0:0:0:0:
256,192,132076,1,8,0:0:0:0:
256,192,132238,1,0,0:0:0:0:
256,192,132400,1,0,0:0:0:0:
256,192,132724,1,8,0:0:0:0:
256,192,133048,1,0,0:0:0:0:
256,192,133373,1,8,0:0:0:0:
256,192,133535,1,8,0:0:0:0:
256,192,133697,1,0,0:0:0:0:
256,192,134021,1,8,0:0:0:0:
256,192,134346,12,0,136292,0:0:0:0:
256,192,136940,5,12,0:0:0:0:
256,192,137265,1,0,0:0:0:0:
256,192,137346,1,0,0:0:0:0:
256,192,137427,1,0,0:0:0:0:
256,192,137589,1,12,0:0:0:0:
256,192,137913,1,0,0:0:0:0:
256,192,137994,1,0,0:0:0:0:
256,192,138076,1,0,0:0:0:0:
256,192,138238,1,12,0:0:0:0:
256,192,138562,1,0,0:0:0:0:
256,192,138643,1,0,0:0:0:0:
256,192,138724,1,0,0:0:0:0:
256,192,138886,1,0,0:0:0:0:
256,192,139211,1,12,0:0:0:0:
256,192,139535,1,12,0:0:0:0:
256,192,139859,1,0,0:0:0:0:
256,192,139940,1,0,0:0:0:0:
256,192,140021,1,0,0:0:0:0:
256,192,140184,1,12,0:0:0:0:
256,192,140508,1,0,0:0:0:0:
256,192,140589,1,0,0:0:0:0:
256,192,140670,1,0,0:0:0:0:
256,192,140832,12,0,141913,0:0:0:0:
256,192,142130,5,12,0:0:0:0:
256,192,142454,1,0,0:0:0:0:
256,192,142535,1,0,0:0:0:0:
256,192,142616,1,0,0:0:0:0:
256,192,142778,1,12,0:0:0:0:
256,192,143103,1,0,0:0:0:0:
256,192,143184,1,0,0:0:0:0:
256,192,143265,1,0,0:0:0:0:
256,192,143427,1,12,0:0:0:0:
256,192,143751,1,0,0:0:0:0:
256,192,143832,1,0,0:0:0:0:
256,192,143913,1,0,0:0:0:0:
256,192,144076,1,0,0:0:0:0:
256,192,144400,1,12,0:0:0:0:
256,192,144724,1,12,0:0:0:0:
256,192,145048,1,0,0:0:0:0:
256,192,145130,1,0,0:0:0:0:
256,192,145211,1,0,0:0:0:0:
256,192,145373,1,12,0:0:0:0:
256,192,145697,1,0,0:0:0:0:
256,192,145778,1,0,0:0:0:0:
256,192,145859,1,0,0:0:0:0:
256,192,146021,1,0,0:0:0:0:
256,192,146184,1,12,0:0:0:0:
256,192,146427,1,12,0:0:0:0:
256,192,146670,1,12,0:0:0:0:
256,192,147319,1,4,0:0:0:0:
256,192,149589,1,0,0:0:0:0:
256,192,149913,1,0,0:0:0:0:
256,192,150562,1,0,0:0:0:0:
256,192,151211,1,12,0:0:0:0:
256,192,151859,1,12,0:0:0:0:
256,192,152508,1,4,0:0:0:0:
256,192,152832,1,0,0:0:0:0:
256,192,152913,1,0,0:0:0:0:
256,192,152994,1,0,0:0:0:0:
256,192,153157,1,8,0:0:0:0:
256,192,153481,1,0,0:0:0:0:
256,192,153562,1,0,0:0:0:0:
256,192,153643,1,0,0:0:0:0:
256,192,153805,1,8,0:0:0:0:
256,192,154130,1,0,0:0:0:0:
256,192,154211,1,0,0:0:0:0:
256,192,154292,1,0,0:0:0:0:
256,192,154454,1,8,0:0:0:0:
256,192,154778,1,0,0:0:0:0:
256,192,154859,1,0,0:0:0:0:
256,192,154940,1,0,0:0:0:0:
256,192,155103,1,8,0:0:0:0:
256,192,155427,1,8,0:0:0:0:
256,192,155508,1,8,0:0:0:0:
256,192,155589,1,8,0:0:0:0:
256,192,155751,1,8,0:0:0:0:
256,192,156076,1,0,0:0:0:0:
256,192,156157,1,0,0:0:0:0:
256,192,156238,1,0,0:0:0:0:
256,192,156400,1,8,0:0:0:0:
256,192,156562,1,0,0:0:0:0:
256,192,156643,1,0,0:0:0:0:
256,192,156724,1,0,0:0:0:0:
256,192,156886,1,8,0:0:0:0:
256,192,157048,1,8,0:0:0:0:
256,192,157373,1,12,0:0:0:0:
256,192,157697,1,4,0:0:0:0:
256,192,157859,1,0,0:0:0:0:
256,192,157940,1,0,0:0:0:0:
256,192,158021,1,0,0:0:0:0:
256,192,158184,1,0,0:0:0:0:
256,192,158346,1,8,0:0:0:0:
256,192,158670,1,8,0:0:0:0:
256,192,158832,1,8,0:0:0:0:
256,192,158994,1,0,0:0:0:0:
256,192,159157,1,8,0:0:0:0:
256,192,159238,1,8,0:0:0:0:
256,192,159319,1,8,0:0:0:0:
256,192,159481,1,0,0:0:0:0:
256,192,159643,1,8,0:0:0:0:
256,192,159967,1,8,0:0:0:0:
256,192,160130,1,8,0:0:0:0:
256,192,160292,1,0,0:0:0:0:
256,192,160454,1,0,0:0:0:0:
256,192,160535,1,0,0:0:0:0:
256,192,160616,1,0,0:0:0:0:
256,192,160778,1,0,0:0:0:0:
256,192,160940,1,8,0:0:0:0:
256,192,161265,1,8,0:0:0:0:
256,192,161427,1,8,0:0:0:0:
256,192,161589,12,0,162670,0:0:0:0:
256,192,162886,5,4,0:0:0:0:
256,192,163211,5,0,0:0:0:0:
256,192,163292,1,0,0:0:0:0:
256,192,163373,1,0,0:0:0:0:
256,192,163535,1,8,0:0:0:0:
256,192,163859,1,0,0:0:0:0:
256,192,163940,1,0,0:0:0:0:
256,192,164021,1,0,0:0:0:0:
256,192,164184,1,8,0:0:0:0:
256,192,164508,1,0,0:0:0:0:
256,192,164589,1,0,0:0:0:0:
256,192,164670,1,0,0:0:0:0:
256,192,164832,1,8,0:0:0:0:
256,192,165157,1,0,0:0:0:0:
256,192,165238,1,0,0:0:0:0:
256,192,165319,1,0,0:0:0:0:
256,192,165481,1,8,0:0:0:0:
256,192,165805,1,8,0:0:0:0:
256,192,165886,1,8,0:0:0:0:
256,192,165967,1,8,0:0:0:0:
256,192,166130,1,8,0:0:0:0:
256,192,166454,1,0,0:0:0:0:
256,192,166535,1,0,0:0:0:0:
256,192,166616,1,0,0:0:0:0:
256,192,166778,1,8,0:0:0:0:
256,192,166940,1,0,0:0:0:0:
256,192,167021,1,0,0:0:0:0:
256,192,167103,1,0,0:0:0:0:
256,192,167265,1,8,0:0:0:0:
256,192,167427,1,8,0:0:0:0:
256,192,167913,1,0,0:0:0:0:
256,192,167994,1,0,0:0:0:0:
256,192,168076,5,0,0:0:0:0:
256,192,168400,1,0,0:0:0:0:
256,192,168724,1,8,0:0:0:0:
256,192,169048,1,8,0:0:0:0:
256,192,169211,1,8,0:0:0:0:
256,192,169373,1,0,0:0:0:0:
256,192,169535,1,0,0:0:0:0:
256,192,169616,1,0,0:0:0:0:
256,192,169697,1,0,0:0:0:0:
256,192,169859,1,8,0:0:0:0:
256,192,170021,1,0,0:0:0:0:
256,192,170346,1,0,0:0:0:0:
256,192,170508,1,0,0:0:0:0:
256,192,170670,1,0,0:0:0:0:
256,192,170994,1,8,0:0:0:0:
256,192,171319,1,0,0:0:0:0:
256,192,171643,1,0,0:0:0:0:
256,192,171805,1,8,0:0:0:0:
256,192,171967,1,4,0:0:0:0:
256,192,172292,1,12,0:0:0:0:
256,192,172616,1,4,0:0:0:0:
256,192,172940,1,12,0:0:0:0:
256,192,173265,1,4,0:0:0:0:
256,192,173589,1,0,0:0:0:0:
256,192,173913,1,8,0:0:0:0:
256,192,174237,1,8,0:0:0:0:
256,192,174400,1,8,0:0:0:0:
256,192,174562,1,0,0:0:0:0:
256,192,174724,1,0,0:0:0:0:
256,192,174805,1,0,0:0:0:0:
256,192,174886,1,0,0:0:0:0:
256,192,175048,1,8,0:0:0:0:
256,192,175210,1,0,0:0:0:0:
256,192,175535,1,0,0:0:0:0:
256,192,175697,1,0,0:0:0:0:
256,192,175859,1,0,0:0:0:0:
256,192,176184,1,8,0:0:0:0:
256,192,176508,1,0,0:0:0:0:
256,192,176832,1,0,0:0:0:0:
256,192,176994,1,8,0:0:0:0:
256,192,177156,1,4,0:0:0:0:
256,192,177481,1,12,0:0:0:0:
256,192,177805,1,4,0:0:0:0:
256,192,178130,1,8,0:0:0:0:
256,192,178454,5,4,0:0:0:0:
256,192,178616,1,8,0:0:0:0:
256,192,178778,1,0,0:0:0:0:
256,192,178940,1,8,0:0:0:0:
256,192,179103,1,0,0:0:0:0:
256,192,179427,1,8,0:0:0:0:
256,192,179589,1,8,0:0:0:0:
256,192,179751,1,0,0:0:0:0:
256,192,179913,1,8,0:0:0:0:
256,192,180076,1,0,0:0:0:0:
256,192,180238,1,8,0:0:0:0:
256,192,180400,1,0,0:0:0:0:
256,192,180724,1,0,0:0:0:0:
256,192,180886,1,0,0:0:0:0:
256,192,181048,1,0,0:0:0:0:
256,192,181211,1,8,0:0:0:0:
256,192,181373,1,0,0:0:0:0:
256,192,181535,1,8,0:0:0:0:
256,192,181697,1,0,0:0:0:0:
256,192,182021,1,8,0:0:0:0:
256,192,182184,1,8,0:0:0:0:
256,192,182346,1,4,0:0:0:0:
256,192,182670,1,12,0:0:0:0:
256,192,182994,1,4,0:0:0:0:
256,192,183319,1,12,0:0:0:0:
256,192,183643,1,4,0:0:0:0:
256,192,183805,1,8,0:0:0:0:
256,192,183967,1,0,0:0:0:0:
256,192,184129,1,8,0:0:0:0:
256,192,184292,1,0,0:0:0:0:
256,192,184616,1,8,0:0:0:0:
256,192,184778,1,8,0:0:0:0:
256,192,184940,1,0,0:0:0:0:
256,192,185103,1,8,0:0:0:0:
256,192,185265,1,0,0:0:0:0:
256,192,185427,1,8,0:0:0:0:
256,192,185589,1,0,0:0:0:0:
256,192,185913,1,0,0:0:0:0:
256,192,186075,1,0,0:0:0:0:
256,192,186237,1,0,0:0:0:0:
256,192,186400,1,8,0:0:0:0:
256,192,186562,1,0,0:0:0:0:
256,192,186724,1,8,0:0:0:0:
256,192,186886,1,0,0:0:0:0:
256,192,187210,1,8,0:0:0:0:
256,192,187373,1,8,0:0:0:0:
256,192,187535,1,4,0:0:0:0:
256,192,187859,1,12,0:0:0:0:
256,192,188184,1,0,0:0:0:0:
256,192,188265,1,0,0:0:0:0:
256,192,188346,1,0,0:0:0:0:
256,192,188508,1,8,0:0:0:0:
256,192,188589,1,8,0:0:0:0:
256,192,188670,1,8,0:0:0:0:
261,197,188832,1,4,0:0:0:0:
