osu file format v14

[General]
AudioFilename: audio.mp3
AudioLeadIn: 0
PreviewTime: 53156
Countdown: 0
SampleSet: Normal
StackLeniency: 0.7
Mode: 1
LetterboxInBreaks: 0
WidescreenStoryboard: 1

[Editor]
Bookmarks: 1297,11744,22446,32824,43202,53581,63959,74337,84716,85040,95419,105797,116176,126554,136932,147311,157689,168068,178446,188824
DistanceSpacing: 1
BeatDivisor: 2
GridSize: 32
TimelineZoom: 1

[Metadata]
Title:Kodoku Egoism
TitleUnicode:孤独≒エゴイズム
Artist:Rohi
ArtistUnicode:ろひ
Creator:DakeDekaane
Version:Kantan
Source:
Tags:featured artist vocaloid kagamine rin japanese electronic lonely 鏡音リン Rohi-P
BeatmapID:2451505
BeatmapSetID:1175341

[Difficulty]
HPDrainRate:7.5
CircleSize:2
OverallDifficulty:3
ApproachRate:10
SliderMultiplier:1.4
SliderTickRate:1

[Events]
//Background and Video events
0,0,"83865827_p0.jpg",0,150
//Break Periods
//Storyboard Layer 0 (Background)
//Storyboard Layer 1 (Fail)
//Storyboard Layer 2 (Pass)
//Storyboard Layer 3 (Foreground)
//Storyboard Layer 4 (Overlay)
//Storyboard Sound Samples

[TimingPoints]
1305,324.324324324324,4,1,0,100,1,0
9737,335.195530726257,4,1,0,100,1,8
10407,348.837209302326,4,1,0,100,1,0
11104,324.324324324324,4,1,0,100,1,8
11752,324.324324324324,4,1,0,100,1,0
22130,324.324324324324,4,1,0,100,1,8
22454,324.324324324324,4,1,0,100,1,0
53589,-100,4,1,0,100,0,1
74345,-100,4,1,0,100,0,0
84724,324.324324324324,4,1,0,100,1,8
85049,324.324324324324,4,1,0,100,1,0
152832,-100,4,1,0,100,0,1
168076,-100,4,1,0,100,0,0

[HitObjects]
256,192,10407,5,4,0:0:0:0:
256,192,11752,1,4,0:0:0:0:
256,192,12400,1,0,0:0:0:0:
256,192,13049,1,0,0:0:0:0:
256,192,13697,1,8,0:0:0:0:
256,192,14022,1,8,0:0:0:0:
256,192,14346,1,0,0:0:0:0:
256,192,14995,1,0,0:0:0:0:
256,192,15643,1,0,0:0:0:0:
256,192,16941,1,0,0:0:0:0:
256,192,17589,1,0,0:0:0:0:
256,192,18238,1,0,0:0:0:0:
256,192,18887,1,8,0:0:0:0:
256,192,19211,1,8,0:0:0:0:
256,192,19535,1,0,0:0:0:0:
256,192,20184,1,0,0:0:0:0:
256,192,20833,8,0,21914,0:0:0:0:
259,197,22454,5,0,0:0:0:0:
259,197,23751,1,0,0:0:0:0:
259,197,24399,1,0,0:0:0:0:
259,197,25048,1,0,0:0:0:0:
254,202,26345,1,0,0:0:0:0:
254,202,26994,1,0,0:0:0:0:
259,197,27643,1,8,0:0:0:0:
254,202,28940,1,8,0:0:0:0:
254,202,29589,1,8,0:0:0:0:
254,202,30237,1,8,0:0:0:0:
254,202,31535,1,8,0:0:0:0:
259,197,32832,1,0,0:0:0:0:
259,197,33481,1,0,0:0:0:0:
259,197,34129,1,0,0:0:0:0:
259,197,34453,1,0,0:0:0:0:
259,197,34778,1,8,0:0:0:0:
259,197,35426,1,0,0:0:0:0:
259,197,36075,1,0,0:0:0:0:
259,197,36724,1,8,0:0:0:0:
259,197,37048,1,8,0:0:0:0:
259,197,37372,1,0,0:0:0:0:
259,197,38021,1,0,0:0:0:0:
259,197,38670,1,0,0:0:0:0:
259,197,39318,1,0,0:0:0:0:
259,197,39643,1,0,0:0:0:0:
259,197,39967,1,8,0:0:0:0:
259,197,40616,1,0,0:0:0:0:
259,197,41264,1,0,0:0:0:0:
259,197,41913,1,12,0:0:0:0:
259,197,43210,1,0,0:0:0:0:
259,197,44508,1,0,0:0:0:0:
259,197,45805,1,8,0:0:0:0:
259,197,47102,1,8,0:0:0:0:
259,197,48399,1,0,0:0:0:0:
259,197,49697,1,0,0:0:0:0:
259,197,50994,1,8,0:0:0:0:
259,197,52291,1,8,0:0:0:0:
259,197,53589,1,4,0:0:0:0:
259,197,53913,1,0,0:0:0:0:
259,197,54237,1,0,0:0:0:0:
259,197,54886,1,8,0:0:0:0:
259,197,55210,1,8,0:0:0:0:
259,197,55535,1,8,0:0:0:0:
259,197,56183,1,0,0:0:0:0:
259,197,56508,1,0,0:0:0:0:
259,197,56832,1,0,0:0:0:0:
259,197,57481,1,12,0:0:0:0:
259,197,58778,1,4,0:0:0:0:
259,197,59426,1,0,0:0:0:0:
259,197,60075,1,0,0:0:0:0:
259,197,60724,1,0,0:0:0:0:
259,197,61372,1,0,0:0:0:0:
259,197,62021,1,8,0:0:0:0:
259,197,62670,1,4,0:0:0:0:
259,197,63967,1,4,0:0:0:0:
259,197,64291,1,0,0:0:0:0:
259,197,64616,1,0,0:0:0:0:
259,197,65264,1,8,0:0:0:0:
259,197,65589,1,8,0:0:0:0:
259,197,65913,1,8,0:0:0:0:
259,197,66562,1,0,0:0:0:0:
259,197,66886,1,0,0:0:0:0:
259,197,67210,1,0,0:0:0:0:
259,197,67859,1,12,0:0:0:0:
259,197,69156,1,4,0:0:0:0:
259,197,69805,1,0,0:0:0:0:
259,197,70453,1,0,0:0:0:0:
259,197,71102,1,0,0:0:0:0:
259,197,71751,1,0,0:0:0:0:
259,197,72399,1,8,0:0:0:0:
259,197,73048,1,12,0:0:0:0:
256,192,74345,1,4,0:0:0:0:
256,192,74994,1,0,0:0:0:0:
256,192,75643,1,0,0:0:0:0:
256,192,76291,1,8,0:0:0:0:
256,192,76616,1,8,0:0:0:0:
256,192,76940,1,0,0:0:0:0:
256,192,77589,1,0,0:0:0:0:
256,192,78237,1,0,0:0:0:0:
256,192,79535,1,0,0:0:0:0:
256,192,80183,1,0,0:0:0:0:
256,192,80832,1,0,0:0:0:0:
256,192,81481,1,8,0:0:0:0:
256,192,81805,1,8,0:0:0:0:
256,192,82129,1,0,0:0:0:0:
256,192,82778,1,0,0:0:0:0:
256,192,83426,8,0,84508,0:0:0:0:
259,197,85048,5,0,0:0:0:0:
261,194,86346,1,0,0:0:0:0:
261,194,86994,1,0,0:0:0:0:
259,197,87643,1,0,0:0:0:0:
262,193,88940,1,0,0:0:0:0:
262,193,89589,1,0,0:0:0:0:
259,197,90238,1,8,0:0:0:0:
257,193,91535,1,8,0:0:0:0:
257,193,92184,1,8,0:0:0:0:
257,193,92832,1,8,0:0:0:0:
257,193,94130,1,8,0:0:0:0:
259,197,95427,1,0,0:0:0:0:
259,197,96076,1,0,0:0:0:0:
259,197,96724,1,0,0:0:0:0:
259,197,97048,1,0,0:0:0:0:
259,197,97373,1,8,0:0:0:0:
259,197,98021,1,0,0:0:0:0:
259,197,98670,1,0,0:0:0:0:
259,197,99319,1,8,0:0:0:0:
259,197,99643,1,8,0:0:0:0:
259,197,99967,1,0,0:0:0:0:
259,197,100616,1,0,0:0:0:0:
259,197,101265,1,0,0:0:0:0:
259,197,101913,1,0,0:0:0:0:
259,197,102238,1,0,0:0:0:0:
259,197,102562,1,8,0:0:0:0:
259,197,103211,1,0,0:0:0:0:
259,197,103859,1,0,0:0:0:0:
259,197,104508,1,12,0:0:0:0:
259,197,105805,1,0,0:0:0:0:
259,197,107103,1,0,0:0:0:0:
259,197,108400,1,8,0:0:0:0:
259,197,109697,1,8,0:0:0:0:
259,197,110994,1,0,0:0:0:0:
259,197,112292,1,0,0:0:0:0:
259,197,113589,1,8,0:0:0:0:
259,197,114886,1,12,0:0:0:0:
259,197,116184,1,0,0:0:0:0:
259,197,116832,1,8,0:0:0:0:
259,197,117481,1,0,0:0:0:0:
259,197,118130,1,8,0:0:0:0:
259,197,118454,1,8,0:0:0:0:
256,192,118778,8,0,120724,0:0:0:0:
259,197,121373,5,0,0:0:0:0:
259,197,122021,1,8,0:0:0:0:
259,197,122670,1,0,0:0:0:0:
259,197,123319,1,0,0:0:0:0:
259,197,123643,1,8,0:0:0:0:
256,192,123967,8,0,125913,0:0:0:0:
259,197,126562,5,0,0:0:0:0:
259,197,127211,1,8,0:0:0:0:
259,197,127859,1,0,0:0:0:0:
259,197,128508,1,8,0:0:0:0:
259,197,128832,1,8,0:0:0:0:
256,192,129157,8,0,131103,0:0:0:0:
259,197,131751,5,0,0:0:0:0:
259,197,132400,1,8,0:0:0:0:
259,197,133048,1,0,0:0:0:0:
259,197,133697,1,0,0:0:0:0:
259,197,134021,1,8,0:0:0:0:
256,192,134346,8,0,136292,0:0:0:0:
256,192,136940,5,12,0:0:0:0:
256,192,137589,1,12,0:0:0:0:
256,192,138238,1,12,0:0:0:0:
256,192,139211,1,12,0:0:0:0:
256,192,139535,1,12,0:0:0:0:
256,192,140184,1,12,0:0:0:0:
256,192,140832,1,12,0:0:0:0:
256,192,142130,1,12,0:0:0:0:
256,192,142778,1,12,0:0:0:0:
256,192,143427,1,12,0:0:0:0:
256,192,144400,1,12,0:0:0:0:
256,192,144724,1,12,0:0:0:0:
256,192,145373,1,12,0:0:0:0:
256,192,146021,1,12,0:0:0:0:
256,192,146670,1,12,0:0:0:0:
256,192,147319,1,4,0:0:0:0:
256,192,151211,5,12,0:0:0:0:
256,192,152508,1,4,0:0:0:0:
256,192,153157,1,0,0:0:0:0:
256,192,153805,1,0,0:0:0:0:
256,192,154454,1,0,0:0:0:0:
256,192,155103,1,0,0:0:0:0:
256,192,155751,1,8,0:0:0:0:
259,197,156400,1,4,0:0:0:0:
259,197,157697,1,4,0:0:0:0:
259,197,158021,1,0,0:0:0:0:
259,197,158346,1,0,0:0:0:0:
259,197,158994,1,8,0:0:0:0:
259,197,159319,1,8,0:0:0:0:
259,197,159643,1,8,0:0:0:0:
259,197,160292,1,0,0:0:0:0:
259,197,160616,1,0,0:0:0:0:
259,197,160940,1,0,0:0:0:0:
259,197,161589,1,12,0:0:0:0:
256,192,162886,1,4,0:0:0:0:
256,192,163535,1,0,0:0:0:0:
256,192,164184,1,0,0:0:0:0:
256,192,164832,1,0,0:0:0:0:
256,192,165481,1,0,0:0:0:0:
256,192,166130,1,8,0:0:0:0:
256,192,166778,1,4,0:0:0:0:
261,193,168076,5,4,0:0:0:0:
261,193,168724,1,8,0:0:0:0:
261,193,169373,1,0,0:0:0:0:
261,193,169697,1,0,0:0:0:0:
261,193,170021,1,8,0:0:0:0:
261,193,170670,1,0,0:0:0:0:
261,193,171319,1,0,0:0:0:0:
261,193,171967,1,12,0:0:0:0:
261,190,173265,1,4,0:0:0:0:
261,190,173913,1,8,0:0:0:0:
261,190,174562,1,0,0:0:0:0:
261,190,174886,1,0,0:0:0:0:
261,190,175211,1,8,0:0:0:0:
261,190,175859,1,0,0:0:0:0:
261,190,176508,1,0,0:0:0:0:
256,192,177157,12,0,178130,0:0:0:0:
255,194,178454,5,4,0:0:0:0:
255,194,179103,1,8,0:0:0:0:
255,194,179751,1,0,0:0:0:0:
255,194,180076,1,0,0:0:0:0:
255,194,180400,1,8,0:0:0:0:
255,194,180724,1,8,0:0:0:0:
255,194,181048,1,0,0:0:0:0:
255,194,181697,1,8,0:0:0:0:
255,194,182346,1,4,0:0:0:0:
255,194,183643,1,4,0:0:0:0:
255,194,184292,1,8,0:0:0:0:
255,194,184940,1,0,0:0:0:0:
255,194,185265,1,0,0:0:0:0:
255,194,185589,1,8,0:0:0:0:
255,194,185913,1,8,0:0:0:0:
255,194,186238,1,0,0:0:0:0:
255,194,186886,1,8,0:0:0:0:
256,192,187535,12,0,188832,0:0:0:0:
