osu file format v14

[General]
AudioFilename: audio.mp3
AudioLeadIn: 0
PreviewTime: 67957
Countdown: 0
SampleSet: Soft
StackLeniency: 0.7
Mode: 0
LetterboxInBreaks: 0
WidescreenStoryboard: 0

[Editor]
DistanceSpacing: 0.7
BeatDivisor: 4
GridSize: 8
TimelineZoom: 5.399997

[Metadata]
Title:Kakuzetsu Thanatos
TitleUnicode:隔絶≡タナトス
Artist:Rohi
ArtistUnicode:ろひ
Creator:Nevo
Version:Desolation
Source:osu!
Tags:fa featured artist vocaloid japanese rock electronic yumerios arc [arc] aistre alphabet squishi Flowziee Kakuzetsu=Thanatos venax
BeatmapID:2812094
BeatmapSetID:1151959

[Difficulty]
HPDrainRate:5.4
CircleSize:4
OverallDifficulty:9
ApproachRate:9
SliderMultiplier:1.7
SliderTickRate:1

[Events]
//Background and Video events
0,0,"osubg.jpg",0,0
Video,32,"kakuzetsu video.mp4"
//Break Periods
//Storyboard Layer 0 (Background)
//Storyboard Layer 1 (Fail)
//Storyboard Layer 2 (Pass)
//Storyboard Layer 3 (Foreground)
//Storyboard Layer 4 (Overlay)
//Storyboard Sound Samples

[TimingPoints]
7,300,4,2,1,40,1,0
907,-133.333333333333,4,2,1,40,0,0
1357,-133.333333333333,4,2,1,40,0,0
1807,-133.333333333333,4,2,1,40,0,0
2557,-133.333333333333,4,2,1,40,0,0
3007,-133.333333333333,4,2,1,40,0,0
3757,-133.333333333333,4,2,1,40,0,0
4207,-133.333333333333,4,2,1,40,0,0
5557,-133.333333333333,4,2,1,40,0,0
5707,-133.333333333333,4,2,1,40,0,0
5857,-133.333333333333,4,2,1,40,0,0
6007,-133.333333333333,4,2,1,40,0,0
6157,-133.333333333333,4,2,1,40,0,0
7207,-133.333333333333,4,2,1,40,0,0
7357,-133.333333333333,4,2,1,40,0,0
8407,-133.333333333333,4,2,1,40,0,0
8557,-133.333333333333,4,2,1,40,0,0
8857,-133.333333333333,4,2,1,40,0,0
9007,-133.333333333333,4,2,1,40,0,0
9307,-133.333333333333,4,2,1,40,0,0
9457,-133.333333333333,4,2,1,40,0,0
9607,-133.333333333333,4,2,1,40,0,0
10357,-133.333333333333,4,2,1,40,0,0
10507,-133.333333333333,4,2,1,40,0,0
10544,-133.333333333333,4,2,1,40,0,0
10582,-133.333333333333,4,2,1,40,0,0
10619,-133.333333333333,4,2,1,40,0,0
10657,-133.333333333333,4,2,1,40,0,0
10694,-133.333333333333,4,2,1,40,0,0
10732,-133.333333333333,4,2,1,40,0,0
10769,-133.333333333333,4,2,1,40,0,0
10807,-86.9565217391303,4,2,1,70,0,0
10957,-86.9565217391303,4,2,1,70,0,0
11107,-86.9565217391303,4,2,1,70,0,0
11182,-86.9565217391303,4,2,1,70,0,0
11257,-86.9565217391303,4,2,1,70,0,0
11332,-86.9565217391303,4,2,1,70,0,0
11407,-86.9565217391303,4,2,1,70,0,0
11557,-86.9565217391303,4,2,1,70,0,0
11707,-86.9565217391303,4,2,1,70,0,0
11782,-86.9565217391303,4,2,1,70,0,0
11857,-86.9565217391303,4,2,1,70,0,0
11932,-86.9565217391303,4,2,1,70,0,0
12007,-86.9565217391303,4,2,1,70,0,0
12157,-86.9565217391303,4,2,1,70,0,0
12307,-86.9565217391303,4,2,1,70,0,0
12382,-86.9565217391303,4,2,1,70,0,0
12457,-86.9565217391303,4,2,1,70,0,0
12532,-86.9565217391303,4,2,1,70,0,0
12607,-86.9565217391303,4,2,1,70,0,0
13357,-86.9565217391303,4,2,1,70,0,0
13507,-86.9565217391303,4,2,1,70,0,0
13582,-86.9565217391303,4,2,1,70,0,0
13657,-86.9565217391303,4,2,1,70,0,0
13732,-86.9565217391303,4,2,1,70,0,0
13807,-86.9565217391303,4,2,1,70,0,0
13957,-86.9565217391303,4,2,1,70,0,0
14107,-86.9565217391303,4,2,1,70,0,0
14182,-86.9565217391303,4,2,1,70,0,0
14257,-86.9565217391303,4,2,1,70,0,0
14332,-86.9565217391303,4,2,1,70,0,0
14407,-86.9565217391303,4,2,1,70,0,0
14557,-86.9565217391303,4,2,1,70,0,0
14707,-86.9565217391303,4,2,1,70,0,0
14782,-86.9565217391303,4,2,1,70,0,0
14857,-86.9565217391303,4,2,1,70,0,0
14932,-86.9565217391303,4,2,1,70,0,0
15007,-86.9565217391303,4,2,1,70,0,0
15757,-86.9565217391303,4,2,1,70,0,0
15907,-86.9565217391303,4,2,1,70,0,0
15982,-86.9565217391303,4,2,1,70,0,0
16057,-86.9565217391303,4,2,1,70,0,0
16132,-86.9565217391303,4,2,1,70,0,0
16207,-86.9565217391303,4,2,1,70,0,0
16357,-86.9565217391303,4,2,1,70,0,0
16507,-86.9565217391303,4,2,1,70,0,0
16582,-86.9565217391303,4,2,1,70,0,0
16657,-86.9565217391303,4,2,1,70,0,0
16732,-86.9565217391303,4,2,1,70,0,0
16807,-86.9565217391303,4,2,1,70,0,0
16957,-86.9565217391303,4,2,1,70,0,0
17107,-86.9565217391303,4,2,1,70,0,0
17182,-86.9565217391303,4,2,1,70,0,0
17257,-86.9565217391303,4,2,1,70,0,0
17332,-86.9565217391303,4,2,1,70,0,0
17407,-86.9565217391303,4,2,1,70,0,0
20107,-100,4,2,1,60,0,0
30007,-100,4,2,1,70,0,0
30157,-100,4,2,1,70,0,0
30307,-100,4,2,1,70,0,0
30382,-100,4,2,1,70,0,0
30457,-100,4,2,1,70,0,0
30532,-100,4,2,1,70,0,0
30607,-100,4,2,1,70,0,0
30757,-100,4,2,1,70,0,0
30907,-100,4,2,1,70,0,0
30982,-100,4,2,1,70,0,0
31057,-100,4,2,1,70,0,0
31132,-100,4,2,1,70,0,0
31207,-100,4,2,1,70,0,0
31357,-100,4,2,1,70,0,0
31507,-100,4,2,1,70,0,0
31582,-100,4,2,1,70,0,0
31657,-100,4,2,1,70,0,0
31732,-100,4,2,1,70,0,0
31807,-100,4,2,1,70,0,0
32557,-100,4,2,1,70,0,0
32707,-100,4,2,1,70,0,0
32782,-100,4,2,1,70,0,0
32857,-100,4,2,1,70,0,0
32932,-100,4,2,1,70,0,0
33007,-100,4,2,1,70,0,0
33157,-100,4,2,1,70,0,0
33307,-100,4,2,1,70,0,0
33382,-100,4,2,1,70,0,0
33457,-100,4,2,1,70,0,0
33532,-100,4,2,1,70,0,0
33607,-100,4,2,1,70,0,0
33757,-100,4,2,1,70,0,0
33907,-100,4,2,1,70,0,0
33982,-100,4,2,1,70,0,0
34057,-100,4,2,1,70,0,0
34132,-100,4,2,1,70,0,0
34207,-100,4,2,1,70,0,0
34957,-100,4,2,1,70,0,0
35107,-100,4,2,1,70,0,0
35182,-100,4,2,1,70,0,0
35257,-100,4,2,1,70,0,0
35332,-100,4,2,1,70,0,0
35407,-100,4,2,1,70,0,0
35557,-100,4,2,1,70,0,0
35707,-100,4,2,1,70,0,0
35782,-100,4,2,1,70,0,0
35857,-100,4,2,1,70,0,0
35932,-100,4,2,1,70,0,0
36007,-100,4,2,1,70,0,0
36157,-100,4,2,1,70,0,0
36307,-100,4,2,1,70,0,0
36382,-100,4,2,1,70,0,0
36457,-100,4,2,1,70,0,0
36532,-100,4,2,1,70,0,0
36607,-100,4,2,1,70,0,0
39607,-100,4,2,1,60,0,0
48907,-181.818181818181,4,2,1,60,0,0
49207,-133.333333333333,4,2,1,60,0,0
58807,-133.333333333333,4,2,1,50,0,0
58957,-133.333333333333,4,2,1,50,0,0
59107,-133.333333333333,4,2,1,50,0,0
59257,-133.333333333333,4,2,1,50,0,0
59407,-133.333333333333,4,2,1,50,0,0
59557,-133.333333333333,4,2,1,50,0,0
59707,-133.333333333333,4,2,1,50,0,0
59857,-133.333333333333,4,2,1,50,0,0
60007,-133.333333333333,4,2,1,50,0,0
60757,-133.333333333333,4,2,1,50,0,0
60907,-133.333333333333,4,2,1,50,0,0
63007,-133.333333333333,4,2,1,50,0,0
63157,-133.333333333333,4,2,1,50,0,0
63457,-133.333333333333,4,2,1,50,0,0
63607,-133.333333333333,4,2,1,60,0,0
67207,-222.222222222221,4,2,1,40,0,0
68107,-100,4,2,1,60,0,0
68407,-83.3333333333333,4,2,1,80,0,1
69082,-83.3333333333333,4,2,1,80,0,1
69232,-83.3333333333333,4,2,1,80,0,1
70282,-83.3333333333333,4,2,1,80,0,1
70432,-83.3333333333333,4,2,1,80,0,1
71556,-83.3333333333333,4,2,1,80,0,1
71632,-83.3333333333333,4,2,1,80,0,1
71781,-83.3333333333333,4,2,1,80,0,1
71857,-83.3333333333333,4,2,1,80,0,1
72156,-83.3333333333333,4,2,1,80,0,1
72232,-83.3333333333333,4,2,1,80,0,1
72381,-83.3333333333333,4,2,1,80,0,1
72457,-83.3333333333333,4,2,1,80,0,1
77482,-83.3333333333333,4,2,1,80,0,1
77557,-83.3333333333333,4,2,1,80,0,1
77782,-83.3333333333333,4,2,1,80,0,1
77857,-83.3333333333333,4,2,1,80,0,1
78682,-83.3333333333333,4,2,1,80,0,1
78832,-83.3333333333333,4,2,1,80,0,1
79882,-83.3333333333333,4,2,1,80,0,1
80032,-83.3333333333333,4,2,1,80,0,1
81156,-83.3333333333333,4,2,1,80,0,1
81232,-83.3333333333333,4,2,1,80,0,1
81381,-83.3333333333333,4,2,1,80,0,1
81457,-83.3333333333333,4,2,1,80,0,1
81756,-83.3333333333333,4,2,1,80,0,1
81832,-83.3333333333333,4,2,1,80,0,1
81981,-83.3333333333333,4,2,1,80,0,1
82057,-83.3333333333333,4,2,1,80,0,1
85431,-83.3333333333333,4,2,1,80,0,1
85507,-83.3333333333333,4,2,1,80,0,1
85881,-83.3333333333333,4,2,1,80,0,1
86107,-83.3333333333333,4,2,1,80,0,1
86256,-83.3333333333333,4,2,1,80,0,1
86407,-83.3333333333333,4,2,1,80,0,1
86556,-83.3333333333333,4,2,1,80,0,1
86632,-83.3333333333333,4,2,1,80,0,1
86781,-83.3333333333333,4,2,1,80,0,1
86857,-83.3333333333333,4,2,1,80,0,1
87382,-83.3333333333333,4,2,1,80,0,1
87457,-83.3333333333333,4,2,1,80,0,1
87607,-100,4,2,1,70,0,0
97207,-133.333333333333,4,2,1,60,0,0
97507,-100,4,2,1,60,0,0
106807,-90.9090909090909,4,2,1,70,0,0
106957,-90.9090909090909,4,2,1,70,0,0
107107,-90.9090909090909,4,2,1,70,0,0
107182,-90.9090909090909,4,2,1,70,0,0
107257,-90.9090909090909,4,2,1,70,0,0
107332,-90.9090909090909,4,2,1,70,0,0
107407,-90.9090909090909,4,2,1,70,0,0
107557,-90.9090909090909,4,2,1,70,0,0
107707,-90.9090909090909,4,2,1,70,0,0
107782,-90.9090909090909,4,2,1,70,0,0
107857,-90.9090909090909,4,2,1,70,0,0
107932,-90.9090909090909,4,2,1,70,0,0
108007,-90.9090909090909,4,2,1,70,0,0
108157,-90.9090909090909,4,2,1,70,0,0
108307,-90.9090909090909,4,2,1,70,0,0
108382,-90.9090909090909,4,2,1,70,0,0
108457,-90.9090909090909,4,2,1,70,0,0
108532,-90.9090909090909,4,2,1,70,0,0
108607,-90.9090909090909,4,2,1,70,0,0
109357,-90.9090909090909,4,2,1,70,0,0
109507,-90.9090909090909,4,2,1,70,0,0
109582,-90.9090909090909,4,2,1,70,0,0
109657,-90.9090909090909,4,2,1,70,0,0
109732,-90.9090909090909,4,2,1,70,0,0
109807,-90.9090909090909,4,2,1,70,0,0
109957,-90.9090909090909,4,2,1,70,0,0
110107,-90.9090909090909,4,2,1,70,0,0
110182,-90.9090909090909,4,2,1,70,0,0
110257,-90.9090909090909,4,2,1,70,0,0
110332,-90.9090909090909,4,2,1,70,0,0
110407,-90.9090909090909,4,2,1,70,0,0
110557,-90.9090909090909,4,2,1,70,0,0
110707,-90.9090909090909,4,2,1,70,0,0
110782,-90.9090909090909,4,2,1,70,0,0
110857,-90.9090909090909,4,2,1,70,0,0
110932,-90.9090909090909,4,2,1,70,0,0
111007,-90.9090909090909,4,2,1,70,0,0
111757,-90.9090909090909,4,2,1,70,0,0
111907,-90.9090909090909,4,2,1,70,0,0
111982,-90.9090909090909,4,2,1,70,0,0
112057,-90.9090909090909,4,2,1,70,0,0
112132,-90.9090909090909,4,2,1,70,0,0
112207,-90.9090909090909,4,2,1,70,0,0
112357,-90.9090909090909,4,2,1,70,0,0
112507,-90.9090909090909,4,2,1,70,0,0
112582,-90.9090909090909,4,2,1,70,0,0
112657,-90.9090909090909,4,2,1,70,0,0
112732,-90.9090909090909,4,2,1,70,0,0
112807,-90.9090909090909,4,2,1,70,0,0
112957,-90.9090909090909,4,2,1,70,0,0
113107,-90.9090909090909,4,2,1,70,0,0
113182,-90.9090909090909,4,2,1,70,0,0
113257,-90.9090909090909,4,2,1,70,0,0
113332,-90.9090909090909,4,2,1,70,0,0
113407,-90.9090909090909,4,2,1,70,0,0
116407,-100,4,2,1,60,0,0
125707,-133.333333333333,4,2,1,60,0,0
135607,-133.333333333333,4,2,1,50,0,0
135757,-133.333333333333,4,2,1,50,0,0
135907,-133.333333333333,4,2,1,50,0,0
136057,-133.333333333333,4,2,1,50,0,0
136207,-133.333333333333,4,2,1,50,0,0
136357,-133.333333333333,4,2,1,50,0,0
136507,-133.333333333333,4,2,1,50,0,0
136657,-133.333333333333,4,2,1,50,0,0
136807,-133.333333333333,4,2,1,50,0,0
137557,-133.333333333333,4,2,1,50,0,0
137707,-133.333333333333,4,2,1,50,0,0
140257,-133.333333333333,4,2,1,50,0,0
140407,-133.333333333333,4,2,1,50,0,0
140857,-133.333333333333,4,2,1,50,0,0
141007,-133.333333333333,4,2,1,50,0,0
141157,-133.333333333333,4,2,1,50,0,0
141307,-133.333333333333,4,2,1,50,0,0
142357,-133.333333333333,4,2,1,50,0,0
142507,-133.333333333333,4,2,1,50,0,0
145207,-133.333333333333,4,2,1,50,0,0
146632,-133.333333333333,4,2,1,50,0,0
146707,-133.333333333333,4,2,1,50,0,0
146857,-133.333333333333,4,2,1,50,0,0
147007,-133.333333333333,4,2,1,50,0,0
147832,-133.333333333333,4,2,1,50,0,0
147907,-133.333333333333,4,2,1,50,0,0
148057,-133.333333333333,4,2,1,50,0,0
148207,-133.333333333333,4,2,1,50,0,0
155032,-133.333333333333,4,2,1,50,0,0
155107,-133.333333333333,4,2,1,50,0,0
155257,-133.333333333333,4,2,1,50,0,0
155407,-133.333333333333,4,2,1,50,0,0
157357,-133.333333333333,4,2,1,50,0,0
157507,-133.333333333333,4,2,1,50,0,0
157657,-133.333333333333,4,2,1,50,0,0
157807,-133.333333333333,4,2,1,50,0,0
159607,-100,4,2,1,50,0,0
164707,300,4,2,1,80,1,1
164707,-83.3333333333333,4,2,1,80,0,1
164931,-83.3333333333333,4,2,1,80,0,1
165007,-83.3333333333333,4,2,1,80,0,1
165382,-83.3333333333333,4,2,1,80,0,1
165532,-83.3333333333333,4,2,1,80,0,1
166582,-83.3333333333333,4,2,1,80,0,1
166732,-83.3333333333333,4,2,1,80,0,1
167856,-83.3333333333333,4,2,1,80,0,1
167932,-83.3333333333333,4,2,1,80,0,1
168081,-83.3333333333333,4,2,1,80,0,1
168157,-83.3333333333333,4,2,1,80,0,1
168456,-83.3333333333333,4,2,1,80,0,1
168607,-83.3333333333333,4,2,1,80,0,1
173782,-83.3333333333333,4,2,1,80,0,1
173857,-83.3333333333333,4,2,1,80,0,1
174082,-83.3333333333333,4,2,1,80,0,1
174157,-83.3333333333333,4,2,1,80,0,1
174982,-83.3333333333333,4,2,1,80,0,1
175132,-83.3333333333333,4,2,1,80,0,1
176182,-83.3333333333333,4,2,1,80,0,1
176332,-83.3333333333333,4,2,1,80,0,1
181731,-83.3333333333333,4,2,1,80,0,1
181807,-83.3333333333333,4,2,1,80,0,1
182181,-83.3333333333333,4,2,1,80,0,1
182407,-83.3333333333333,4,2,1,80,0,1
182556,-83.3333333333333,4,2,1,80,0,1
182707,-83.3333333333333,4,2,1,80,0,1
183907,292.682926829268,4,2,1,70,1,0
184053,-100,4,2,1,70,0,0
184199,-100,4,2,1,70,0,0
184272,-100,4,2,1,70,0,0
184345,-100,4,2,1,70,0,0
184418,-100,4,2,1,70,0,0
184492,-100,4,2,1,70,0,0
184638,-100,4,2,1,70,0,0
184785,-100,4,2,1,70,0,0
184858,-100,4,2,1,70,0,0
184931,-100,4,2,1,70,0,0
185004,-100,4,2,1,70,0,0
185077,-100,4,2,1,70,0,0
185223,-100,4,2,1,70,0,0
185370,-100,4,2,1,70,0,0
185443,-100,4,2,1,70,0,0
185516,-100,4,2,1,70,0,0
185589,-100,4,2,1,70,0,0
185663,-100,4,2,1,70,0,0
186394,-100,4,2,1,70,0,0
186541,-100,4,2,1,70,0,0
186614,-100,4,2,1,70,0,0
186687,-100,4,2,1,70,0,0
186760,-100,4,2,1,70,0,0
186833,-100,4,2,1,70,0,0
186979,-100,4,2,1,70,0,0
187126,-100,4,2,1,70,0,0
187199,-100,4,2,1,70,0,0
187272,-100,4,2,1,70,0,0
187345,-100,4,2,1,70,0,0
187419,-100,4,2,1,70,0,0
187565,-100,4,2,1,70,0,0
187711,-100,4,2,1,70,0,0
187784,-100,4,2,1,70,0,0
187858,-100,4,2,1,70,0,0
187931,-100,4,2,1,70,0,0
188004,-100,4,2,1,70,0,0
188589,285.714285714286,4,2,1,70,1,0
188731,-100,4,2,1,70,0,0
188874,-100,4,2,1,70,0,0
188945,-100,4,2,1,70,0,0
189016,-100,4,2,1,70,0,0
189088,-100,4,2,1,70,0,0
189160,-100,4,2,1,70,0,0
189302,-100,4,2,1,70,0,0
189446,-100,4,2,1,70,0,0
189517,-100,4,2,1,70,0,0
189589,-100,4,2,1,70,0,0
189660,-100,4,2,1,70,0,0
189731,-100,4,2,1,70,0,0
189873,-100,4,2,1,70,0,0
190017,-100,4,2,1,70,0,0
190088,-100,4,2,1,70,0,0
190159,-100,4,2,1,70,0,0
190231,-100,4,2,1,70,0,0
190303,-100,4,2,1,70,0,0
190874,-100,4,2,1,70,0,0
191065,-100,4,2,1,70,0,0
192207,-100,4,2,1,70,0,0
192302,-100,4,2,1,70,0,0
192350,-100,4,2,1,70,0,0
192445,-100,4,2,1,70,0,0
192493,-100,4,2,1,70,0,0
192589,-100,4,2,1,70,0,0
193089,-100,4,2,1,70,0,0
193160,279.06976744186,4,2,1,70,1,0
193160,-133.333333333333,4,2,1,70,0,0
193369,-133.333333333333,4,2,1,70,0,0
193439,-133.333333333333,4,2,1,80,0,0
193578,-90.9090909090909,4,2,1,80,0,0
202090,272.727272727273,4,2,1,80,1,0
202226,-100,4,2,1,80,0,0
202362,-100,4,2,1,80,0,0
202498,-100,4,2,1,80,0,0
202635,-100,4,2,1,80,0,0
202771,-100,4,2,1,80,0,0
202907,-100,4,2,1,80,0,0
203316,-100,4,2,1,80,0,0
203453,-100,4,2,1,80,0,0
203589,-100,4,2,1,80,0,0
203726,-100,4,2,1,80,0,0
203862,-100,4,2,1,80,0,0
203999,-100,4,2,1,80,0,0
204135,-100,4,2,1,80,0,0
204271,-100,4,2,1,80,0,0
204407,-100,4,2,1,80,0,0
204544,-100,4,2,1,80,0,0
204680,-100,4,2,1,80,0,0
204817,-100,4,2,1,80,0,0
204953,-100,4,2,1,80,0,0
205090,-100,4,2,1,80,0,0
205499,-100,4,2,1,80,0,0
205635,-100,4,2,1,80,0,0
205771,-100,4,2,1,80,0,0
205908,-100,4,2,1,80,0,0
205976,-100,4,2,1,80,0,0
206180,-100,4,2,1,80,0,0
206453,292.682926829268,4,2,1,80,1,0
206599,-100,4,2,1,80,0,0
206745,-100,4,2,1,80,0,0
206891,-100,4,2,1,80,0,0
207038,-100,4,2,1,80,0,0
207184,-100,4,2,1,80,0,0
207331,-100,4,2,1,80,0,0
207623,315.789473684211,4,2,1,75,1,0
208096,-100,4,2,1,75,0,0
208254,-100,4,2,1,75,0,0
208728,-100,4,2,1,75,0,0
208886,342.857142857143,4,2,1,70,1,0
209571,375,4,2,1,65,1,0
210321,400,4,2,1,60,1,0

[Colours]
Combo1 : 248,213,139
Combo2 : 255,26,26
Combo3 : 0,204,204
Combo4 : 107,27,180

[HitObjects]
258,163,907,5,2,0:2:0:0:
130,249,1057,1,2,0:2:0:0:
192,313,1207,2,0,L|254:322,1,63.7500024318696,2|0,0:2|0:0,0:0:0:0:
175,168,1507,2,0,L|112:159,1,63.7500024318696
411,53,1807,5,2,0:2:0:0:
445,214,2032,1,2,0:2:0:0:
284,276,2257,1,2,0:2:0:0:
357,221,2407,6,0,P|370:251|368:292,1,63.7500024318696,2|0,0:2|0:0,0:0:0:0:
258,163,2707,2,0,P|258:131|271:102,1,63.7500024318696
216,332,3007,5,2,0:2:0:0:
98,202,3232,1,2,0:2:0:0:
180,62,3457,1,2,0:2:0:0:
100,112,3607,6,0,L|36:120,1,63.7500024318696,2|0,0:2|0:0,0:0:0:0:
240,246,3907,2,0,L|176:255,1,63.7500024318696
370,82,4207,5,2,0:2:0:0:
464,226,4432,1,2,0:2:0:0:
372,359,4657,1,2,0:2:0:0:
387,277,4807,5,2,0:2:0:0:
275,149,5032,1,2,0:2:0:0:
139,269,5257,1,2,0:2:0:0:
238,252,5407,6,0,L|229:334,1,63.7500024318696,2|0,0:2|0:0,0:0:0:0:
65,151,5707,2,0,L|58:214,1,63.7500024318696,2|0,0:2|0:0,0:0:0:0:
229,72,6007,6,0,P|260:60|305:56,1,63.7500024318696,2|0,0:2|0:0,0:0:0:0:
336,165,6307,2,0,P|305:153|260:149,1,63.7500024318696
139,269,6607,1,0,0:0:0:0:
364,345,7207,6,0,P|395:357|440:361,1,63.7500024318696,2|0,0:2|0:0,0:0:0:0:
471,252,7507,2,0,P|440:264|395:268,1,63.7500024318696
274,148,7807,1,0,0:0:0:0:
94,274,8407,6,0,P|135:256|168:247,1,63.7500024318696,2|0,0:2|0:0,0:0:0:0:
249,234,8707,1,0,0:0:0:0:
382,327,8857,2,0,P|341:309|308:300,2,63.7500024318696,2|0|0,0:2|0:0|0:0,0:0:0:0:
495,366,9307,2,0,L|478:280,1,63.7500024318696,2|0,0:2|0:0,0:0:0:0:
447,101,9607,5,2,0:2:0:0:
338,183,9832,1,2,0:2:0:0:
501,225,10057,1,2,0:2:0:0:
426,185,10207,2,0,L|405:249,1,63.7500024318696,2|0,0:2|0:0,0:0:0:0:
321,320,10507,6,0,L|316:293,1,15.9375006079674,6|0,1:2|0:0,0:0:0:0:
287,302,10582,2,0,L|275:277,1,15.9375006079674,0|0,1:2|0:0,0:0:0:0:
249,298,10657,2,0,L|231:277,1,15.9375006079674,2|0,1:2|0:0,0:0:0:0:
212,308,10732,2,0,L|189:292,1,15.9375006079674,0|0,1:2|0:0,0:0:0:0:
182,331,10807,6,0,L|81:317,1,97.7500018644333,6|0,1:2|0:0,0:0:0:0:
153,106,11107,1,10,0:2:0:0:
169,130,11182,1,2,0:0:0:0:
185,155,11257,1,2,0:2:0:0:
201,179,11332,1,2,0:0:0:0:
215,202,11407,2,0,L|316:188,1,97.7500018644333,2|0,1:2|0:0,0:0:0:0:
377,81,11707,2,0,P|386:128|397:142,1,48.8750009322167,10|0,0:2|0:0,0:0:0:0:
471,233,11857,2,0,P|479:210|480:185,1,48.8750009322167,2|0,0:2|0:0,0:0:0:0:
376,273,12007,6,0,L|271:288,1,97.7500018644333,2|0,1:2|0:0,0:0:0:0:
37,362,12307,1,10,0:2:0:0:
33,332,12382,1,2,0:0:0:0:
38,304,12457,1,2,0:2:0:0:
50,277,12532,1,2,0:0:0:0:
67,258,12607,5,2,1:2:0:0:
251,323,12757,1,2,0:2:0:0:
83,241,12907,5,10,0:2:0:0:
272,314,13057,1,2,0:2:0:0:
186,131,13207,6,0,L|202:253,1,97.7500018644333,2|0,1:2|0:0,0:0:0:0:
338,377,13507,2,0,P|363:386|387:384,1,48.8750009322167,10|0,0:2|0:0,0:0:0:0:
410,227,13657,2,0,P|385:218|361:220,1,48.8750009322167,2|0,0:2|0:0,0:0:0:0:
373,302,13807,6,0,L|470:311,1,97.7500018644333,2|0,1:2|0:0,0:0:0:0:
392,125,14107,5,10,0:2:0:0:
362,129,14182,1,2,0:0:0:0:
333,133,14257,1,2,0:2:0:0:
304,137,14332,1,2,0:0:0:0:
266,147,14407,6,0,L|141:167,1,97.7500018644333,2|0,1:2|0:0,0:0:0:0:
43,285,14707,2,0,P|27:236|28:215,1,48.8750009322167,10|0,0:2|0:0,0:0:0:0:
168,339,14857,2,0,P|162:362|152:384,1,48.8750009322167,2|0,0:2|0:0,0:0:0:0:
142,259,15007,5,2,3:2:0:0:
215,275,15107,1,2,3:2:0:0:
288,292,15207,1,2,3:2:0:0:
275,210,15307,5,2,3:2:0:0:
348,226,15407,1,2,3:2:0:0:
421,243,15507,1,2,3:2:0:0:
403,159,15607,6,0,P|393:100|407:50,1,97.7500018644333,6|0,1:2|0:0,0:0:0:0:
135,14,15907,1,10,0:2:0:0:
142,42,15982,1,2,0:0:0:0:
142,71,16057,1,2,0:2:0:0:
136,100,16132,1,2,0:0:0:0:
121,128,16207,2,0,L|138:242,1,97.7500018644333,2|0,1:2|0:0,0:0:0:0:
76,384,16507,2,0,L|138:375,1,48.8750009322167,10|0,0:2|0:0,0:0:0:0:
217,270,16657,2,0,L|279:261,1,48.8750009322167,2|0,0:2|0:0,0:0:0:0:
430,365,16807,6,0,P|372:364|310:345,1,97.7500018644333,2|0,1:2|0:0,0:0:0:0:
328,164,17107,1,10,0:2:0:0:
356,156,17182,1,2,0:0:0:0:
385,152,17257,1,2,0:2:0:0:
414,152,17332,1,2,0:0:0:0:
440,159,17407,5,2,1:2:0:0:
217,270,17557,1,2,0:2:0:0:
466,173,17707,5,10,0:2:0:0:
230,291,17857,1,2,0:2:0:0:
363,42,18007,5,6,3:2:0:0:
399,277,18207,5,2,3:2:0:0:
278,87,18407,5,2,3:2:0:0:
315,248,18607,5,6,3:2:0:0:
216,148,18807,5,2,3:2:0:0:
230,228,19007,5,2,3:2:0:0:
147,194,19207,5,6,3:2:0:0:
153,224,19407,5,2,3:2:0:0:
75,225,19607,5,2,3:2:0:0:
456,146,19807,5,6,3:2:0:0:
174,38,20107,2,0,P|134:57|112:101,1,85,2|0,0:2|0:2,0:0:0:0:
193,208,20407,6,0,L|206:103,1,85,6|0,1:2|0:2,0:0:0:0:
75,225,20707,1,10,0:2:0:0:
185,355,20857,1,2,1:2:0:0:
317,243,21007,2,0,P|403:218|460:228,1,127.5,2|0,0:2|0:0,0:0:0:0:
495,284,21307,6,0,L|482:389,1,85,10|0,0:2|0:2,0:0:0:0:
330,375,21607,1,2,1:2:0:0:
393,294,21757,1,0,0:2:0:0:
250,316,21907,1,10,0:2:0:0:
241,212,22057,1,2,0:2:0:0:
147,348,22207,2,0,P|105:349|49:260,1,127.5,2|0,0:2|0:0,0:0:0:0:
119,182,22507,6,0,L|136:295,1,85,10|0,0:2|3:2,0:0:0:0:
225,139,22807,1,2,1:2:0:0:
100,59,22957,1,0,0:2:0:0:
9,181,23107,1,10,0:2:0:0:
98,44,23257,1,2,1:2:0:0:
227,235,23407,2,0,P|282:222|321:146,1,127.5,2|0,0:2|0:0,0:0:0:0:
392,82,23707,6,0,L|418:186,1,85,10|0,0:2|0:2,0:0:0:0:
434,307,24007,1,2,1:2:0:0:
484,215,24157,1,0,0:2:0:0:
339,304,24307,1,10,0:2:0:0:
453,311,24457,1,2,0:2:0:0:
278,384,24607,2,0,L|146:355,1,127.5,2|0,0:2|0:0,0:0:0:0:
64,325,24907,1,10,0:2:0:0:
251,205,25057,1,0,0:2:0:0:
122,84,25207,6,0,P|118:149|133:199,1,85,2|0,1:2|0:2,0:0:0:0:
351,228,25507,2,0,P|362:166|340:113,1,85,10|2,0:2|1:2,0:0:0:0:
222,49,25807,2,0,B|286:83|286:83|329:40|405:64,1,170,2|10,0:2|0:2,0:0:0:0:
269,276,26257,1,0,0:2:0:0:
201,223,26407,1,2,1:2:0:0:
207,139,26557,1,0,0:2:0:0:
425,136,26707,5,10,0:2:0:0:
415,295,26857,1,2,0:2:0:0:
254,361,27007,2,0,P|176:346|102:346,1,127.5,2|0,0:2|0:0,0:0:0:0:
64,285,27307,2,0,P|104:260|161:264,1,85,10|0,0:2|3:2,0:0:0:0:
363,364,27607,5,2,1:2:0:0:
512,298,27757,1,0,0:2:0:0:
363,193,27907,1,10,0:2:0:0:
403,278,28057,1,2,1:2:0:0:
508,109,28207,5,2,0:2:0:0:
397,0,28357,1,0,1:2:0:0:
251,93,28507,1,10,0:2:0:0:
377,97,28657,1,2,0:2:0:0:
204,10,28807,5,2,1:2:0:0:
170,35,28882,1,0,1:2:0:0:
151,73,28957,1,2,1:2:0:0:
150,115,29032,1,0,1:2:0:0:
167,154,29107,1,10,1:2:0:0:
198,182,29182,1,0,1:2:0:0:
239,194,29257,1,2,1:2:0:0:
280,187,29332,1,0,1:2:0:0:
322,181,29407,1,2,1:2:0:0:
363,193,29482,1,0,1:2:0:0:
394,221,29557,1,0,1:2:0:0:
411,260,29632,1,0,1:2:0:0:
410,302,29707,6,0,L|401:348,1,42.5,10|0,1:2|1:2,0:0:0:0:
306,316,29857,2,0,L|313:274,1,42.5,2|0,1:2|1:2,0:0:0:0:
499,93,30007,6,0,L|473:209,1,85,6|0,1:2|0:0,0:0:0:0:
254,64,30307,1,10,0:2:0:0:
296,58,30382,1,2,0:0:0:0:
338,52,30457,1,2,0:2:0:0:
380,46,30532,1,2,0:0:0:0:
419,41,30607,2,0,L|393:157,1,85,2|0,1:2|0:0,0:0:0:0:
61,299,30907,6,0,P|53:279|53:258,1,42.5,10|0,0:2|0:0,0:0:0:0:
203,229,31057,2,0,P|210:248|210:269,1,42.5,2|0,0:2|0:0,0:0:0:0:
133,263,31207,2,0,L|110:181,1,85,2|0,1:2|0:0,0:0:0:0:
285,343,31507,1,10,0:2:0:0:
324,357,31582,1,2,0:0:0:0:
367,357,31657,1,2,0:2:0:0:
407,343,31732,1,2,0:0:0:0:
439,317,31807,5,2,1:2:0:0:
203,229,31957,1,2,0:2:0:0:
459,295,32107,5,10,0:2:0:0:
207,200,32257,1,2,0:2:0:0:
347,94,32407,6,0,L|372:205,1,85,2|0,1:2|0:0,0:0:0:0:
79,290,32707,2,0,L|93:212,1,42.5,10|0,0:2|0:0,0:0:0:0:
255,302,32857,2,0,L|269:380,1,42.5,2|0,0:2|0:0,0:0:0:0:
162,359,33007,6,0,L|180:244,1,85,2|0,1:2|0:0,0:0:0:0:
420,160,33307,1,10,0:2:0:0:
404,198,33382,1,2,0:0:0:0:
370,223,33457,1,2,0:2:0:0:
328,226,33532,1,2,0:0:0:0:
288,222,33607,2,0,L|270:107,1,85,2|0,1:2|0:0,0:0:0:0:
71,4,33907,6,0,P|54:59|56:66,1,42.5,10|0,0:2|0:0,0:0:0:0:
188,129,34057,2,0,P|206:118|219:75,1,42.5,2|0,0:2|0:0,0:0:0:0:
136,56,34207,5,2,3:2:0:0:
110,129,34307,1,2,3:2:0:0:
82,201,34407,1,2,3:2:0:0:
188,129,34507,5,2,3:2:0:0:
162,203,34607,1,2,3:2:0:0:
135,274,34707,1,2,3:2:0:0:
245,188,34807,6,0,P|302:169|357:168,1,85,6|0,1:2|0:0,0:0:0:0:
329,310,35107,2,0,L|315:253,1,42.5,10|0,0:2|0:0,0:0:0:0:
487,163,35257,2,0,L|497:204,1,42.5,2|0,0:2|0:0,0:0:0:0:
430,316,35407,6,0,L|401:204,1,85,2|0,1:2|0:0,0:0:0:0:
116,112,35707,1,10,0:2:0:0:
98,155,35782,1,2,0:0:0:0:
92,201,35857,1,2,0:2:0:0:
98,247,35932,1,2,0:0:0:0:
128,279,36007,2,0,L|157:167,1,85,2|0,1:2|0:0,0:0:0:0:
440,147,36307,2,0,P|410:203|397:207,1,42.5,10|0,0:2|0:0,0:0:0:0:
264,16,36457,2,0,P|327:10|337:19,1,42.5,2|0,0:2|0:0,0:0:0:0:
314,124,36607,5,2,1:2:0:0:
92,45,36757,1,2,0:2:0:0:
315,149,36907,5,10,0:2:0:0:
66,67,37057,1,2,0:2:0:0:
36,298,37207,5,6,3:2:0:0:
168,84,37407,5,2,3:2:0:0:
146,348,37607,5,2,3:2:0:0:
247,161,37807,5,6,3:2:0:0:
255,373,38007,5,2,3:2:0:0:
344,201,38207,5,2,3:2:0:0:
357,352,38407,5,6,3:2:0:0:
430,223,38607,5,2,3:2:0:0:
453,308,38807,5,2,3:2:0:0:
512,246,39007,5,6,3:2:0:0:
125,271,39307,2,0,P|75:207|76:172,1,85,2|0,0:2|0:2,0:0:0:0:
195,93,39607,6,0,L|179:200,1,85,6|0,1:2|0:2,0:0:0:0:
286,140,39907,2,0,L|270:247,1,85,10|2,0:2|0:2,0:0:0:0:
222,338,40207,2,0,P|270:308|365:308,1,127.5,2|0,1:2|0:0,0:0:0:0:
413,347,40507,1,10,0:2:0:0:
413,347,40657,1,0,0:2:0:0:
501,247,40807,5,2,1:2:0:0:
461,162,40957,1,0,0:2:0:0:
369,144,41107,1,10,0:2:0:0:
300,208,41257,1,2,0:2:0:0:
283,301,41407,2,0,P|357:283|394:220,1,127.5,2|0,1:2|0:0,0:0:0:0:
369,144,41707,2,0,P|320:116|273:113,1,85,10|0,0:2|0:2,0:0:0:0:
126,89,42007,5,2,1:2:0:0:
0,171,42157,1,0,0:2:0:0:
68,235,42307,1,10,0:2:0:0:
34,86,42457,1,2,0:2:0:0:
143,175,42607,2,0,P|211:161|278:171,1,127.5,2|0,1:2|0:0,0:0:0:0:
333,216,42907,2,0,P|255:202|224:201,1,85,10|0,0:2|0:2,0:0:0:0:
318,321,43207,6,0,P|396:307|427:306,1,85,2|0,1:2|0:2,0:0:0:0:
508,186,43507,2,0,P|465:190|424:200,1,85,10|2,0:2|0:2,0:0:0:0:
320,112,43807,2,0,P|398:98|429:97,1,85,2|0,1:2|0:0,0:0:0:0:
263,242,44107,1,10,0:2:0:0:
185,215,44257,1,0,0:2:0:0:
111,372,44407,6,0,P|135:318|124:276,1,85,6|0,1:2|0:2,0:0:0:0:
34,203,44707,1,10,0:2:0:0:
0,280,44857,1,2,0:2:0:0:
125,381,45007,2,0,P|151:306|101:197,1,170,2|10,1:2|0:2,0:0:0:0:
23,120,45457,1,0,0:2:0:0:
187,57,45607,6,0,L|283:77,1,85,2|0,1:2|0:2,0:0:0:0:
323,262,45907,2,0,L|419:282,1,85,10|2,0:2|0:2,0:0:0:0:
272,179,46207,2,0,P|226:234|245:317,1,127.5,2|0,1:2|0:0,0:0:0:0:
336,345,46507,2,0,L|321:253,1,85,10|0,0:2|0:2,0:0:0:0:
468,76,46807,5,2,1:2:0:0:
431,109,46882,1,0,1:2:0:0:
385,121,46957,1,0,1:2:0:0:
341,113,47032,1,0,1:2:0:0:
303,88,47107,1,10,1:2:0:0:
266,67,47182,1,0,1:2:0:0:
224,65,47257,1,0,1:2:0:0:
185,81,47332,1,0,1:2:0:0:
157,112,47407,1,10,1:2:0:0:
146,153,47482,1,0,1:2:0:0:
160,195,47557,1,2,1:2:0:0:
161,236,47632,1,0,1:2:0:0:
150,277,47707,1,10,1:2:0:0:
122,308,47782,1,0,1:2:0:0:
83,324,47857,1,0,1:2:0:0:
41,322,47932,1,0,1:2:0:0:
5,301,48007,1,10,1:2:0:0:
38,274,48082,1,0,1:2:0:0:
77,259,48157,1,2,1:2:0:0:
119,257,48232,1,0,1:2:0:0:
160,268,48307,1,10,1:2:0:0:
201,287,48382,1,0,1:2:0:0:
242,291,48457,1,2,1:2:0:0:
284,287,48532,1,0,1:2:0:0:
322,270,48607,1,10,1:2:0:0:
42,86,48907,6,0,L|58:161,1,70.1250021400452,2|0,3:2|0:0,0:0:0:0:
66,254,49207,6,0,P|115:212|172:206,2,95.6250036478044,6|0|0,1:2|0:0|3:2,0:0:0:0:
6,339,49807,1,10,0:2:0:0:
414,226,50107,1,0,0:0:0:0:
272,99,50407,5,2,1:2:0:0:
175,170,50557,1,2,0:2:0:0:
234,273,50707,1,2,3:2:0:0:
330,207,50857,1,2,0:2:0:0:
256,193,51007,1,10,0:2:0:0:
256,193,51307,5,2,0:2:0:0:
294,362,51457,1,0,0:2:0:0:
421,294,51607,6,0,P|467:286|512:300,2,95.6250036478044,2|0|2,1:2|3:2|1:2,0:0:0:0:
294,362,52207,2,0,L|230:359,1,63.7500024318696,10|0,0:2|0:2,0:0:0:0:
102,306,52507,2,0,L|188:293,1,63.7500024318696,2|2,0:2|0:2,0:0:0:0:
193,94,52807,5,0,1:2:0:0:
96,203,52957,1,2,0:2:0:0:
302,191,53107,1,2,3:2:0:0:
302,191,53257,1,2,0:2:0:0:
72,24,53557,2,0,L|-21:13,1,63.7500024318696,2|0,0:2|0:0,0:0:0:0:
145,353,54007,6,0,P|166:282|168:242,2,95.6250036478044,6|0|0,1:2|0:0|3:2,0:0:0:0:
102,184,54607,1,10,0:2:0:0:
426,316,54907,1,0,0:0:0:0:
296,21,55207,5,2,1:2:0:0:
333,232,55357,1,2,0:2:0:0:
314,127,55507,1,2,3:2:0:0:
393,48,55657,1,2,0:2:0:0:
209,97,55807,1,10,0:2:0:0:
209,97,56107,5,2,0:2:0:0:
424,206,56257,1,0,0:2:0:0:
244,243,56407,2,0,L|139:264,2,95.6250036478044,2|0|2,1:2|3:2|1:2,0:0:0:0:
349,364,57007,2,0,P|316:339|305:302,1,63.7500024318696,10|0,0:2|0:0,0:0:0:0:
350,242,57307,2,0,P|383:267|394:304,1,63.7500024318696,2|0,0:2|0:0,0:0:0:0:
213,361,57607,6,0,P|215:293|265:226,1,127.500004863739,2|2,1:2|3:2,0:0:0:0:
347,111,58057,2,0,L|276:130,1,63.7500024318696,2|8,0:2|0:2,0:0:0:0:
144,16,58357,2,0,L|73:35,1,63.7500024318696,2|0,0:2|0:0,0:0:0:0:
98,295,58807,6,0,P|130:256|134:227,1,63.7500024318696,6|0,0:2|0:0,0:0:0:0:
239,332,59107,2,0,P|230:282|241:254,1,63.7500024318696,8|0,0:2|0:0,0:0:0:0:
41,162,59407,2,0,P|49:211|38:239,1,63.7500024318696,2|0,0:2|0:0,0:0:0:0:
354,244,59707,2,0,P|321:282|317:311,1,63.7500024318696,8|0,0:2|0:0,0:0:0:0:
393,146,60007,6,0,L|321:170,1,63.7500024318696,2|2,0:2|0:2,0:0:0:0:
235,42,60307,2,0,L|163:66,1,63.7500024318696,10|2,0:2|0:2,0:0:0:0:
121,235,60607,2,0,L|193:211,1,63.7500024318696,2|0,0:2|0:0,0:0:0:0:
279,339,60907,2,0,L|351:315,1,63.7500024318696,10|0,0:2|0:2,0:0:0:0:
403,251,61207,5,2,0:2:0:0:
299,189,61357,1,0,0:2:0:0:
411,142,61507,5,10,0:2:0:0:
285,200,61657,1,2,0:2:0:0:
205,54,61807,5,2,0:2:0:0:
304,101,61957,1,0,0:2:0:0:
189,154,62107,5,10,0:2:0:0:
322,110,62257,1,2,0:2:0:0:
148,244,62407,5,2,0:2:0:0:
99,165,62557,1,2,0:2:0:0:
238,262,62707,1,10,0:2:0:0:
333,242,62857,2,0,P|365:291|368:324,1,63.7500024318696,2|0,0:2|0:0,0:0:0:0:
271,316,63157,2,0,P|239:267|236:234,1,63.7500024318696,2|8,0:2|0:2,0:0:0:0:
218,170,63457,1,0,0:0:0:0:
429,277,63607,5,6,3:2:0:0:
134,219,63757,1,0,1:2:0:0:
218,170,63907,2,0,L|235:247,1,63.7500024318696,8|0,0:2|0:0,0:0:0:0:
120,156,64207,2,0,L|137:233,1,63.7500024318696,2|0,0:2|0:0,0:0:0:0:
37,221,64507,2,0,L|54:298,1,63.7500024318696,8|0,0:2|1:2,0:0:0:0:
278,372,64807,5,6,3:2:0:0:
427,108,64957,1,2,1:2:0:0:
356,164,65107,2,0,P|335:130|333:92,1,63.7500024318696,10|2,0:2|0:2,0:0:0:0:
441,193,65407,2,0,P|434:224|416:250,1,63.7500024318696,2|0,0:2|0:0,0:0:0:0:
259,253,65707,2,0,L|336:246,1,63.7500024318696,10|0,0:2|1:2,0:0:0:0:
462,384,66007,5,6,3:2:0:0:
72,305,66157,1,0,1:2:0:0:
164,312,66307,2,0,L|150:249,1,63.7500024318696,10|2,0:2|3:2,0:0:0:0:
60,36,66607,5,6,1:2:0:0:
259,253,66757,1,0,1:2:0:0:
205,170,66907,2,0,P|251:156|287:157,1,63.7500024318696,2|0,3:2|1:2,0:0:0:0:
345,189,67207,5,6,1:2:0:0:
89,363,68107,6,0,P|60:308|68:266,1,85,2|0,0:2|0:0,0:0:0:0:
103,80,68407,5,6,1:2:0:0:
297,219,68557,1,0,0:2:0:0:
141,222,68707,1,10,0:2:0:0:
245,77,68857,1,0,0:2:0:0:
415,132,69007,1,2,1:2:0:0:
451,119,69082,1,0,0:0:0:0:
415,310,69232,1,2,0:2:0:0:
436,343,69307,1,8,0:2:0:0:
245,365,69457,1,0,0:2:0:0:
342,243,69607,6,0,P|414:213|464:217,1,101.999996887207,2|0,1:2|0:2,0:0:0:0:
195,295,69907,1,10,0:2:0:0:
145,196,70057,1,2,0:2:0:0:
198,63,70207,1,2,1:2:0:0:
233,75,70282,1,0,0:0:0:0:
107,211,70432,1,2,0:2:0:0:
66,229,70507,1,8,0:2:0:0:
250,343,70657,1,0,0:2:0:0:
101,384,70807,6,0,L|-13:372,1,101.999996887207,2|0,1:2|0:2,0:0:0:0:
385,326,71107,2,0,L|499:314,1,101.999996887207,10|2,0:2|0:2,0:0:0:0:
362,130,71407,6,0,P|300:157|279:215,1,101.999996887207,2|0,1:2|0:0,0:0:0:0:
334,263,71632,2,0,P|396:236|417:178,1,101.999996887207,2|0,0:2|0:0,0:0:0:0:
455,116,71857,1,2,0:2:0:0:
129,218,72007,6,0,P|67:191|46:133,1,101.999996887207,2|0,1:2|0:0,0:0:0:0:
150,42,72232,2,0,P|212:69|233:127,1,101.999996887207,2|0,0:2|0:0,0:0:0:0:
42,51,72457,1,2,0:2:0:0:
146,133,72607,5,2,3:2:0:0:
209,178,72707,1,0,3:2:0:0:
273,224,72807,1,0,3:2:0:0:
228,96,72907,5,2,3:2:0:0:
291,141,73007,1,0,3:2:0:0:
355,187,73107,1,0,3:2:0:0:
310,57,73207,6,0,P|375:64|413:117,1,101.999996887207,6|0,1:2|0:2,0:0:0:0:
399,315,73507,1,10,0:2:0:0:
299,333,73657,1,0,0:2:0:0:
445,157,73807,1,2,1:2:0:0:
467,247,73957,1,2,0:2:0:0:
254,252,74107,2,0,L|144:237,1,101.999996887207,10|0,0:2|0:2,0:0:0:0:
270,6,74407,6,0,P|317:63|317:113,1,101.999996887207,2|0,1:2|0:2,0:0:0:0:
84,92,74707,1,10,0:2:0:0:
172,22,74857,1,2,0:2:0:0:
184,269,75007,1,2,1:2:0:0:
47,195,75157,1,0,0:2:0:0:
336,179,75307,2,0,L|453:202,1,101.999996887207,10|2,0:2|0:2,0:0:0:0:
225,86,75607,6,0,P|202:157|212:211,1,101.999996887207,2|2,1:2|0:2,0:0:0:0:
344,315,75907,1,10,0:2:0:0:
183,378,76057,2,0,L|46:353,1,101.999996887207,2|0,0:2|1:2,0:0:0:0:
276,249,76357,1,2,0:2:0:0:
399,229,76507,1,10,0:2:0:0:
512,210,76657,1,2,0:2:0:0:
319,104,76807,5,6,1:2:0:0:
257,341,77032,1,2,3:2:0:0:
58,202,77257,1,2,1:2:0:0:
221,226,77407,5,6,1:2:0:0:
228,206,77482,1,2,0:0:0:0:
229,186,77557,1,0,3:2:0:0:
222,165,77632,1,0,3:2:0:0:
143,207,77707,5,8,0:2:0:0:
131,238,77782,1,2,0:0:0:0:
130,270,77857,1,0,1:2:0:0:
141,304,77932,1,0,1:2:0:0:
164,323,78007,6,0,L|298:300,1,101.999996887207,6|0,1:2|0:2,0:0:0:0:
491,135,78307,1,10,0:2:0:0:
357,195,78457,1,2,0:2:0:0:
345,344,78607,1,2,1:2:0:0:
367,372,78682,1,0,0:0:0:0:
330,177,78832,1,2,0:2:0:0:
310,160,78907,1,8,0:2:0:0:
512,154,79057,1,0,0:2:0:0:
280,258,79207,6,0,P|197:254|165:213,1,101.999996887207,2|0,1:2|0:2,0:0:0:0:
437,41,79507,1,10,0:2:0:0:
415,240,79657,1,2,0:2:0:0:
230,120,79807,1,2,1:2:0:0:
199,110,79882,1,0,0:0:0:0:
98,320,80032,1,2,0:2:0:0:
137,314,80107,1,8,0:2:0:0:
297,352,80257,1,0,0:2:0:0:
512,307,80407,6,0,L|411:326,1,101.999996887207,2|0,1:2|0:2,0:0:0:0:
211,217,80707,2,0,L|110:236,1,101.999996887207,10|2,0:2|0:2,0:0:0:0:
351,7,81007,6,0,B|367:43|367:43|348:111,1,101.999996887207,2|0,1:2|0:0,0:0:0:0:
281,151,81232,2,0,L|397:133,1,101.999996887207,2|0,0:2|0:0,0:0:0:0:
449,31,81457,1,2,0:2:0:0:
427,298,81607,6,0,P|370:251|371:194,1,101.999996887207,2|0,1:2|0:0,0:0:0:0:
459,115,81832,2,0,L|451:241,1,101.999996887207,2|0,0:2|0:0,0:0:0:0:
248,368,82057,1,2,0:2:0:0:
6,283,82207,5,2,3:2:0:0:
81,262,82307,1,0,3:2:0:0:
153,243,82407,1,0,3:2:0:0:
225,283,82507,5,2,3:2:0:0:
300,262,82607,1,0,3:2:0:0:
372,243,82707,1,0,3:2:0:0:
403,168,82807,6,0,L|266:151,1,101.999996887207,6|0,1:2|0:2,0:0:0:0:
336,0,83107,1,10,0:2:0:0:
104,148,83257,1,0,0:2:0:0:
283,348,83407,1,2,1:2:0:0:
267,153,83557,1,2,0:2:0:0:
74,321,83707,5,10,0:2:0:0:
345,258,83857,1,0,0:2:0:0:
18,93,84007,6,0,P|80:52|137:56,1,101.999996887207,2|0,1:2|0:2,0:0:0:0:
396,75,84307,1,10,0:2:0:0:
461,252,84457,1,2,0:2:0:0:
235,370,84607,1,2,1:2:0:0:
310,165,84757,1,0,0:2:0:0:
422,379,84907,5,10,0:2:0:0:
174,272,85057,1,2,0:2:0:0:
397,121,85207,6,0,B|409:196|409:196|363:227|366:283,1,152.999995330811,2|0,1:2|0:0,0:0:0:0:
459,273,85507,1,8,0:2:0:0:
310,165,85657,2,0,B|235:153|235:153|204:199|148:196,1,152.999995330811,2|0,0:2|0:0,0:0:0:0:
158,103,85957,1,0,0:0:0:0:
174,272,86107,2,0,P|141:265|94:201,1,101.999996887207,10|0,0:2|0:0,0:0:0:0:
330,64,86407,6,0,L|303:199,1,101.999996887207,6|0,1:2|0:0,0:0:0:0:
403,141,86632,2,0,L|376:276,1,101.999996887207,2|0,3:2|0:0,0:0:0:0:
475,221,86857,1,2,1:2:0:0:
356,335,87007,2,0,P|296:277|293:236,1,101.999996887207,6|0,1:2|1:2,0:0:0:0:
404,46,87307,1,0,1:2:0:0:
432,53,87382,1,0,1:0:0:0:
457,58,87457,1,0,1:2:0:0:
483,64,87532,1,0,1:2:0:0:
512,71,87607,6,0,P|514:112|487:176,1,85,6|0,0:2|0:2,0:2:0:0:
412,245,87907,2,0,P|371:247|307:220,1,85,8|0,0:2|0:2,0:2:0:0:
146,74,88207,2,0,B|199:60|199:60|218:18|276:11,1,127.5,2|0,1:2|0:0,0:0:0:0:
272,93,88507,2,0,L|265:196,1,85,8|2,0:0|0:2,0:0:0:0:
185,309,88807,6,0,L|153:173,2,127.5,2|2|2,1:2|0:2|0:2,0:0:0:0:
301,357,89407,2,0,P|349:335|441:332,1,127.5,2|0,1:2|0:0,0:0:0:0:
497,372,89707,2,0,P|509:323|492:281,1,85,10|2,0:2|0:2,0:0:0:0:
380,136,90007,5,2,1:2:0:0:
284,227,90232,1,2,0:2:0:0:
130,200,90457,1,2,0:2:0:0:
212,304,90607,5,2,1:2:0:0:
388,235,90832,1,2,0:2:0:0:
498,302,91057,1,2,0:2:0:0:
373,347,91207,6,0,P|318:325|292:203,1,170,2|8,1:2|0:0,0:0:0:0:
466,158,91657,1,0,0:0:0:0:
333,53,91807,5,10,0:2:0:0:
276,45,91907,1,10,0:2:0:0:
220,38,92007,1,10,0:2:0:0:
174,65,92107,5,10,0:2:0:0:
117,57,92207,1,10,0:2:0:0:
61,50,92307,1,10,0:2:0:0:
8,68,92407,6,0,P|3:138|46:202,2,127.5,6|2|2,1:2|0:2|0:2,0:0:0:0:
140,276,93007,2,0,P|61:266|5:274,2,127.5,2|2|2,1:2|0:2|0:2,0:0:0:0:
316,334,93607,5,2,1:2:0:0:
512,230,93832,1,2,0:2:0:0:
338,167,94057,1,2,0:2:0:0:
416,285,94207,6,0,P|420:228|423:127,1,127.5,2|0,1:2|0:0,0:0:0:0:
406,63,94507,2,0,L|462:69,2,42.5,10|0|2,0:2|0:0|1:2,0:0:0:0:
168,85,94807,5,2,3:2:0:0:
338,167,95007,5,2,3:2:0:0:
159,171,95207,5,6,3:2:0:0:
279,222,95407,5,6,3:2:0:0:
172,255,95607,5,6,3:2:0:0:
209,271,95807,5,6,3:2:0:0:
159,337,96007,5,6,3:2:0:0:
256,192,96032,12,0,97057,0:0:0:0:
415,293,97207,6,0,P|381:315|367:372,1,95.6250036478044,2|0,1:2|0:0,0:0:0:0:
440,362,97507,6,0,L|448:238,1,85,14|2,0:2|0:2,0:0:0:0:
456,138,97807,1,2,1:2:0:0:
335,72,97957,1,2,0:2:0:0:
185,118,98107,2,0,P|135:129|97:122,1,85,8|2,0:2|0:2,0:0:0:0:
220,20,98407,1,2,1:2:0:0:
284,90,98557,1,0,0:2:0:0:
261,187,98707,1,10,0:2:0:0:
162,222,98857,1,2,0:2:0:0:
363,161,99007,6,0,L|482:152,1,85,2|0,1:2|0:0,0:0:0:0:
331,292,99307,2,0,L|247:299,1,85,10|0,0:2|0:0,0:0:0:0:
62,238,99607,6,0,P|137:251|183:315,1,127.5,2|0,1:2|0:0,0:0:0:0:
87,325,99907,1,10,0:2:0:0:
155,161,100057,2,0,P|191:179|245:232,1,85,0|2,0:2|1:2,0:0:0:0:
331,292,100357,1,0,0:2:0:0:
465,273,100507,1,10,0:2:0:0:
512,156,100657,1,2,0:2:0:0:
437,42,100807,5,2,1:2:0:0:
384,156,100957,1,0,0:2:0:0:
284,24,101107,1,10,0:2:0:0:
228,165,101257,1,2,0:2:0:0:
122,23,101407,5,2,3:2:0:0:
77,87,101507,1,0,3:2:0:0:
118,151,101607,1,0,3:2:0:0:
65,213,101707,5,0,3:2:0:0:
115,273,101807,1,0,3:2:0:0:
65,335,101907,1,0,3:2:0:0:
126,384,102007,6,0,P|177:383|236:351,1,85,6|0,1:2|0:0,0:0:0:0:
461,179,102307,1,10,0:2:0:0:
360,141,102457,1,0,0:2:0:0:
261,191,102607,1,2,1:2:0:0:
218,279,102757,1,2,0:2:0:0:
349,247,102907,5,10,0:2:0:0:
360,141,103057,1,0,0:2:0:0:
301,56,103207,1,2,1:2:0:0:
189,33,103357,1,2,0:2:0:0:
183,149,103507,5,10,0:2:0:0:
407,57,103657,1,2,0:2:0:0:
349,247,103807,2,0,L|365:330,1,85,2|0,1:2|0:0,0:0:0:0:
100,211,104107,2,0,L|83:127,1,85,10|0,0:2|3:2,0:0:0:0:
414,178,104407,5,6,1:2:0:0:
255,238,104607,1,2,0:2:0:0:
120,291,104807,1,2,0:2:0:0:
417,216,105007,5,6,3:2:0:0:
279,267,105207,1,2,3:2:0:0:
162,313,105407,1,2,3:2:0:0:
390,252,105607,5,6,3:2:0:0:
280,151,105807,1,2,3:2:0:0:
157,207,106007,1,2,3:2:0:0:
41,131,106207,5,6,3:2:0:0:
471,5,106807,6,0,P|493:54|492:100,1,93.5000028533936,6|0,1:2|0:0,0:0:0:0:
342,225,107107,1,10,0:2:0:0:
295,220,107182,1,2,0:0:0:0:
248,215,107257,1,2,0:2:0:0:
202,211,107332,1,2,0:0:0:0:
157,207,107407,2,0,P|135:158|136:112,1,93.5000028533936,2|0,1:2|0:0,0:0:0:0:
293,2,107707,2,0,L|303:78,1,46.7500014266968,10|0,0:2|0:0,0:0:0:0:
412,130,107857,2,0,L|405:83,1,46.7500014266968,2|0,0:2|0:0,0:0:0:0:
217,35,108007,6,0,L|231:141,1,93.5000028533936,2|0,1:2|0:0,0:0:0:0:
259,322,108307,1,10,0:2:0:0:
306,317,108382,1,2,0:0:0:0:
353,312,108457,1,2,0:2:0:0:
399,308,108532,1,2,0:0:0:0:
444,304,108607,5,2,1:2:0:0:
238,225,108757,1,2,0:2:0:0:
488,300,108907,5,10,0:2:0:0:
209,198,109057,1,2,0:2:0:0:
400,101,109207,6,0,L|393:194,1,93.5000028533936,2|0,1:2|0:0,0:0:0:0:
76,108,109507,2,0,P|126:73|154:77,1,46.7500014266968,10|0,0:2|0:0,0:0:0:0:
209,198,109657,2,0,P|159:233|131:229,1,46.7500014266968,2|0,0:2|0:0,0:0:0:0:
143,151,109807,2,0,L|231:96,1,93.5000028533936,2|0,1:2|0:0,0:0:0:0:
392,206,110107,1,10,0:2:0:0:
352,231,110182,1,2,0:0:0:0:
313,257,110257,1,2,0:2:0:0:
273,282,110332,1,2,0:0:0:0:
234,308,110407,6,0,L|313:357,1,93.5000028533936,2|0,1:2|0:0,0:0:0:0:
491,221,110707,2,0,L|486:159,1,46.7500014266968,10|0,0:2|0:0,0:0:0:0:
313,113,110857,2,0,L|309:159,1,46.7500014266968,2|0,0:2|0:0,0:0:0:0:
453,93,111007,5,2,3:2:0:0:
390,43,111107,1,2,3:2:0:0:
313,32,111207,1,2,3:2:0:0:
240,77,111307,5,2,3:2:0:0:
160,90,111407,1,2,3:2:0:0:
84,73,111507,1,2,3:2:0:0:
21,12,111607,6,0,L|-9:140,1,93.5000028533936,6|0,1:2|0:0,0:0:0:0:
131,293,111907,1,10,0:2:0:0:
177,293,111982,1,2,0:0:0:0:
214,264,112057,1,10,0:2:0:0:
227,220,112132,1,2,0:0:0:0:
213,177,112207,6,0,L|98:167,1,93.5000028533936,2|0,1:2|0:0,0:0:0:0:
306,43,112507,2,0,P|329:92|329:108,1,46.7500014266968,10|0,0:2|0:0,0:0:0:0:
290,299,112657,2,0,P|297:277|311:258,1,46.7500014266968,2|0,0:2|0:0,0:0:0:0:
469,302,112807,2,0,L|375:310,1,93.5000028533936,2|0,1:2|0:0,0:0:0:0:
442,17,113107,1,10,0:2:0:0:
475,49,113182,1,2,0:0:0:0:
481,95,113257,1,2,0:2:0:0:
459,135,113332,1,2,0:0:0:0:
422,166,113407,5,2,1:2:0:0:
139,53,113557,1,2,0:2:0:0:
385,190,113707,5,10,0:2:0:0:
103,69,113857,1,2,0:2:0:0:
232,322,114007,5,6,3:2:0:0:
289,68,114207,5,2,3:2:0:0:
162,151,114407,5,2,3:2:0:0:
437,146,114607,5,6,3:2:0:0:
378,320,114807,5,2,3:2:0:0:
293,194,115007,5,2,3:2:0:0:
232,322,115207,5,6,3:2:0:0:
289,68,115407,5,2,3:2:0:0:
437,146,115607,5,2,3:2:0:0:
162,151,115807,5,6,3:2:0:0:
79,348,116107,6,0,L|61:267,3,46.7500014266968,2|0|0|0,1:2|1:2|1:2|1:2,0:0:0:0:
19,233,116407,6,0,P|63:216|121:240,1,85,6|0,1:2|0:2,0:0:0:0:
236,333,116707,1,10,0:2:0:0:
347,212,116857,1,2,0:2:0:0:
134,54,117007,2,0,L|161:186,1,127.5,2|0,1:2|0:0,0:0:0:0:
182,255,117307,2,0,P|220:238|270:244,1,85,10|0,0:2|0:2,0:0:0:0:
377,373,117607,6,0,L|393:273,1,85,2|0,1:2|0:2,0:0:0:0:
484,170,117907,1,10,0:2:0:0:
442,70,118057,1,2,0:2:0:0:
238,106,118207,2,0,P|315:119|370:65,1,127.5,2|0,1:2|0:0,0:0:0:0:
367,6,118507,2,0,P|325:13|291:37,1,85,10|0,0:2|0:2,0:0:0:0:
349,179,118807,6,0,L|355:80,1,85,2|0,1:2|0:2,0:0:0:0:
152,58,119107,2,0,L|146:142,1,85,10|2,0:2|0:2,0:0:0:0:
276,244,119407,2,0,P|226:217|144:248,1,127.5,2|0,1:2|0:0,0:0:0:0:
212,301,119707,6,0,L|227:396,1,85,10|0,0:2|0:2,0:0:0:0:
84,294,120007,1,2,1:2:0:0:
160,232,120157,1,0,0:2:0:0:
276,244,120307,1,10,0:2:0:0:
335,325,120457,1,2,0:2:0:0:
82,171,120607,6,0,P|133:132|216:147,1,127.5,2|0,1:2|0:0,0:0:0:0:
275,159,120907,2,0,L|375:140,1,85,10|0,0:2|0:2,0:0:0:0:
497,358,121207,2,0,L|413:373,1,85,6|0,1:2|0:2,0:0:0:0:
410,210,121507,2,0,P|440:259|436:309,1,85,10|2,0:2|0:2,0:0:0:0:
213,384,121807,2,0,P|218:305|278:261,1,127.5,2|0,1:2|0:0,0:0:0:0:
321,242,122107,2,0,L|210:230,1,85,10|0,0:2|0:2,0:0:0:0:
325,38,122407,5,2,1:2:0:0:
390,137,122557,1,0,0:2:0:0:
133,126,122707,1,10,0:2:0:0:
206,40,122857,1,2,0:2:0:0:
339,217,123007,2,0,P|421:226|478:177,1,127.5,2|0,1:2|0:0,0:0:0:0:
390,137,123307,2,0,P|327:118|278:141,1,85,10|0,0:2|0:2,0:0:0:0:
196,288,123607,5,2,1:2:0:0:
163,314,123682,1,0,1:2:0:0:
122,326,123757,1,0,1:2:0:0:
81,320,123832,1,0,1:2:0:0:
45,297,123907,1,10,1:2:0:0:
22,262,123982,1,0,1:2:0:0:
15,220,124057,1,2,1:2:0:0:
26,179,124132,1,0,1:2:0:0:
52,146,124207,1,2,1:2:0:0:
90,127,124282,1,0,1:2:0:0:
128,121,124357,1,2,1:2:0:0:
170,128,124432,1,0,1:2:0:0:
203,154,124507,1,10,1:2:0:0:
224,196,124582,1,0,1:2:0:0:
244,233,124657,1,2,1:2:0:0:
277,259,124732,1,0,1:2:0:0:
318,269,124807,1,2,1:2:0:0:
360,261,124882,1,0,1:2:0:0:
395,237,124957,1,2,1:2:0:0:
417,202,125032,1,0,1:2:0:0:
429,161,125107,1,10,1:2:0:0:
422,120,125182,1,0,1:2:0:0:
397,86,125257,1,2,1:2:0:0:
360,66,125332,1,0,1:2:0:0:
318,65,125407,1,2,1:2:0:0:
119,226,125707,6,0,P|152:166|144:131,1,95.6250036478044,2|0,3:2|0:0,0:0:0:0:
105,75,126007,6,0,L|216:115,2,95.6250036478044,6|0|0,1:2|0:0|3:2,0:0:0:0:
20,85,126607,1,10,0:2:0:0:
197,285,126907,1,0,0:0:0:0:
197,285,127207,5,2,1:2:0:0:
412,266,127357,1,2,0:2:0:0:
295,168,127507,1,2,3:2:0:0:
309,379,127657,1,2,0:2:0:0:
303,276,127807,1,10,0:2:0:0:
303,276,128107,5,2,0:2:0:0:
385,153,128257,1,0,0:2:0:0:
193,94,128407,2,0,P|123:99|85:126,2,95.6250036478044,2|0|2,1:2|3:2|1:2,0:0:0:0:
277,75,129007,1,10,0:2:0:0:
96,197,129307,2,0,L|28:187,1,63.7500024318696,2|0,0:2|0:2,0:0:0:0:
170,245,129607,5,0,1:2:0:0:
264,236,129757,1,2,0:2:0:0:
336,176,129907,1,2,3:2:0:0:
356,71,130057,1,2,0:2:0:0:
412,369,130357,1,2,0:2:0:0:
334,328,130507,2,0,P|273:324|259:329,1,63.7500024318696
107,358,130807,6,0,B|121:293|121:293|92:250,2,95.6250036478044,6|0|0,1:2|0:0|3:2,0:0:0:0:
46,204,131407,1,10,0:2:0:0:
345,347,131707,1,0,0:0:0:0:
345,347,132007,5,2,1:2:0:0:
478,262,132157,1,2,0:2:0:0:
300,240,132307,1,2,3:2:0:0:
180,336,132457,1,2,0:2:0:0:
345,347,132607,1,10,0:2:0:0:
345,347,132907,5,2,0:2:0:0:
408,199,133057,1,0,0:2:0:0:
217,179,133207,6,0,P|206:244|230:285,2,95.6250036478044,2|0|2,1:2|3:2|1:2,0:0:0:0:
277,112,133807,1,10,0:2:0:0:
76,215,134107,1,2,0:2:0:0:
358,318,134407,1,2,1:2:0:0:
112,357,134707,5,2,3:2:0:0:
171,302,134857,1,2,0:2:0:0:
383,188,135157,5,2,0:2:0:0:
335,104,135307,1,0,0:0:0:0:
426,104,135457,1,0,0:0:0:0:
245,147,135607,6,0,L|261:223,1,63.7500024318696,6|0,0:2|0:0,0:0:0:0:
154,147,135907,2,0,L|170:223,1,63.7500024318696,8|0,0:2|0:0,0:0:0:0:
349,42,136207,2,0,L|335:104,1,63.7500024318696,2|0,0:2|0:0,0:0:0:0:
440,42,136507,2,0,L|426:104,1,63.7500024318696,8|0,0:2|0:0,0:0:0:0:
370,354,136807,6,0,P|336:340|307:340,1,63.7500024318696,2|2,0:2|0:2,0:0:0:0:
142,354,137107,2,0,P|176:340|205:340,1,63.7500024318696,10|2,0:2|0:2,0:0:0:0:
142,197,137407,2,0,L|160:276,1,63.7500024318696,2|0,0:2|0:0,0:0:0:0:
370,197,137707,2,0,L|352:276,1,63.7500024318696,10|0,0:2|0:2,0:0:0:0:
89,103,138007,5,2,0:2:0:0:
166,67,138157,1,0,0:2:0:0:
232,145,138307,5,10,0:2:0:0:
310,110,138457,1,2,0:2:0:0:
447,233,138607,5,2,0:2:0:0:
370,197,138757,1,0,0:2:0:0:
304,275,138907,5,10,0:2:0:0:
226,240,139057,1,0,0:2:0:0:
91,127,139207,5,2,0:2:0:0:
91,127,139357,2,0,P|137:113|166:112,1,63.7500024318696,2|10,0:2|0:2,0:0:0:0:
273,107,139657,1,2,0:2:0:0:
120,274,139957,2,0,P|175:253|256:262,1,127.500004863739,2|0,0:2|0:0,0:0:0:0:
357,320,140407,5,6,3:2:0:0:
122,131,140557,1,0,1:2:0:0:
210,101,140707,2,0,L|199:194,1,63.7500024318696,8|0,0:2|0:0,0:0:0:0:
304,78,141007,2,0,L|293:171,1,63.7500024318696,2|0,0:2|0:0,0:0:0:0:
396,53,141307,2,0,L|385:146,1,63.7500024318696,8|0,0:2|1:2,0:0:0:0:
194,336,141607,5,6,3:2:0:0:
466,257,141757,1,2,1:2:0:0:
457,172,141907,2,0,P|413:187|393:215,1,63.7500024318696,10|2,0:2|0:2,0:0:0:0:
355,283,142207,2,0,P|330:262|299:256,1,63.7500024318696,2|0,0:2|0:0,0:0:0:0:
194,336,142507,2,0,L|206:255,1,63.7500024318696,10|0,0:2|1:2,0:0:0:0:
151,85,142807,5,6,3:2:0:0:
297,354,142957,1,0,1:2:0:0:
355,283,143107,2,0,L|427:269,1,63.7500024318696,10|2,0:2|3:2,0:0:0:0:
349,3,143407,5,6,1:2:0:0:
203,272,143557,1,0,1:2:0:0:
145,201,143707,2,0,L|73:187,1,63.7500024318696,2|0,3:2|1:2,0:0:0:0:
434,126,144007,5,6,1:2:0:0:
94,295,145207,5,6,0:2:0:0:
394,247,145507,1,2,0:2:0:0:
204,91,145807,5,2,0:2:0:0:
171,226,146032,1,2,0:2:0:0:
255,332,146257,1,2,0:2:0:0:
301,257,146407,6,0,P|343:242|416:257,1,95.6250036478044,2|0,0:2|0:0,0:0:0:0:
393,246,146707,2,0,L|382:160,1,63.7500024318696,2|0,0:2|0:0,0:0:0:0:
385,35,147007,5,2,0:2:0:0:
257,156,147232,1,2,0:2:0:0:
78,98,147457,1,2,0:2:0:0:
139,28,147607,6,0,P|165:74|161:138,1,95.6250036478044,2|0,0:2|0:0,0:0:0:0:
166,115,147907,2,0,P|153:162|164:203,1,63.7500024318696,2|0,0:2|0:0,0:0:0:0:
354,336,148207,5,2,0:2:0:0:
257,235,148432,1,2,0:2:0:0:
106,277,148657,1,2,0:2:0:0:
193,300,148807,5,2,0:2:0:0:
373,188,149032,1,2,0:2:0:0:
280,35,149257,1,2,0:2:0:0:
244,111,149407,5,2,0:2:0:0:
501,256,149707,1,2,0:2:0:0:
130,347,150007,5,2,0:2:0:0:
167,276,150157,1,0,0:2:0:0:
238,243,150307,1,2,0:2:0:0:
312,270,150457,1,0,0:2:0:0:
233,327,150607,5,2,0:2:0:0:
170,189,150757,1,2,0:2:0:0:
314,183,150907,1,2,0:2:0:0:
314,183,151057,1,0,0:2:0:0:
25,182,151207,5,2,0:2:0:0:
48,106,151357,1,0,0:2:0:0:
117,57,151507,1,2,0:2:0:0:
204,66,151657,1,2,0:2:0:0:
137,161,151807,5,2,0:2:0:0:
34,20,151957,1,0,0:2:0:0:
297,27,152107,1,2,0:2:0:0:
297,27,152257,1,2,0:2:0:0:
239,172,152407,5,2,0:2:0:0:
360,305,152857,1,2,0:2:0:0:
478,236,153307,1,2,0:2:0:0:
223,122,153607,5,2,0:2:0:0:
277,250,153832,1,2,0:2:0:0:
164,322,154057,1,2,0:2:0:0:
190,240,154207,5,2,0:2:0:0:
430,67,154807,6,0,P|366:52|334:67,1,95.6250036478044,6|0,0:2|0:0,0:0:0:0:
382,137,155107,2,0,L|395:217,1,63.7500024318696,2|0,0:2|0:0,0:0:0:0:
163,307,155407,5,2,0:2:0:0:
308,182,155632,1,2,0:2:0:0:
109,129,155857,1,2,0:2:0:0:
190,61,156007,5,2,0:2:0:0:
382,370,156307,1,2,0:2:0:0:
87,366,156607,5,2,0:2:0:0:
308,314,156832,1,2,0:2:0:0:
142,211,157057,1,2,0:2:0:0:
203,279,157207,6,0,P|223:255|232:225,1,63.7500024318696,2|0,0:2|0:0,0:0:0:0:
308,182,157507,2,0,P|298:151|279:126,1,63.7500024318696,2|0,0:2|0:0,0:0:0:0:
138,8,157807,5,2,0:2:0:0:
294,47,158032,1,2,0:2:0:0:
460,88,158257,1,2,0:2:0:0:
150,100,158407,5,2,0:2:0:0:
270,130,158632,1,2,0:2:0:0:
398,161,158857,1,2,0:2:0:0:
172,194,159007,5,2,0:2:0:0:
324,238,159307,1,2,0:2:0:0:
164,327,159607,6,0,L|107:308,13,42.5,6|0|0|0|2|0|0|0|2|0|2|0|2|0,1:2|1:2|1:2|1:2|1:2|1:2|1:2|1:2|1:2|1:2|1:2|1:2|1:2|1:2,0:2:0:0:
173,242,160657,2,0,L|227:227,1,42.5,4|0,1:2|1:2,0:0:0:0:
272,95,160807,6,0,L|253:38,13,42.5,6|0|0|0|2|0|2|0|2|0|0|0|2|0,1:2|1:2|1:2|1:2|1:2|1:2|1:2|1:2|1:2|1:2|1:2|1:2|1:2|1:2,0:0:0:0:
187,104,161857,2,0,L|172:158,1,42.5,6|0,1:2|1:2,0:0:0:0:
348,327,162007,6,0,L|405:308,7,42.5,6|0|0|0|0|0|0|2,1:2|1:2|1:2|1:2|1:2|1:2|1:2|1:2,0:0:0:0:
339,242,162607,2,0,L|285:227,7,42.5,4|0|0|0|2|0|0|0,1:2|1:2|1:2|1:2|1:2|1:2|1:2|1:2,0:0:0:0:
200,274,163207,2,0,L|185:220,3,42.5,6|0|0|2,1:2|1:2|1:2|1:2,0:0:0:0:
190,130,163507,2,0,L|136:145,3,42.5,4|0|2|0,1:2|1:2|1:2|1:2,0:0:0:0:
322,130,163807,2,0,L|376:145,3,42.5,6|0|0|0,1:2|1:2|1:2|1:2,0:0:0:0:
319,231,164107,2,0,L|308:272,3,42.5,4|0|0|0,1:2|1:2|1:2|1:2,0:0:0:0:
255,351,164407,5,2,1:2:0:0:
72,108,164707,6,0,P|141:42|202:57,1,152.999995330811,6|0,1:2|0:0,0:0:0:0:
282,96,165007,1,10,0:2:0:0:
77,207,165157,1,2,0:2:0:0:
330,269,165307,1,2,1:2:0:0:
374,282,165382,1,0,0:0:0:0:
143,371,165532,1,2,0:2:0:0:
99,384,165607,1,8,0:2:0:0:
190,217,165757,1,0,0:2:0:0:
348,384,165907,6,0,L|447:363,1,101.999996887207,2|0,1:2|0:2,0:0:0:0:
505,200,166207,1,10,0:2:0:0:
376,78,166357,1,2,0:2:0:0:
200,113,166507,1,2,1:2:0:0:
158,100,166582,1,0,0:0:0:0:
94,212,166732,1,2,0:2:0:0:
52,191,166807,1,8,0:2:0:0:
143,371,166957,1,0,0:2:0:0:
314,316,167107,6,0,P|312:240|299:201,1,101.999996887207,2|0,1:2|0:2,0:0:0:0:
94,212,167407,2,0,P|142:199|190:217,1,101.999996887207,10|2,0:2|0:2,0:0:0:0:
208,373,167707,6,0,P|237:305|216:253,1,101.999996887207,2|0,1:2|0:0,0:0:0:0:
134,302,167932,2,0,L|52:363,1,101.999996887207,2|0,0:2|0:0,0:0:0:0:
30,269,168157,1,2,0:2:0:0:
376,289,168307,6,0,L|465:357,1,101.999996887207,2|0,1:2|0:0,0:0:0:0:
76,111,168607,1,8,0:2:0:0:
436,111,168757,1,2,0:2:0:0:
199,45,168907,5,2,3:2:0:0:
173,120,169007,1,0,3:2:0:0:
199,194,169107,1,0,3:2:0:0:
312,194,169207,5,2,3:2:0:0:
338,120,169307,1,0,3:2:0:0:
312,45,169407,1,0,3:2:0:0:
256,114,169507,6,0,L|256:258,1,101.999996887207,6|0,1:2|0:2,0:0:0:0:
91,348,169807,2,0,L|91:246,1,101.999996887207,10|0,0:2|0:2,0:0:0:0:
390,289,170107,1,2,1:2:0:0:
273,375,170257,1,2,0:2:0:0:
139,172,170407,1,10,0:2:0:0:
288,129,170557,1,0,0:2:0:0:
91,348,170707,5,2,1:2:0:0:
244,257,170857,1,0,0:2:0:0:
15,197,171007,1,10,0:2:0:0:
124,255,171157,1,2,0:2:0:0:
177,68,171307,5,2,1:2:0:0:
139,172,171457,1,0,0:2:0:0:
343,280,171607,1,10,0:2:0:0:
301,128,171757,1,0,0:2:0:0:
504,228,171907,6,0,P|460:194|410:188,1,101.999996887207,2|2,1:2|0:2,0:0:0:0:
236,222,172207,1,10,0:2:0:0:
454,384,172357,2,0,L|434:283,1,101.999996887207,2|0,0:2|1:2,0:0:0:0:
393,91,172657,1,2,0:2:0:0:
335,306,172807,1,10,0:2:0:0:
38,273,172957,1,2,0:2:0:0:
396,184,173107,5,6,1:2:0:0:
130,378,173332,1,2,3:2:0:0:
254,275,173557,1,2,1:2:0:0:
56,194,173707,5,6,1:2:0:0:
35,216,173782,1,2,0:0:0:0:
27,245,173857,1,0,3:2:0:0:
31,275,173932,1,0,3:2:0:0:
120,250,174007,5,8,0:2:0:0:
147,208,174082,1,2,0:0:0:0:
142,158,174157,1,0,1:2:0:0:
107,123,174232,1,0,1:2:0:0:
57,117,174307,6,0,P|40:56|48:4,1,101.999996887207,6|0,1:2|0:2,0:0:0:0:
298,72,174607,2,0,P|315:133|307:185,1,101.999996887207,10|2,0:2|0:2,0:0:0:0:
215,353,174907,1,2,1:2:0:0:
167,340,174982,1,0,0:0:0:0:
76,234,175132,1,2,0:2:0:0:
28,247,175207,1,8,0:2:0:0:
167,98,175357,1,0,0:2:0:0:
331,281,175507,6,0,L|444:263,1,101.999996887207,2|0,1:2|0:2,0:0:0:0:
504,53,175807,2,0,L|403:69,1,101.999996887207,10|2,0:2|0:2,0:0:0:0:
176,198,176107,1,2,1:2:0:0:
221,216,176182,1,0,0:0:0:0:
381,162,176332,1,2,0:2:0:0:
418,178,176407,1,8,0:2:0:0:
433,324,176557,1,0,0:2:0:0:
177,384,176707,6,0,P|155:327|176:265,1,101.999996887207,2|0,1:2|0:2,0:0:0:0:
316,117,177007,1,10,0:2:0:0:
100,144,177157,1,2,0:2:0:0:
405,22,177307,5,2,1:2:0:0:
496,233,177532,1,2,0:2:0:0:
218,161,177757,1,2,0:2:0:0:
393,120,177907,5,2,1:2:0:0:
120,261,178132,1,2,0:2:0:0:
168,11,178357,1,2,0:2:0:0:
315,179,178507,5,2,3:2:0:0:
356,263,178607,1,0,3:2:0:0:
299,337,178707,1,0,3:2:0:0:
213,337,178807,5,2,3:2:0:0:
156,263,178907,1,0,3:2:0:0:
197,179,179007,1,0,3:2:0:0:
255,246,179107,6,0,L|307:353,1,101.999996887207,6|0,1:2|0:2,0:0:0:0:
48,307,179407,2,0,L|75:200,1,101.999996887207,10|0,0:2|0:2,0:0:0:0:
315,157,179707,1,2,1:2:0:0:
415,279,179857,1,2,0:2:0:0:
201,357,180007,1,10,0:2:0:0:
255,246,180157,1,0,0:2:0:0:
173,79,180307,6,0,L|206:218,1,101.999996887207,2|0,1:2|0:2,0:0:0:0:
415,279,180607,2,0,L|445:136,1,101.999996887207,10|2,0:2|0:2,0:0:0:0:
383,7,180907,1,2,1:2:0:0:
264,138,181057,1,0,0:2:0:0:
453,202,181207,1,10,0:2:0:0:
358,113,181357,1,2,0:2:0:0:
157,318,181507,6,0,P|236:326|286:237,1,152.999995330811,2|0,1:2|0:0,0:0:0:0:
202,244,181807,1,8,0:2:0:0:
358,113,181957,6,0,P|437:105|487:194,1,152.999995330811,2|0,0:2|0:0,0:0:0:0:
403,187,182257,1,0,0:0:0:0:
196,39,182407,2,0,L|212:146,1,101.999996887207,10|0,0:2|0:0,0:0:0:0:
392,289,182707,5,6,1:2:0:0:
240,321,182932,1,2,3:2:0:0:
88,357,183157,1,2,1:2:0:0:
309,249,183307,5,6,1:2:0:0:
135,236,183457,2,0,L|151:293,2,50.9999984436036,0|0|0,1:2|1:2|1:2,0:0:0:0:
217,194,183757,2,0,L|204:145,1,50.9999984436036,0|0,1:2|1:2,0:0:0:0:
132,54,183907,6,0,L|113:136,1,85,6|0,1:2|0:0,0:0:0:0:
361,32,184199,1,10,0:2:0:0:
371,73,184272,1,2,0:0:0:0:
381,114,184345,1,2,0:2:0:0:
391,154,184418,1,2,0:0:0:0:
405,195,184492,2,0,L|423:277,1,85,2|0,1:2|0:0,0:0:0:0:
96,244,184785,2,0,P|141:223|164:226,1,42.5,10|0,0:2|0:0,0:0:0:0:
210,358,184931,2,0,P|165:379|142:376,1,42.5,2|0,0:2|0:0,0:0:0:0:
152,302,185077,6,0,L|242:257,1,85,2|0,1:2|0:0,0:0:0:0:
264,33,185370,1,10,0:2:0:0:
225,50,185443,1,2,0:0:0:0:
186,67,185516,1,2,0:2:0:0:
147,84,185589,1,2,0:0:0:0:
111,107,185663,5,2,1:2:0:0:
326,195,185809,1,2,0:2:0:0:
72,130,185955,5,10,0:2:0:0:
287,221,186102,1,2,0:2:0:0:
121,330,186248,6,0,P|95:254|109:224,1,85,2|0,1:2|0:0,0:0:0:0:
384,175,186541,2,0,L|375:237,1,42.5,10|0,0:2|0:0,0:0:0:0:
236,341,186687,2,0,L|227:279,1,42.5,2|0,0:2|0:0,0:0:0:0:
477,148,186833,6,0,L|458:270,1,85,2|0,1:2|0:0,0:0:0:0:
213,124,187126,1,10,0:2:0:0:
244,95,187199,1,2,0:0:0:0:
283,79,187272,1,2,0:2:0:0:
325,77,187345,1,2,0:0:0:0:
371,90,187419,6,0,L|386:192,1,85,2|0,1:2|0:0,0:0:0:0:
222,336,187711,2,0,P|155:329|147:323,1,42.5,10|0,0:2|0:0,0:0:0:0:
181,180,187858,2,0,P|202:178|222:183,1,42.5,2|0,0:2|0:0,0:0:0:0:
199,261,188004,5,2,3:2:0:0:
119,248,188102,1,2,3:2:0:0:
41,235,188199,1,2,3:2:0:0:
181,180,188297,6,0,L|195:150,5,28.3333333333333,0|0|0|0|0|0,3:2|3:2|3:2|3:2|3:2|3:2,0:0:0:0:
151,85,188589,6,0,P|200:71|239:86,1,85,6|0,1:2|0:0,0:0:0:0:
341,220,188874,1,10,0:2:0:0:
382,211,188945,1,2,0:0:0:0:
424,202,189016,1,2,0:2:0:0:
465,194,189088,1,2,0:0:0:0:
506,188,189160,2,0,L|491:305,1,85,2|0,1:2|0:0,0:0:0:0:
368,367,189446,2,0,L|358:316,1,42.5,10|0,0:2|0:0,0:0:0:0:
248,191,189589,2,0,L|238:242,1,42.5,2|0,0:2|0:0,0:0:0:0:
132,384,189731,6,0,L|113:283,1,85,2|0,1:2|0:0,0:0:0:0:
113,101,190017,1,10,0:2:0:0:
147,77,190088,1,2,0:0:0:0:
189,69,190159,1,2,0:2:0:0:
229,80,190231,1,2,0:0:0:0:
262,107,190303,5,2,1:2:0:0:
67,214,190446,1,2,0:2:0:0:
292,143,190589,5,10,0:2:0:0:
64,262,190731,1,2,0:2:0:0:
410,263,190874,5,6,3:2:0:0:
204,225,191065,1,2,3:2:0:0:
439,184,191255,1,2,3:2:0:0:
270,298,191446,5,6,3:2:0:0:
371,110,191636,1,2,3:2:0:0:
251,127,191827,1,2,3:2:0:0:
338,206,192017,5,6,1:2:0:0:
349,246,192089,1,0,1:2:0:0:
365,287,192160,2,0,L|376:319,2,21.25,0|0|0,1:2|1:0|1:0,0:0:0:0:
315,374,192303,5,0,1:0:0:0:
280,380,192374,1,0,1:0:0:0:
244,376,192446,2,0,L|237:355,2,21.25,0|0|0,1:2|1:0|1:0,0:0:0:0:
152,342,192589,5,0,1:2:0:0:
144,300,192660,1,0,1:2:0:0:
136,257,192731,1,0,1:2:0:0:
128,216,192802,1,0,1:2:0:0:
120,174,192873,1,0,1:2:0:0:
112,132,192945,1,0,1:2:0:0:
104,90,193016,1,0,1:2:0:0:
93,46,193089,1,0,1:0:0:0:
86,4,193160,6,0,P|164:-6|195:16,1,95.6250036478044,2|0,0:2|0:0,0:0:0:0:
275,61,193439,1,14,0:2:0:0:
37,224,193578,6,0,L|10:89,1,93.5000028533936,0|2,0:2|1:2,0:0:0:0:
326,166,193857,1,0,0:2:0:0:
144,300,193997,1,8,0:2:0:0:
432,282,194136,1,2,0:2:0:0:
249,253,194276,5,2,1:2:0:0:
472,378,194415,1,0,0:2:0:0:
330,306,194555,1,10,0:2:0:0:
507,209,194694,1,2,0:2:0:0:
232,278,194834,2,0,P|204:214|212:173,1,93.5000028533936,2|0,1:2|0:0,0:0:0:0:
345,45,195113,2,0,L|318:200,1,140.25000428009,10|0,0:2|0:0,0:0:0:0:
312,207,195392,6,0,L|277:95,1,93.5000028533936,2|0,1:2|0:0,0:0:0:0:
41,111,195671,5,10,0:2:0:0:
155,13,195811,1,0,0:2:0:0:
90,220,195950,1,2,1:2:0:0:
223,210,196090,1,0,0:2:0:0:
59,18,196229,5,10,0:2:0:0:
253,68,196369,1,2,0:2:0:0:
148,128,196508,1,2,1:2:0:0:
376,186,196648,1,2,0:2:0:0:
196,293,196787,1,10,0:2:0:0:
246,189,196927,1,2,0:2:0:0:
390,352,197066,5,2,3:2:0:0:
470,355,197159,1,0,3:2:0:0:
512,289,197252,1,0,3:2:0:0:
475,214,197346,5,0,3:2:0:0:
395,211,197439,1,0,3:2:0:0:
353,277,197532,1,0,3:2:0:0:
304,349,197625,6,0,L|207:334,1,93.5000028533936,6|0,1:2|0:0,0:0:0:0:
89,129,197904,1,10,0:2:0:0:
153,233,198043,1,0,0:2:0:0:
24,359,198183,1,2,1:2:0:0:
47,266,198322,1,0,0:2:0:0:
195,136,198462,2,0,P|267:136|296:150,1,93.5000028533936,10|2,0:2|0:2,0:0:0:0:
483,301,198741,6,0,L|472:180,1,93.5000028533936,2|0,1:2|0:2,0:0:0:0:
453,40,199020,1,10,0:2:0:0:
380,268,199160,1,2,0:2:0:0:
349,0,199299,2,0,L|357:93,1,93.5000028533936,2|0,1:2|0:0,0:0:0:0:
200,267,199578,2,0,L|191:173,1,93.5000028533936,10|0,0:2|3:2,0:0:0:0:
424,383,199857,5,6,1:2:0:0:
113,320,200043,5,2,0:2:0:0:
377,306,200229,5,2,0:2:0:0:
200,267,200415,5,6,3:2:0:0:
453,244,200601,5,2,3:2:0:0:
195,168,200787,5,2,3:2:0:0:
440,159,200973,5,6,3:2:0:0:
253,93,201160,5,2,3:2:0:0:
512,87,201346,5,2,3:2:0:0:
260,1,201532,5,6,3:2:0:0:
109,327,202090,6,0,P|57:310|32:266,1,85,6|0,1:2|0:0,0:0:0:0:
403,327,202362,2,0,P|455:310|480:266,1,85,8|0,0:2|0:0,0:0:0:0:
97,156,202635,2,0,L|114:240,1,85,0|0,1:2|0:0,0:0:0:0:
415,156,202907,2,0,L|398:240,1,85,10|2,0:2|0:2,0:0:0:0:
24,86,203180,6,0,P|73:55|130:52,1,85,2|0,1:2|0:0,0:0:0:0:
181,168,203453,2,0,L|96:155,1,85,8|0,0:2|0:0,0:0:0:0:
382,249,203726,1,2,1:2:0:0:
360,364,203862,1,0,0:0:0:0:
130,249,203999,1,8,0:2:0:0:
152,364,204135,1,0,0:0:0:0:
342,169,204271,6,0,B|358:138|358:138|339:74,1,85,2|0,1:2|0:0,0:0:0:0:
452,58,204544,2,0,B|441:24|441:24|382:-8,1,85,8|0,0:2|0:0,0:0:0:0:
170,169,204817,2,0,B|154:138|154:138|173:74,1,85,0|0,1:2|0:0,0:0:0:0:
60,58,205090,2,0,B|71:24|71:24|130:-8,1,85,10|2,0:2|0:2,0:0:0:0:
348,70,205362,5,2,1:2:0:0:
258,154,205499,1,0,0:0:0:0:
431,232,205635,1,10,0:2:0:0:
361,159,205771,1,0,0:0:0:0:
353,294,205908,6,0,L|367:368,2,56.6666666666667,2|0|0,3:2|0:0|0:0,0:0:0:0:
431,232,206180,2,0,L|442:288,2,56.6666666666667,2|2|2,3:2|3:2|3:2,0:0:0:0:
280,63,206453,6,0,P|228:63|184:97,1,85,4|0,1:2|0:0,0:0:0:0:
18,231,206745,2,0,P|70:231|114:197,1,85,8|0,0:2|0:0,0:0:0:0:
78,40,207038,1,0,1:2:0:0:
41,140,207184,1,0,0:0:0:0:
178,16,207331,1,10,0:2:0:0:
151,103,207477,1,2,0:2:0:0:
268,263,207623,6,0,P|331:267|380:162,1,170,2|8,1:2|0:2,0:0:0:0:
355,90,208096,1,0,0:0:0:0:
205,192,208254,2,0,P|227:318|236:369,1,170,2|8,1:2|0:2,0:0:0:0:
123,294,208728,1,0,0:0:0:0:
335,257,208886,5,6,1:2:0:0:
449,291,209114,1,0,3:2:0:0:
417,186,209343,1,0,1:2:0:0:
177,222,209571,5,6,3:2:0:0:
125,234,209696,1,0,3:2:0:0:
76,250,209821,2,0,L|60:334,3,56.6666666666667,0|0|0|0,3:2|3:2|3:2|3:2,0:0:0:0:
329,127,210321,5,6,3:2:0:0:
398,143,210454,1,2,3:2:0:0:
464,164,210587,2,0,L|483:268,3,56.6666666666667,2|0|2|2,3:2|3:2|3:2|3:2,0:0:0:0:
255,32,211121,5,4,0:2:0:0:
