osu file format v14

[General]
AudioFilename: audio.mp3
AudioLeadIn: 0
PreviewTime: 67957
Countdown: 0
SampleSet: Soft
StackLeniency: 0.7
Mode: 0
LetterboxInBreaks: 0
WidescreenStoryboard: 1

[Editor]
Bookmarks: 87607,87907,88207,88507,88807,89107,89407,89707,90007,90307,90607,90907,91207,91507,91807,92107,92407,92707,93007,93307,93607,93907,94207,94507,94807,95107,95407,95707,96007,96307,96607,96907,97207,145207,145507,145807,146107,146407,146707,147007,147307,147607,147907,148207,148507,148807,149107,149407,149707,150007,150307,150607,150907,151207,151507,151807,152107,152407,152707,153007,153307,153607,153907,154207,154507,154807,155107,155407,155707,156007,156307,156607,156907,157207,157507,157807,158107,158407,158707,159007,159307,159607,183907
DistanceSpacing: 1.2
BeatDivisor: 4
GridSize: 8
TimelineZoom: 1.8

[Metadata]
Title:Kakuzetsu Thanatos
TitleUnicode:隔絶≡タナトス
Artist:Rohi
ArtistUnicode:ろひ
Creator:Nevo
Version:Collab Hard
Source:osu!
Tags:fa featured artist vocaloid japanese rock electronic yumerios arc [arc] aistre alphabet squishi Flowziee Kakuzetsu=Thanatos venax
BeatmapID:2754087
BeatmapSetID:1151959

[Difficulty]
HPDrainRate:4
CircleSize:3.8
OverallDifficulty:6
ApproachRate:8
SliderMultiplier:1
SliderTickRate:1

[Events]
//Background and Video events
0,0,"osubg.jpg",0,0
Video,32,"kakuzetsu video.mp4"
//Break Periods
2,87807,96457
2,145407,158857
//Storyboard Layer 0 (Background)
//Storyboard Layer 1 (Fail)
//Storyboard Layer 2 (Pass)
//Storyboard Layer 3 (Foreground)
//Storyboard Layer 4 (Overlay)
//Storyboard Sound Samples

[TimingPoints]
7,300,4,2,1,40,1,0
1207,-133.333333333333,4,2,1,40,0,0
10807,-71.4285714285714,4,2,1,70,0,0
20107,-71.4285714285714,4,2,1,60,0,0
20407,-100,4,2,1,60,0,0
30007,-71.4285714285714,4,2,1,70,0,0
39607,-100,4,2,1,60,0,0
58807,-100,4,2,1,50,0,0
63607,-100,4,2,1,60,0,0
67207,-100,4,2,1,40,0,0
68107,-100,4,2,1,60,0,0
68407,-62.5,4,2,1,80,0,0
87607,-62.5,4,2,1,70,0,0
97207,-83.3333333333333,4,2,1,60,0,0
101407,-71.4285714285714,4,2,1,60,0,0
102007,-83.3333333333333,4,2,1,60,0,0
106207,-125,4,2,1,60,0,0
106807,-71.4285714285714,4,2,1,70,0,0
116407,-100,4,2,1,60,0,0
135607,-100,4,2,1,50,0,0
140407,-90.9090909090909,4,2,1,50,0,0
142807,-83.3333333333333,4,2,1,50,0,0
144007,-125,4,2,1,50,0,0
145207,-100,4,2,1,40,0,0
164707,300,4,2,1,80,1,1
164707,-58.8235294117647,4,2,1,80,0,1
183907,292.682926829268,4,2,1,70,1,0
183907,-71.4285714285714,4,2,1,70,0,0
188589,285.714285714286,4,2,1,70,1,0
188589,-71.4285714285714,4,2,1,70,0,0
192017,-100,4,2,1,70,0,0
193160,279.06976744186,4,2,1,70,1,0
193160,-66.6666666666667,4,2,1,70,0,0
193439,-66.6666666666667,4,2,1,80,0,0
201532,-100,4,2,1,80,0,0
202090,272.727272727273,4,2,1,80,1,0
202090,-66.6666666666667,4,2,1,80,0,0
206453,292.682926829268,4,2,1,80,1,0
206453,-66.6666666666667,4,2,1,80,0,0
207623,315.789473684211,4,2,1,75,1,0
207623,-71.4285714285714,4,2,1,75,0,0
208886,342.857142857143,4,2,1,70,1,0
208886,-76.9230769230769,4,2,1,70,0,0
209571,375,4,2,1,65,1,0
209571,-76.9230769230769,4,2,1,65,0,0
210321,400,4,2,1,60,1,0
210321,-83.3333333333333,4,2,1,60,0,0

[Colours]
Combo1 : 248,213,139
Combo2 : 255,26,26
Combo3 : 0,204,204
Combo4 : 107,27,180

[HitObjects]
50,194,907,5,2,0:2:0:0:
50,194,1057,1,2,0:2:0:0:
50,194,1207,2,0,B|115:184|115:184|207:277|207:277|275:266,1,262.500010013581,2|2,0:2|0:2,0:0:0:0:
334,207,2407,2,0,B|290:145|290:145|330:328,1,262.500010013581,2|2,0:2|0:2,0:0:0:0:
382,381,3607,6,0,P|406:331|253:326,1,300.000011444092,2|2,0:2|0:2,0:0:0:0:
290,106,6007,6,0,B|346:98|346:98|381:111|381:111|442:101,1,150.000005722046,2|0,0:2|0:0,0:0:0:0:
256,216,7207,2,0,B|200:204|200:204|164:215|164:215|104:200,1,150.000005722046,2|0,0:2|0:0,0:0:0:0:
79,44,8407,5,2,0:2:0:0:
256,192,8482,12,2,9607,0:2:0:0:
282,76,10507,5,6,1:2:0:0:
352,49,10657,1,2,1:2:0:0:
402,104,10807,2,0,L|378:245,1,139.999995727539,6|10,1:2|0:2,0:0:0:0:
422,322,11257,1,2,0:2:0:0:
422,322,11332,1,2,0:0:0:0:
422,322,11407,2,0,P|458:319|496:287,1,69.9999978637696,2|0,1:2|0:0,0:0:0:0:
329,350,11707,2,0,P|283:343|251:321,1,69.9999978637696,10|2,0:2|0:2,0:0:0:0:
241,313,11932,1,0,0:0:0:0:
225,297,12007,6,0,B|176:268|176:268|90:289,1,139.999995727539,2|10,1:2|0:2,0:0:0:0:
62,183,12457,1,2,0:2:0:0:
62,183,12607,2,0,P|111:185|141:211,1,69.9999978637696,2|2,1:2|0:2,0:0:0:0:
205,143,12907,2,0,P|208:95|224:64,1,69.9999978637696,10|2,0:2|0:2,0:0:0:0:
257,79,13132,1,0,0:0:0:0:
285,81,13207,6,0,L|273:231,1,139.999995727539,2|10,1:2|0:2,0:0:0:0:
360,273,13657,1,2,0:2:0:0:
360,273,13807,2,0,P|409:272|433:254,1,69.9999978637696,2|0,1:2|0:0,0:0:0:0:
487,202,14107,1,10,0:2:0:0:
487,202,14257,1,2,0:2:0:0:
436,131,14407,6,0,B|431:97|431:97|445:54,1,69.9999978637696,2|0,1:2|0:0,0:0:0:0:
359,0,14707,2,0,B|364:33|364:33|350:76,1,69.9999978637696,10|2,0:2|0:2,0:0:0:0:
276,104,15007,6,0,L|218:92,2,46.6666652425131,2|2|2,3:2|3:2|3:2,0:0:0:0:
302,181,15307,2,0,L|355:168,2,46.6666652425131,2|2|2,3:2|3:2|3:2,0:0:0:0:
239,239,15607,6,0,P|189:217|92:211,1,139.999995727539,6|10,1:2|0:2,0:0:0:0:
16,193,16057,1,2,0:2:0:0:
16,193,16207,2,0,L|-4:111,1,69.9999978637696,2|0,1:2|0:0,0:0:0:0:
19,31,16507,2,0,P|47:10|91:0,1,69.9999978637696,10|2,0:2|0:2,0:0:0:0:
113,0,16732,1,0,0:0:0:0:
150,0,16807,6,0,B|164:53|164:53|139:149,1,139.999995727539,2|10,1:2|0:2,0:0:0:0:
197,212,17257,1,2,0:2:0:0:
197,212,17332,1,2,0:0:0:0:
197,212,17407,2,0,L|205:293,1,69.9999978637696,2|2,1:2|0:2,0:0:0:0:
176,360,17707,1,10,0:2:0:0:
176,360,17857,1,2,0:2:0:0:
270,368,18007,6,0,B|294:357|299:333|299:333|312:355|348:365,2,93.3333304850261,6|2|2,3:2|3:2|3:2,0:0:0:0:
436,290,18607,6,0,B|412:279|407:255|407:255|394:277|371:282,2,93.3333304850261,6|2|2,3:2|3:2|3:2,0:0:0:0:
233,233,19207,5,6,3:2:0:0:
328,196,19407,1,2,3:2:0:0:
247,132,19607,1,2,3:2:0:0:
341,56,19807,6,0,L|326:213,1,139.999995727539,6|2,3:2|0:2,0:0:0:0:
177,314,20407,6,0,L|69:296,2,100,6|10|2,1:2|0:2|0:2,0:0:0:0:
42,157,21307,6,0,P|45:182|46:227,1,50,10|0,0:2|0:2,0:0:0:0:
145,117,21607,2,0,P|128:180|126:224,1,100,2|10,1:2|0:2,0:0:0:0:
208,223,22057,1,2,0:2:0:0:
208,223,22207,1,2,0:2:0:0:
312,95,22507,6,0,L|245:84,1,50,10|0,0:2|3:2,0:0:0:0:
246,7,22807,2,0,L|358:3,2,100,2|10|2,1:2|0:2|0:2,0:0:0:0:
408,72,23707,6,0,L|411:141,1,50,10|0,0:2|0:2,0:0:0:0:
473,176,24007,1,2,1:2:0:0:
473,176,24157,1,0,0:2:0:0:
416,230,24307,2,0,L|414:341,1,100,10|2,0:2|0:2,0:0:0:0:
249,330,24907,6,0,P|285:321|317:322,1,50,10|0,0:2|0:2,0:0:0:0:
186,262,25207,2,0,P|242:240|290:234,1,100,2|10,1:2|0:2,0:0:0:0:
274,154,25657,1,2,1:2:0:0:
274,154,25807,1,2,0:2:0:0:
168,74,26107,6,0,L|169:141,1,50,10|0,0:2|0:2,0:0:0:0:
87,166,26407,2,0,L|70:58,2,100,2|10|2,1:2|0:2|0:2,0:0:0:0:
3,290,27307,5,10,0:2:0:0:
3,290,27457,1,0,3:2:0:0:
3,290,27607,2,0,P|45:339|98:345,1,100,2|10,1:2|0:2,0:0:0:0:
138,294,28057,1,2,1:2:0:0:
138,294,28207,2,0,L|196:282,1,50,2|0,0:2|1:2,0:0:0:0:
249,332,28507,2,0,L|315:339,1,50,10|2,0:2|0:2,0:0:0:0:
384,260,28807,6,0,B|364:290|364:290|384:369,2,100,2|10|2,1:2|1:2|1:2,0:0:0:0:
493,174,29707,5,10,1:2:0:0:
449,107,29857,1,2,1:2:0:0:
491,38,30007,2,0,L|343:21,1,139.999995727539,6|10,1:2|0:2,0:0:0:0:
267,74,30457,1,2,0:2:0:0:
267,74,30532,1,2,0:0:0:0:
267,74,30607,2,0,P|291:144|291:165,1,69.9999978637696,2|0,1:2|0:0,0:0:0:0:
164,141,30907,2,0,P|168:90|181:63,1,69.9999978637696,10|2,0:2|0:2,0:0:0:0:
156,39,31132,1,0,0:0:0:0:
136,12,31207,6,0,B|88:19|88:19|58:8|58:8|-2:19,1,139.999995727539,2|10,1:2|0:2,0:0:0:0:
20,103,31657,1,2,0:2:0:0:
20,103,31807,2,0,P|34:146|35:182,1,69.9999978637696,2|2,1:2|0:2,0:0:0:0:
105,244,32107,2,0,P|117:204|122:169,1,69.9999978637696,10|2,0:2|0:2,0:0:0:0:
149,154,32332,1,0,0:0:0:0:
188,144,32407,6,0,L|335:120,1,139.999995727539,2|10,1:2|0:2,0:0:0:0:
413,166,32857,1,2,0:2:0:0:
413,166,32932,1,0,0:0:0:0:
413,166,33007,2,0,P|413:127|426:90,1,69.9999978637696,2|0,1:2|0:0,0:0:0:0:
502,177,33307,2,0,L|495:263,1,69.9999978637696,10|2,0:2|0:2,0:0:0:0:
459,324,33607,6,0,B|428:307|428:307|387:315,1,69.9999978637696,2|0,1:2|0:0,0:0:0:0:
259,356,33907,2,0,B|293:372|293:372|330:363,1,69.9999978637696,10|2,0:2|0:2,0:0:0:0:
219,278,34207,6,0,L|173:289,2,46.6666652425131,2|2|2,3:2|3:2|3:2,0:0:0:0:
268,205,34507,2,0,L|321:213,2,46.6666652425131,2|2|2,3:2|3:2|3:2,0:0:0:0:
202,148,34807,6,0,B|216:104|216:104|199:2,1,139.999995727539,6|10,1:2|0:2,0:0:0:0:
107,29,35257,1,2,0:2:0:0:
107,29,35332,1,0,0:0:0:0:
107,29,35407,2,0,P|102:82|92:104,1,69.9999978637696,2|0,1:2|0:0,0:0:0:0:
17,150,35707,2,0,P|35:195|42:234,1,69.9999978637696,10|2,0:2|0:2,0:0:0:0:
38,253,35932,1,2,0:0:0:0:
30,285,36007,6,0,P|98:267|155:331,1,139.999995727539,2|10,1:2|0:2,0:0:0:0:
189,384,36457,1,2,0:2:0:0:
189,384,36532,1,0,0:0:0:0:
189,384,36607,2,0,L|264:369,1,69.9999978637696,2|2,1:2|0:2,0:0:0:0:
330,297,36907,2,0,L|250:274,1,69.9999978637696,10|2,0:2|0:2,0:0:0:0:
243,185,37207,6,0,B|224:166|196:167|196:167|183:183|129:196,2,93.3333304850261,6|2|2,3:2|3:2|3:2,0:0:0:0:
368,226,37807,6,0,B|381:207|408:203|408:203|431:225|479:219,2,93.3333304850261,6|2|2,3:2|3:2|3:2,0:0:0:0:
296,66,38407,5,6,3:2:0:0:
324,149,38607,1,2,3:2:0:0:
376,29,38807,1,2,3:2:0:0:
235,4,39007,6,0,L|72:29,1,139.999995727539,6|2,3:2|0:2,0:0:0:0:
60,224,39607,6,0,L|41:124,1,100,6|10,1:2|0:2,0:0:0:0:
122,111,40057,1,2,0:2:0:0:
122,111,40207,1,2,1:2:0:0:
178,225,40507,6,0,P|207:231|236:221,1,50,10|0,0:2|0:2,0:0:0:0:
284,166,40807,2,0,L|290:108,1,50,2|0,1:2|0:2,0:0:0:0:
338,232,41107,2,0,P|348:265|348:297,2,50,10|2|2,0:2|0:2|1:2,0:0:0:0:
416,111,41707,6,0,L|410:160,1,50,10|0,0:2|0:2,0:0:0:0:
512,202,42007,2,0,L|497:80,1,100,2|10,1:2|0:2,0:0:0:0:
491,17,42457,1,2,0:2:0:0:
491,17,42607,1,2,1:2:0:0:
340,8,42907,6,0,P|302:7|279:14,1,50,10|0,0:2|0:2,0:0:0:0:
241,71,43207,2,0,P|252:117|253:139,1,50,2|0,1:2|0:2,0:0:0:0:
263,200,43507,2,0,L|201:213,1,50,10|2,0:2|0:2,0:0:0:0:
135,226,43807,1,2,1:2:0:0:
75,87,44107,5,10,0:2:0:0:
75,87,44257,1,0,0:2:0:0:
75,87,44407,2,0,L|68:202,1,100,6|10,1:2|0:2,0:0:0:0:
36,262,44857,1,2,0:2:0:0:
36,262,45007,2,0,P|52:307|56:327,1,50,2|0,1:2|0:0,0:0:0:0:
126,331,45307,2,0,P|122:369|115:392,1,50,10|0,0:2|0:2,0:0:0:0:
211,329,45607,6,0,P|232:273|235:268,1,50,2|0,1:2|0:2,0:0:0:0:
316,224,45907,2,0,L|383:233,2,50,10|2|2,0:2|0:2|1:2,0:0:0:0:
218,115,46507,6,0,P|238:145|261:169,1,50,10|0,0:2|0:2,0:0:0:0:
322,207,46807,1,2,1:2:0:0:
322,207,46957,1,0,1:2:0:0:
381,138,47107,2,0,L|446:126,1,50,10|0,1:2|1:2,0:0:0:0:
512,213,47407,2,0,L|449:196,1,50,10|2,1:2|1:2,0:0:0:0:
414,269,47707,2,0,P|412:308|419:341,1,50,10|0,1:2|1:2,0:0:0:0:
352,377,48007,6,0,P|331:358|298:345,1,50,10|2,1:2|1:2,0:0:0:0:
231,359,48307,1,10,1:2:0:0:
231,359,48457,1,2,1:2:0:0:
231,280,48607,1,10,1:2:0:0:
105,174,49207,6,0,B|104:207|104:207|116:237|116:237|85:257|85:257|106:296|106:296|101:356,1,200,6|10,1:2|0:2,0:0:0:0:
252,139,50407,2,0,P|212:113|155:120,2,100,2|2|10,1:2|3:2|0:2,0:0:0:0:
346,61,51307,1,2,0:2:0:0:
385,186,51607,6,0,L|459:166,2,75,2|0|2,1:2|3:2|1:2,0:0:0:0:
337,263,52207,2,0,L|236:241,1,100,10|2,0:2|0:2,0:0:0:0:
87,253,52807,2,0,P|100:296|103:361,2,100,0|2|8,1:2|3:2|0:2,0:0:0:0:
225,83,54007,6,0,B|188:88|163:112|163:112|137:67|137:67|95:80|54:53,1,200,6|10,1:2|0:2,0:0:0:0:
232,180,55207,2,0,P|212:226|214:279,2,100,2|2|10,1:2|3:2|0:2,0:0:0:0:
327,126,56107,1,2,0:2:0:0:
395,236,56407,6,0,L|316:215,2,75,2|0|2,1:2|3:2|1:2,0:0:0:0:
494,212,57007,2,0,P|479:267|475:313,1,100,10|2,0:2|0:2,0:0:0:0:
426,123,57607,6,0,P|421:67|431:23,2,100,2|2|8,1:2|3:2|0:2,0:0:0:0:
260,233,58807,6,0,P|226:208|165:198,1,100,6|8,0:2|0:2,0:0:0:0:
115,333,59407,2,0,P|149:358|210:368,1,100,2|8,0:2|0:2,0:0:0:0:
84,240,60007,6,0,L|34:254,1,50,2|2,0:2|0:2,0:0:0:0:
31,146,60307,2,0,L|85:158,1,50,10|2,0:2|0:2,0:0:0:0:
127,90,60607,2,0,L|28:25,1,100,2|10,0:2|0:2,0:0:0:0:
254,78,61207,6,0,P|240:120|238:139,2,50,2|0|10,0:2|0:2|0:2,0:0:0:0:
334,36,61657,1,2,0:2:0:0:
334,36,61807,2,0,L|399:39,1,50,2|0,0:2|0:2,0:0:0:0:
434,98,62107,2,0,L|420:161,1,50,10|2,0:2|0:2,0:0:0:0:
359,196,62407,6,0,P|383:247|401:308,1,100,2|10,0:2|0:2,0:0:0:0:
481,286,62857,2,0,P|464:342|456:393,1,100,2|2,0:2|0:2,0:0:0:0:
236,284,63607,5,6,3:2:0:0:
236,284,63757,2,0,L|218:132,1,150,0|2,1:2|0:2,0:0:0:0:
476,11,64657,5,0,1:2:0:0:
508,91,64807,1,6,3:2:0:0:
508,91,64957,2,0,P|446:124|370:78,1,150,2|2,1:2|0:2,0:0:0:0:
250,136,65707,6,0,P|288:129|310:106,1,50,10|0,0:2|1:2,0:0:0:0:
221,36,66007,1,6,3:2:0:0:
148,81,66157,2,0,L|141:197,1,100,0|2,1:2|3:2,0:0:0:0:
99,291,66607,5,6,1:2:0:0:
30,251,66757,2,0,L|13:136,1,100,0|0,1:2|1:2,0:0:0:0:
0,70,67207,5,6,1:2:0:0:
134,327,68107,5,2,0:2:0:0:
134,327,68257,1,0,0:0:0:0:
134,327,68407,2,0,L|217:309,1,80,6|0,1:2|0:2,0:0:0:0:
268,244,68707,2,0,L|357:259,1,80,10|0,0:2|0:2,0:0:0:0:
475,307,69007,2,0,B|442:306|424:278|424:278|415:311|390:323,2,120,2|2|0,1:2|0:2|0:2,0:0:0:0:
499,217,69607,6,0,P|507:172|507:132,1,80,2|0,1:2|0:2,0:0:0:0:
400,110,69907,2,0,P|404:159|414:198,1,80,10|2,0:2|0:2,0:0:0:0:
305,259,70207,2,0,B|329:209|329:209|274:168,2,120,2|2|0,1:2|0:2|0:2,0:0:0:0:
216,238,70807,5,2,1:2:0:0:
216,238,70957,1,0,0:2:0:0:
136,214,71107,1,10,0:2:0:0:
136,214,71257,1,2,0:2:0:0:
67,260,71407,2,0,B|80:308|62:323|62:323|45:358|68:388,2,120,2|2|2,1:2|0:2|0:2,0:0:0:0:
6,177,72007,5,2,1:2:0:0:
34,75,72232,1,2,0:2:0:0:
139,89,72457,1,2,0:2:0:0:
216,55,72607,6,0,L|200:4,2,53.3333333333333,2|0|0,3:2|3:2|3:2,0:0:0:0:
292,77,72907,2,0,L|280:143,2,53.3333333333333,2|0|0,3:2|3:2|3:2,0:0:0:0:
361,20,73207,6,0,P|411:26|454:42,1,80,6|0,1:2|0:2,0:0:0:0:
502,97,73507,1,10,0:2:0:0:
502,97,73657,1,0,0:2:0:0:
502,174,73807,2,0,P|458:187|421:217,1,80,2|2,1:2|0:2,0:0:0:0:
349,265,74107,2,0,P|394:276|439:308,1,80,10|0,0:2|0:2,0:0:0:0:
434,374,74407,6,0,L|521:351,2,80,2|0|10,1:2|0:2|0:2,0:0:0:0:
345,373,74857,1,2,0:2:0:0:
345,373,75007,2,0,L|255:355,1,80,2|0,1:2|0:2,0:0:0:0:
233,278,75307,1,10,0:2:0:0:
233,278,75457,1,2,0:2:0:0:
167,338,75607,5,2,1:2:0:0:
167,338,75757,2,0,L|9:369,2,160,2|2|2,0:2|0:2|0:2,0:0:0:0:
151,248,76507,2,0,P|151:199|171:170,1,80,10|2,0:2|0:2,0:0:0:0:
253,143,76807,5,6,1:2:0:0:
198,49,77032,1,2,3:2:0:0:
91,72,77257,1,2,1:2:0:0:
71,147,77407,6,0,P|83:192|86:236,1,80,6|0,1:2|3:2,0:0:0:0:
29,280,77707,2,0,L|26:326,3,40,8|2|0|0,0:2|0:0|1:2|1:2,0:0:0:0:
25,347,78007,6,0,P|79:339|113:352,1,80,6|0,1:2|0:2,0:0:0:0:
172,298,78307,2,0,P|216:323|237:353,1,80,10|2,0:2|0:2,0:0:0:0:
320,361,78607,2,0,B|362:327|362:327|397:326|422:349,2,120,2|2|0,1:2|0:2|0:2,0:0:0:0:
283,274,79207,6,0,L|296:182,1,80,2|0,1:2|0:2,0:0:0:0:
376,177,79507,2,0,L|361:88,1,80,10|2,0:2|0:2,0:0:0:0:
266,1,79807,2,0,B|277:26|311:35|311:35|283:53|281:86,2,120,2|2|0,1:2|0:2|0:2,0:0:0:0:
186,54,80407,5,2,1:2:0:0:
186,54,80557,1,0,0:2:0:0:
113,19,80707,1,10,0:2:0:0:
113,19,80857,1,2,0:2:0:0:
56,72,81007,2,0,P|54:16|0:11,2,120,2|2|2,1:2|0:2|0:2,0:0:0:0:
44,150,81607,5,2,1:2:0:0:
17,251,81832,1,2,0:2:0:0:
94,326,82057,1,2,0:2:0:0:
168,289,82207,6,0,L|176:223,2,53.3333333333333,2|0|0,3:2|3:2|3:2,0:0:0:0:
232,331,82507,2,0,L|238:390,2,53.3333333333333,2|0|0,3:2|3:2|3:2,0:0:0:0:
297,280,82807,6,0,P|370:296|390:303,1,80,6|0,1:2|0:2,0:0:0:0:
451,262,83107,1,10,0:2:0:0:
451,262,83257,1,0,0:2:0:0:
494,195,83407,2,0,L|486:112,1,80,2|2,1:2|0:2,0:0:0:0:
380,99,83707,2,0,L|367:197,1,80,10|0,0:2|0:2,0:0:0:0:
282,171,84007,6,0,P|242:151|232:114,1,80,2|0,1:2|0:2,0:0:0:0:
162,60,84307,2,0,P|110:89|95:130,1,80,10|2,0:2|0:2,0:0:0:0:
91,183,84607,1,2,1:2:0:0:
91,183,84757,1,0,0:2:0:0:
129,252,84907,1,10,0:2:0:0:
129,252,85057,1,2,0:2:0:0:
112,325,85207,6,0,B|226:274|217:401|341:349,2,240,2|2|10,1:2|0:2|0:2,0:0:0:0:
0,216,86407,5,6,1:2:0:0:
42,117,86632,1,2,3:2:0:0:
152,135,86857,1,2,1:2:0:0:
216,86,87007,6,0,L|209:43,3,40,6|0|0|0,1:2|0:0|1:2|1:2,0:0:0:0:
205,19,87307,2,0,L|297:6,1,80,0|0,1:2|1:2,0:0:0:0:
376,3,87607,5,6,0:2:0:0:
456,58,97207,5,2,1:2:0:0:
456,58,97507,6,0,L|383:50,1,59.9999981689454,14|2,0:2|0:2,0:0:0:0:
326,99,97807,2,0,L|253:107,1,59.9999981689454,2|2,1:2|0:2,0:0:0:0:
198,55,98107,2,0,L|125:47,1,59.9999981689454,8|2,0:2|0:2,0:0:0:0:
48,99,98407,5,2,1:2:0:0:
116,149,98557,2,0,B|145:176|145:176|122:271,1,119.999996337891,0|2,0:2|0:2,0:0:0:0:
67,320,99007,2,0,L|2:308,1,59.9999981689454,2|0,1:2|0:0,0:0:0:0:
158,338,99307,1,10,0:2:0:0:
158,338,99457,1,0,0:0:0:0:
211,269,99607,5,2,1:2:0:0:
211,268,99758,2,0,P|269:279|313:318,1,119.999996337891,0|0,0:0|0:2,0:0:0:0:
390,360,100207,2,0,P|396:330|398:284,1,59.9999981689454,2|0,1:2|0:2,0:0:0:0:
462,242,100507,2,0,P|456:212|454:166,1,59.9999981689454,10|2,0:2|0:2,0:0:0:0:
485,84,100807,6,0,L|409:78,1,59.9999981689454,2|0,1:2|0:2,0:0:0:0:
351,31,101107,2,0,L|275:37,1,59.9999981689454,10|2,0:2|0:2,0:0:0:0:
203,87,101407,6,0,L|192:30,2,46.6666652425131,2|0|0,3:2|3:2|3:2,0:0:0:0:
262,156,101707,2,0,L|251:213,2,46.6666652425131,0|0|0,3:2|3:2|3:2,0:0:0:0:
167,166,102007,6,0,L|45:157,1,119.999996337891,6|10,1:2|0:2,0:0:0:0:
52,236,102457,1,0,0:2:0:0:
6,304,102607,2,0,P|37:315|75:313,1,59.9999981689454,2|2,1:2|0:2,0:0:0:0:
142,265,102907,2,0,P|173:254|211:256,1,59.9999981689454,10|0,0:2|0:2,0:0:0:0:
281,337,103207,5,2,1:2:0:0:
320,268,103357,2,0,P|357:237|430:245,1,119.999996337891,2|2,0:2|0:2,0:0:0:0:
494,295,103807,2,0,L|486:371,1,59.9999981689454,2|0,1:2|0:0,0:0:0:0:
511,211,104107,1,10,0:2:0:0:
511,211,104257,1,0,3:2:0:0:
435,157,104407,6,0,B|433:144|421:128|421:128|432:108|425:77,2,79.9999975585938,6|2|2,1:2|0:2|0:2,0:0:0:0:
284,100,105007,6,0,B|286:87|298:71|298:71|287:51|294:20,2,79.9999975585938,6|2|2,3:2|3:2|3:2,0:0:0:0:
327,176,105607,5,6,3:2:0:0:
213,151,105807,1,2,3:2:0:0:
99,127,106007,1,2,3:2:0:0:
44,253,106207,6,0,L|169:244,1,119.999996337891,6|0,3:2|0:0,0:0:0:0:
268,295,106807,5,6,1:2:0:0:
319,234,106957,2,0,B|347:207|347:207|460:214,1,139.999995727539,0|2,0:0|0:2,0:0:0:0:
478,218,107332,1,2,0:0:0:0:
478,218,107407,2,0,L|482:311,1,69.9999978637696,2|0,1:2|0:0,0:0:0:0:
393,368,107707,2,0,L|397:275,1,69.9999978637696,10|2,0:2|0:2,0:0:0:0:
319,234,108007,5,2,1:2:0:0:
268,295,108157,2,0,P|216:331|133:297,1,139.999995727539,0|2,0:0|0:2,0:0:0:0:
59,336,108607,1,2,1:2:0:0:
59,336,108757,1,2,0:2:0:0:
81,255,108907,2,0,L|66:165,1,69.9999978637696,10|2,0:2|0:2,0:0:0:0:
35,85,109207,6,0,B|77:79|77:79|120:107|120:107|173:102,1,139.999995727539,2|10,1:2|0:2,0:0:0:0:
255,76,109657,1,2,0:2:0:0:
255,76,109732,1,0,0:0:0:0:
255,76,109807,2,0,L|260:-2,1,69.9999978637696,2|0,1:2|0:0,0:0:0:0:
349,85,110107,2,0,L|352:120,3,34.9999989318848,10|2|2|2,0:2|0:0|0:2|0:0,0:0:0:0:
354,151,110407,6,0,L|441:146,1,69.9999978637696,2|0,1:2|0:0,0:0:0:0:
305,244,110707,2,0,L|218:239,1,69.9999978637696,10|2,0:2|0:2,0:0:0:0:
411,292,111007,6,0,L|419:239,2,46.6666652425131,2|2|2,3:2|3:2|3:2,0:0:0:0:
338,338,111307,2,0,L|346:391,2,46.6666652425131,2|2|2,3:2|3:2|3:2,0:0:0:0:
305,244,111607,5,6,1:2:0:0:
234,289,111757,2,0,L|92:282,1,139.999995727539,0|10,0:0|0:2,0:0:0:0:
66,280,112132,1,2,0:0:0:0:
66,280,112207,2,0,P|75:244|92:208,1,69.9999978637696,2|0,1:2|0:0,0:0:0:0:
54,126,112507,2,0,P|45:90|28:54,1,69.9999978637696,10|2,0:2|0:2,0:0:0:0:
137,7,112807,5,2,1:2:0:0:
197,65,112957,2,0,L|182:213,1,139.999995727539,0|2,0:0|0:2,0:0:0:0:
234,289,113407,1,2,1:2:0:0:
234,289,113557,1,2,0:2:0:0:
280,216,113707,2,0,L|289:131,1,69.9999978637696,10|2,0:2|0:2,0:0:0:0:
369,71,114007,6,0,B|350:58|350:58|369:127,2,93.3333304850261,6|2|2,3:2|3:2|3:2,0:0:0:0:
492,155,114607,6,0,B|510:142|510:142|491:211,2,93.3333304850261,6|2|2,3:2|3:2|3:2,0:0:0:0:
396,231,115207,5,6,3:2:0:0:
280,216,115407,1,2,3:2:0:0:
165,202,115607,1,2,3:2:0:0:
106,295,115807,6,0,L|223:310,1,104.999996795654,6|0,3:2|0:0,0:0:0:0:
236,316,116107,2,0,L|282:310,3,34.9999989318848,2|0|0|0,1:2|1:2|1:2|1:2,0:0:0:0:
299,333,116407,6,0,L|398:328,1,100,6|10,1:2|0:2,0:0:0:0:
475,367,116857,1,2,0:2:0:0:
475,367,117007,1,2,1:2:0:0:
469,166,117307,6,0,L|463:106,1,50,10|0,0:2|0:2,0:0:0:0:
394,41,117607,2,0,L|388:101,1,50,2|0,1:2|0:2,0:0:0:0:
312,130,117907,2,0,L|306:70,1,50,10|2,0:2|0:2,0:0:0:0:
231,15,118207,2,0,L|219:135,1,100,2|10,1:2|0:2,0:0:0:0:
33,197,118807,6,0,P|73:196|113:149,1,100,2|10,1:2|0:2,0:0:0:0:
125,79,119257,1,2,0:2:0:0:
125,79,119407,1,2,1:2:0:0:
59,283,119707,6,0,P|85:278|115:266,1,50,10|0,0:2|0:2,0:0:0:0:
174,220,120007,2,0,P|200:225|230:237,1,50,2|0,1:2|0:2,0:0:0:0:
250,315,120307,2,0,P|226:323|201:328,1,50,10|2,0:2|0:2,0:0:0:0:
325,359,120607,2,0,P|376:334|435:325,1,100,2|10,1:2|0:2,0:0:0:0:
473,118,121207,6,0,L|481:183,1,50,6|0,1:2|0:2,0:0:0:0:
384,204,121507,2,0,L|392:139,1,50,10|2,0:2|0:2,0:0:0:0:
287,82,121807,2,0,L|299:181,1,100,2|10,1:2|0:2,0:0:0:0:
151,170,122407,6,0,P|108:166|86:155,1,50,2|0,1:2|0:2,0:0:0:0:
121,72,122707,2,0,P|164:76|186:87,1,50,10|2,0:2|0:2,0:0:0:0:
38,97,123007,2,0,P|34:51|73:-1,1,100,2|10,1:2|0:2,0:0:0:0:
244,142,123607,6,0,L|304:148,1,50,2|0,1:2|1:2,0:0:0:0:
370,213,123907,1,10,1:2:0:0:
370,213,124057,1,2,1:2:0:0:
295,257,124207,2,0,L|288:306,1,50,2|2,1:2|1:2,0:0:0:0:
202,367,124507,2,0,L|195:317,1,50,10|2,1:2|1:2,0:0:0:0:
144,240,124807,6,0,L|115:243,3,25,2|0|2|0,1:2|1:2|1:2|1:2,0:0:0:0:
91,257,125107,2,0,L|62:254,3,25,10|0|2|0,1:2|1:2|1:2|1:2,0:0:0:0:
42,234,125407,1,2,1:2:0:0:
62,24,126007,6,0,B|123:61|115:132|115:132|137:95|193:86,1,200,6|10,1:2|0:2,0:0:0:0:
404,31,127207,2,0,L|421:140,2,100,2|2|10,1:2|3:2|0:2,0:0:0:0:
252,144,128107,1,2,0:2:0:0:
252,144,128407,6,0,P|292:131|341:125,2,75,2|0|2,1:2|3:2|1:2,0:0:0:0:
197,204,129007,2,0,L|211:325,1,100,10|2,0:2|0:2,0:0:0:0:
420,361,129607,6,0,L|404:262,2,100,0|2|8,1:2|3:2|0:2,0:0:0:0:
420,361,130807,6,0,B|395:333|351:322|351:322|321:337|321:337|277:329|250:288,1,200,6|10,1:2|0:2,0:0:0:0:
46,249,132007,6,0,L|57:360,2,100,2|2|10,1:2|3:2|0:2,0:0:0:0:
101,116,132907,1,2,0:2:0:0:
101,116,133207,6,0,P|66:129|11:133,2,75,2|0|2,1:2|3:2|1:2,0:0:0:0:
169,68,133807,2,0,L|291:82,1,100,10|2,0:2|0:2,0:0:0:0:
255,245,134407,6,0,L|155:233,2,100,2|2|8,1:2|3:2|0:2,0:0:0:0:
429,336,135607,5,6,0:2:0:0:
349,354,135757,2,0,P|348:322|357:290,1,50,0|8,0:0|0:2,0:0:0:0:
443,256,136057,2,0,P|496:283|512:328,2,100
366,223,136807,5,2,0:2:0:0:
344,142,136957,2,0,L|353:80,1,50,2|10,0:2|0:2,0:0:0:0:
446,64,137257,2,0,L|424:182,2,100,2|0|0,0:2|0:0|0:2,0:0:0:0:
361,12,138007,5,2,0:2:0:0:
283,46,138157,2,0,P|259:38|236:25,1,50,0|10,0:2|0:2,0:0:0:0:
170,82,138457,2,0,L|178:203,2,100,2|0|0,0:2|0:2|0:2,0:0:0:0:
81,56,139207,5,2,0:2:0:0:
46,134,139357,2,0,L|50:191,1,50,2|10,0:2|0:2,0:0:0:0:
66,279,139657,2,0,P|107:257|164:279,2,100,2|2|0,0:2|0:2|0:0,0:0:0:0:
196,357,140407,5,6,3:2:0:0:
249,278,140557,2,0,L|239:207,1,55.0000016784668,0|8,1:2|0:2,0:0:0:0:
337,303,140857,2,0,L|327:232,1,55.0000016784668,0|2,0:0|0:2,0:0:0:0:
425,328,141157,2,0,L|415:257,1,55.0000016784668,0|8,0:0|0:2,0:0:0:0:
445,200,141457,1,0,1:2:0:0:
475,128,141607,5,6,3:2:0:0:
475,128,141757,2,0,L|467:73,1,55.0000016784668,2|10,1:2|0:2,0:0:0:0:
387,103,142057,2,0,L|379:48,1,55.0000016784668,2|2,0:2|0:2,0:0:0:0:
299,78,142357,2,0,L|291:23,1,55.0000016784668,0|10,0:0|0:2,0:0:0:0:
205,20,142657,5,0,1:2:0:0:
199,102,142807,1,6,3:2:0:0:
199,102,142957,2,0,L|192:175,1,59.9999981689454,0|10,1:2|0:2,0:0:0:0:
108,58,143257,5,2,3:2:0:0:
102,140,143407,1,6,1:2:0:0:
102,140,143557,2,0,L|95:213,1,59.9999981689454,0|2,1:2|3:2,0:0:0:0:
188,251,143857,1,0,1:2:0:0:
93,315,144007,6,0,B|57:285|18:288|18:288|84:266|137:303|105:318|170:368|246:321,1,320,6|6,1:2|0:2,0:0:0:0:
236,151,159607,5,6,1:2:0:0:
77,20,160657,5,4,1:2:0:0:
77,20,160807,1,6,1:2:0:0:
183,326,161857,5,6,1:2:0:0:
183,326,162007,1,6,1:2:0:0:
462,212,162607,1,4,1:2:0:0:
187,206,163207,5,6,1:2:0:0:
357,132,163507,1,4,1:2:0:0:
188,69,163807,5,6,1:2:0:0:
16,13,164107,2,0,L|25:121,1,100,4|2,1:2|1:2,0:0:0:0:
24,112,164707,6,0,B|63:130|63:130|71:190,1,85.0000016212464,6|0,1:2|0:2,0:0:0:0:
154,233,165007,2,0,B|161:192|161:192|203:168,1,85.0000016212464,10|2,0:2|0:2,0:0:0:0:
278,238,165307,2,0,B|329:259|343:292|343:292|336:351,2,127.50000243187,2|2|0,1:2|0:2|0:2,0:0:0:0:
347,181,165907,5,2,1:2:0:0:
347,181,166057,1,0,0:2:0:0:
378,103,166207,2,0,B|380:58|380:58|368:8,1,85.0000016212464,10|2,0:2|0:2,0:0:0:0:
476,36,166507,2,0,B|484:78|484:78|479:95|467:112|467:112|458:162,2,127.50000243187,2|2|0,1:2|0:2|0:2,0:0:0:0:
370,19,167107,6,0,P|318:25|288:48,1,85.0000016212464,2|0,1:2|0:2,0:0:0:0:
235,108,167407,2,0,P|199:73|150:63,1,85.0000016212464,10|2,0:2|0:2,0:0:0:0:
81,96,167707,5,2,1:2:0:0:
36,199,167932,1,2,0:2:0:0:
102,287,168157,1,2,0:2:0:0:
169,245,168307,6,0,B|197:220|236:237|236:237|247:274|289:278,2,127.50000243187,2|2|2,1:2|0:2|0:2,0:0:0:0:
312,206,168907,6,0,L|328:145,2,56.6666677474976,2|0|0,3:2|3:2|3:2,0:0:0:0:
355,277,169207,2,0,L|366:344,2,56.6666677474976,2|0|0,3:2|3:2|3:2,0:0:0:0:
429,243,169507,5,6,1:2:0:0:
429,243,169657,1,0,0:2:0:0:
508,215,169807,2,0,B|509:178|509:178|513:166|513:166|514:113,1,85.0000016212464,10|0,0:2|0:2,0:0:0:0:
402,32,170107,2,0,B|431:68|431:68|426:117,1,85.0000016212464,2|2,1:2|0:2,0:0:0:0:
341,136,170407,2,0,B|311:99|311:99|316:50,1,85.0000016212464,10|0,0:2|0:2,0:0:0:0:
237,1,170707,5,2,1:2:0:0:
237,1,170857,1,0,0:2:0:0:
165,44,171007,1,10,0:2:0:0:
165,44,171157,1,2,0:2:0:0:
79,39,171307,2,0,B|99:93|72:84|87:144,1,85.0000016212464,2|0,1:2|0:2,0:0:0:0:
151,175,171607,2,0,B|135:212|155:221|139:263,1,85.0000016212464,10|0,0:2|0:2,0:0:0:0:
106,337,171907,5,2,1:2:0:0:
179,378,172057,2,0,B|246:367|246:367|275:379|275:379|349:362,2,170.000003242493,2|2|2,0:2|0:2|0:2,0:0:0:0:
83,345,172807,2,0,B|74:308|74:308|75:293|75:293|65:255,1,85.0000016212464,10|2,0:2|0:2,0:0:0:0:
39,183,173107,5,6,1:2:0:0:
100,79,173332,1,2,3:2:0:0:
216,109,173557,1,2,1:2:0:0:
246,184,173707,6,0,P|296:181|340:167,1,85.0000016212464,6|0,1:2|3:2,0:0:0:0:
401,111,174007,2,0,L|454:125,3,42.5000008106232,8|2|0|0,0:2|0:0|1:2|1:2,0:0:0:0:
481,133,174307,6,0,B|468:162|468:162|476:245,1,85.0000016212464,6|0,1:2|0:2,0:0:0:0:
418,313,174607,2,0,B|399:287|399:287|391:204,1,85.0000016212464,10|2,0:2|0:2,0:0:0:0:
329,168,174907,2,0,P|288:187|318:266,2,127.50000243187,2|2|0,1:2|0:2|0:2,0:0:0:0:
340,78,175507,6,0,B|292:79|306:56|245:63,1,85.0000016212464,2|0,1:2|0:2,0:0:0:0:
184,107,175807,2,0,B|144:107|133:132|87:126,1,85.0000016212464,10|2,0:2|0:2,0:0:0:0:
32,174,176107,2,0,B|-9:128|53:91|7:54,2,127.50000243187,2|2|0,1:2|0:2|0:2,0:0:0:0:
89,243,176707,5,2,1:2:0:0:
89,243,176857,1,0,0:2:0:0:
68,325,177007,1,10,0:2:0:0:
68,325,177157,1,2,0:2:0:0:
142,353,177307,2,0,B|177:358|201:331|201:331|205:366|247:384,2,127.50000243187,2|2|2,1:2|0:2|0:2,0:0:0:0:
279,293,177907,5,2,1:2:0:0:
251,182,178132,1,2,0:2:0:0:
336,119,178357,1,2,0:2:0:0:
405,155,178507,6,0,L|394:219,2,56.6666677474976,2|0|0,3:2|3:2|3:2,0:0:0:0:
466,99,178807,2,0,L|461:38,2,56.6666677474976,2|0|0,3:2|3:2|3:2,0:0:0:0:
512,177,179107,6,0,B|488:210|488:210|495:269,1,85.0000016212464,6|0,1:2|0:2,0:0:0:0:
434,327,179407,2,0,B|396:307|396:307|343:319,1,85.0000016212464,10|0,0:2|0:2,0:0:0:0:
270,289,179707,1,2,1:2:0:0:
270,289,179857,1,2,0:2:0:0:
201,334,180007,1,10,0:2:0:0:
201,334,180157,1,0,0:2:0:0:
129,280,180307,6,0,B|119:263|121:239|121:239|141:192,1,85.0000016212464,2|0,1:2|0:2,0:0:0:0:
211,152,180607,2,0,P|189:109|185:70,1,85.0000016212464,10|2,0:2|0:2,0:0:0:0:
248,18,180907,1,2,1:2:0:0:
248,18,181057,1,0,0:2:0:0:
328,43,181207,1,10,0:2:0:0:
328,43,181357,1,2,0:2:0:0:
415,7,181507,6,0,B|403:38|403:38|409:89|366:112|366:112|347:162|405:167|379:243,2,255.000004863739,2|2|10,1:2|0:2|0:2,0:0:0:0:
483,146,182707,5,6,1:2:0:0:
512,249,182932,1,2,3:2:0:0:
458,336,183157,1,2,1:2:0:0:
391,290,183307,6,0,B|349:271|349:271|311:283,1,85.0000016212464,6|0,1:2|1:2,0:0:0:0:
283,302,183532,1,0,1:2:0:0:
283,302,183607,2,0,L|305:391,1,85.0000016212464,0|0,1:2|1:2,0:0:0:0:
193,326,183907,5,6,1:2:0:0:
123,383,184053,2,0,B|96:356|96:356|110:242,1,139.999995727539,0|2,0:0|0:2,0:0:0:0:
124,230,184419,1,2,0:0:0:0:
124,230,184492,2,0,L|116:143,1,69.9999978637696,2|0,1:2|0:0,0:0:0:0:
57,78,184785,2,0,L|17:74,3,34.9999989318848,10|0|2|0,0:2|0:0|0:2|0:0,0:0:0:0:
79,56,185077,6,0,L|170:47,1,69.9999978637696,2|0,1:2|0:0,0:0:0:0:
227,89,185370,2,0,L|318:98,1,69.9999978637696,10|2,0:2|0:2,0:0:0:0:
331,88,185589,1,2,0:0:0:0:
331,87,185663,2,0,P|323:52|312:-1,1,69.9999978637696,2|2,1:2|0:2,0:0:0:0:
441,1,185955,2,0,P|433:36|422:89,1,69.9999978637696,10|2,0:2|0:2,0:0:0:0:
401,152,186248,5,2,1:2:0:0:
465,216,186394,2,0,B|430:243|430:243|329:234,1,139.999995727539,0|2,0:0|0:2,0:0:0:0:
305,240,186760,1,0,0:0:0:0:
305,240,186833,2,0,L|316:316,1,69.9999978637696,2|0,1:2|0:0,0:0:0:0:
204,251,187126,2,0,L|214:193,3,34.9999989318848,10|2|2|2,0:2|0:0|0:2|0:0,0:0:0:0:
214,189,187419,6,0,L|139:180,1,69.9999978637696,2|0,1:2|0:0,0:0:0:0:
259,103,187711,2,0,L|334:94,1,69.9999978637696,10|2,0:2|0:2,0:0:0:0:
189,45,188004,6,0,L|177:-20,2,46.6666652425131,2|2|2,3:2|3:2|3:2,0:0:0:0:
136,104,188297,1,0,3:2:0:0:
39,259,188589,5,6,1:2:0:0:
77,188,188731,2,0,B|116:195|116:195|138:312,1,139.999995727539,0|2,0:0|0:2,0:0:0:0:
147,325,189089,1,2,0:0:0:0:
147,325,189160,2,0,P|181:308|218:300,1,69.9999978637696,2|0,1:2|0:0,0:0:0:0:
301,332,189446,2,0,P|318:340|336:344,3,34.9999989318848,10|0|2|0,0:2|0:0|0:2|0:0,0:0:0:0:
364,348,189731,6,0,L|453:342,1,69.9999978637696,2|0,1:2|0:0,0:0:0:0:
497,252,190017,2,0,L|413:245,1,69.9999978637696,10|2,0:2|0:2,0:0:0:0:
396,251,190231,1,2,0:0:0:0:
396,251,190303,2,0,P|393:214|404:180,1,69.9999978637696,2|2,1:2|0:2,0:0:0:0:
361,105,190589,1,10,0:2:0:0:
361,105,190731,1,2,0:2:0:0:
439,56,190874,6,0,B|443:41|440:27|440:27|480:31|517:14,2,93.3333304850261,6|2|2,3:2|3:2|3:2,0:0:0:0:
342,96,191446,6,0,B|318:84|278:88|278:88|281:74|277:59,2,93.3333304850261,6|2|2,3:2|3:2|3:2,0:0:0:0:
434,147,192017,6,0,B|511:90|568:192|504:265|378:259|369:206|359:157|279:161|238:197,1,400,6|2,1:2|0:2,0:0:0:0:
470,346,193439,5,14,0:2:0:0:
402,300,193578,2,0,B|344:317|344:317|307:298|255:309,1,150.000005722046,0|0,0:2|0:2,0:0:0:0:
185,355,193997,2,0,L|105:350,1,75.0000028610231,8|2,0:2|0:2,0:0:0:0:
37,307,194276,5,2,1:2:0:0:
37,307,194415,1,0,0:2:0:0:
93,247,194555,1,10,0:2:0:0:
93,247,194694,1,2,0:2:0:0:
41,179,194833,2,0,L|55:15,1,150.000005722046,2|10,1:2|0:2,0:0:0:0:
135,62,195253,1,0,0:0:0:0:
231,1,195392,6,0,B|215:51|215:51|258:82|258:145,1,150.000005722046,2|10,1:2|0:2,0:0:0:0:
332,189,195811,2,0,B|368:151|359:99|359:99|406:74,1,150.000005722046,0|0,0:2|0:2,0:0:0:0:
482,130,196229,2,0,L|491:209,1,75.0000028610231,10|2,0:2|0:2,0:0:0:0:
436,277,196508,5,2,1:2:0:0:
436,277,196648,1,2,0:2:0:0:
460,358,196787,1,10,0:2:0:0:
460,358,196927,1,2,0:2:0:0:
377,339,197066,6,0,L|310:335,2,50.0000019073487,2|0|0,3:2|3:2|3:2,0:0:0:0:
244,356,197346,2,0,L|248:289,2,50.0000019073487,0|0|0,3:2|3:2|3:2,0:0:0:0:
288,242,197625,6,0,L|281:164,1,75.0000028610231,6|0,1:2|0:0,0:0:0:0:
222,95,197904,2,0,L|229:17,1,75.0000028610231,10|0,0:2|0:2,0:0:0:0:
172,170,198183,2,0,B|112:150|71:182|71:182|52:242,1,150.000005722046,2|10,1:2|0:2,0:0:0:0:
4,295,198601,1,2,0:2:0:0:
76,361,198741,6,0,L|154:352,1,75.0000028610231,2|0,1:2|0:2,0:0:0:0:
213,284,199020,2,0,L|291:293,1,75.0000028610231,10|2,0:2|0:2,0:0:0:0:
365,345,199299,2,0,B|407:378|407:378|446:381|471:363|486:330,1,150.000005722046,2|10,1:2|0:2,0:0:0:0:
488,246,199718,1,0,3:2:0:0:
398,218,199857,6,0,B|379:185|344:179|344:179|314:198,2,100.000003814697,6|2|2,1:2|0:2|0:2,0:0:0:0:
432,111,200415,6,0,B|451:78|486:72|486:72|516:91,2,100.000003814697,6|2|2,3:2|3:2|3:2,0:0:0:0:
354,58,200973,5,6,3:2:0:0:
240,34,201160,1,2,3:2:0:0:
277,145,201346,1,2,3:2:0:0:
163,121,201532,6,0,B|133:113|110:129|123:133|96:150|67:140,1,100,6|0,3:2|0:0,0:0:0:0:
33,247,202090,6,0,L|114:244,1,75.0000028610231,6|0,1:2|0:0,0:0:0:0:
180,300,202362,2,0,L|261:303,1,75.0000028610231,8|0,0:2|0:0,0:0:0:0:
331,258,202635,1,0,1:2:0:0:
331,258,202771,1,0,0:0:0:0:
405,306,202908,2,0,P|374:343|367:374,1,75.0000028610231,10|2,0:2|0:2,0:0:0:0:
494,293,203180,6,0,B|496:238|465:212|465:212|437:192|432:153,1,150.000005722046,2|8,1:2|0:2,0:0:0:0:
496,103,203590,1,0,0:0:0:0:
450,33,203726,2,0,B|407:39|407:39|384:5|337:-9|288:20,1,150.000005722046,2|8,1:2|0:2,0:0:0:0:
257,71,204135,1,0,0:0:0:0:
177,32,204271,6,0,P|128:48|93:65,1,75.0000028610231,2|0,1:2|0:0,0:0:0:0:
49,134,204544,2,0,P|98:150|133:167,1,75.0000028610231,8|0,0:2|0:0,0:0:0:0:
189,216,204817,2,0,B|228:228|267:205|245:185|283:157|330:170,1,150.000005722046,0|10,1:2|0:2,0:0:0:0:
392,215,205226,1,2,0:2:0:0:
450,278,205362,6,0,P|409:299|363:294,1,75.0000028610231,2|0,1:2|0:0,0:0:0:0:
305,353,205635,2,0,P|264:332|218:337,1,75.0000028610231,10|0,0:2|0:0,0:0:0:0:
144,379,205908,6,0,L|136:320,2,50.0000019073487,2|0|0,3:2|0:0|0:0,0:0:0:0:
69,280,206180,2,0,L|77:221,2,50.0000019073487,2|2|2,3:2|3:2|3:2,0:0:0:0:
141,176,206453,6,0,B|108:107|108:107|129:29,1,150.000005722046,4|8,1:2|0:2,0:0:0:0:
222,64,206892,1,0,0:0:0:0:
222,64,207038,2,0,P|266:50|297:29,1,75.0000028610231,0|0,1:2|0:0,0:0:0:0:
375,75,207331,2,0,P|419:89|450:110,1,75.0000028610231,10|2,0:2|0:2,0:0:0:0:
474,203,207623,6,0,B|434:182|434:182|328:195,1,139.999995727539,2|8,1:2|0:2,0:0:0:0:
273,253,208096,1,0,0:0:0:0:
356,287,208254,2,0,L|437:277,1,69.9999978637696,2|0,1:2|0:0,0:0:0:0:
299,354,208570,1,8,0:2:0:0:
299,354,208728,1,0,0:0:0:0:
203,309,208886,6,0,B|160:300|160:300|120:337,2,86.6666626993817,6|0|0,1:2|3:2|1:2,0:0:0:0:
294,184,209571,6,0,B|331:176|331:176|367:208,2,86.6666626993817,6|0|0,3:2|3:2|3:2,0:0:0:0:
228,87,210321,6,0,B|187:78|187:78|149:113,2,79.9999975585938,6|2|2,3:2|3:2|3:2,0:0:0:0:
256,0,211121,5,4,0:2:0:0:
