osu file format v14

[General]
AudioFilename: audio.mp3
AudioLeadIn: 0
PreviewTime: 67957
Countdown: 0
SampleSet: Soft
StackLeniency: 0.7
Mode: 0
LetterboxInBreaks: 0
WidescreenStoryboard: 1

[Editor]
Bookmarks: 116407,125707,135607
DistanceSpacing: 1.2
BeatDivisor: 4
GridSize: 16
TimelineZoom: 2.899999

[Metadata]
Title:Kakuzetsu Thanatos
TitleUnicode:隔絶≡タナトス
Artist:Rohi
ArtistUnicode:ろひ
Creator:Nevo
Version:Collab Extra
Source:osu!
Tags:fa featured artist vocaloid japanese rock electronic yumerios arc [arc] aistre alphabet squishi Flowziee Kakuzetsu=Thanatos venax
BeatmapID:2722864
BeatmapSetID:1151959

[Difficulty]
HPDrainRate:5.4
CircleSize:4
OverallDifficulty:9
ApproachRate:9.2
SliderMultiplier:1.7
SliderTickRate:1

[Events]
//Background and Video events
0,0,"osubg.jpg",0,0
Video,32,"kakuzetsu video.mp4"
//Break Periods
2,87807,96637
//Storyboard Layer 0 (Background)
//Storyboard Layer 1 (Fail)
//Storyboard Layer 2 (Pass)
//Storyboard Layer 3 (Foreground)
//Storyboard Layer 4 (Overlay)
//Storyboard Sound Samples

[TimingPoints]
7,300,4,2,1,40,1,0
907,-181.818181818181,4,2,1,40,0,0
1657,-181.818181818181,4,2,1,40,0,0
1807,-181.818181818181,4,2,1,40,0,0
2857,-181.818181818181,4,2,1,40,0,0
3007,-181.818181818181,4,2,1,40,0,0
4057,-181.818181818181,4,2,1,40,0,0
4207,-181.818181818181,4,2,1,40,0,0
6157,-181.818181818181,4,2,1,40,0,0
7207,-181.818181818181,4,2,1,40,0,0
7357,-181.818181818181,4,2,1,40,0,0
8407,-181.818181818181,4,2,1,40,0,0
10807,-86.9565217391303,4,2,1,70,0,0
10957,-86.9565217391303,4,2,1,70,0,0
11107,-86.9565217391303,4,2,1,70,0,0
11182,-86.9565217391303,4,2,1,70,0,0
11257,-86.9565217391303,4,2,1,70,0,0
11332,-86.9565217391303,4,2,1,70,0,0
11407,-86.9565217391303,4,2,1,70,0,0
11557,-86.9565217391303,4,2,1,70,0,0
11707,-86.9565217391303,4,2,1,70,0,0
11782,-86.9565217391303,4,2,1,70,0,0
11857,-86.9565217391303,4,2,1,70,0,0
11932,-86.9565217391303,4,2,1,70,0,0
12007,-86.9565217391303,4,2,1,70,0,0
12157,-86.9565217391303,4,2,1,70,0,0
12307,-86.9565217391303,4,2,1,70,0,0
12382,-86.9565217391303,4,2,1,70,0,0
12457,-86.9565217391303,4,2,1,70,0,0
12532,-86.9565217391303,4,2,1,70,0,0
12607,-86.9565217391303,4,2,1,70,0,0
13357,-86.9565217391303,4,2,1,70,0,0
13507,-86.9565217391303,4,2,1,70,0,0
13582,-86.9565217391303,4,2,1,70,0,0
13657,-86.9565217391303,4,2,1,70,0,0
13732,-86.9565217391303,4,2,1,70,0,0
13807,-86.9565217391303,4,2,1,70,0,0
13957,-86.9565217391303,4,2,1,70,0,0
14107,-86.9565217391303,4,2,1,70,0,0
14182,-86.9565217391303,4,2,1,70,0,0
14257,-86.9565217391303,4,2,1,70,0,0
14332,-86.9565217391303,4,2,1,70,0,0
14407,-86.9565217391303,4,2,1,70,0,0
14557,-86.9565217391303,4,2,1,70,0,0
14707,-86.9565217391303,4,2,1,70,0,0
14782,-86.9565217391303,4,2,1,70,0,0
14857,-86.9565217391303,4,2,1,70,0,0
14932,-86.9565217391303,4,2,1,70,0,0
15007,-86.9565217391303,4,2,1,70,0,0
15757,-86.9565217391303,4,2,1,70,0,0
15907,-86.9565217391303,4,2,1,70,0,0
15982,-86.9565217391303,4,2,1,70,0,0
16057,-86.9565217391303,4,2,1,70,0,0
16132,-86.9565217391303,4,2,1,70,0,0
16207,-86.9565217391303,4,2,1,70,0,0
16357,-86.9565217391303,4,2,1,70,0,0
16507,-86.9565217391303,4,2,1,70,0,0
16582,-86.9565217391303,4,2,1,70,0,0
16657,-86.9565217391303,4,2,1,70,0,0
16732,-86.9565217391303,4,2,1,70,0,0
16807,-86.9565217391303,4,2,1,70,0,0
16957,-86.9565217391303,4,2,1,70,0,0
17107,-86.9565217391303,4,2,1,70,0,0
17182,-86.9565217391303,4,2,1,70,0,0
17257,-86.9565217391303,4,2,1,70,0,0
17332,-86.9565217391303,4,2,1,70,0,0
17407,-86.9565217391303,4,2,1,70,0,0
19807,-181.818181818182,4,2,1,70,0,0
20107,-100,4,2,1,60,0,0
30007,-100,4,2,1,70,0,0
30157,-100,4,2,1,70,0,0
30307,-100,4,2,1,70,0,0
30382,-100,4,2,1,70,0,0
30457,-100,4,2,1,70,0,0
30532,-100,4,2,1,70,0,0
30607,-100,4,2,1,70,0,0
30757,-100,4,2,1,70,0,0
30907,-100,4,2,1,70,0,0
30982,-100,4,2,1,70,0,0
31057,-100,4,2,1,70,0,0
31132,-100,4,2,1,70,0,0
31207,-100,4,2,1,70,0,0
31357,-100,4,2,1,70,0,0
31507,-100,4,2,1,70,0,0
31582,-100,4,2,1,70,0,0
31657,-100,4,2,1,70,0,0
31732,-100,4,2,1,70,0,0
31807,-100,4,2,1,70,0,0
32557,-100,4,2,1,70,0,0
32707,-100,4,2,1,70,0,0
32782,-100,4,2,1,70,0,0
32857,-100,4,2,1,70,0,0
32932,-100,4,2,1,70,0,0
33007,-100,4,2,1,70,0,0
33157,-100,4,2,1,70,0,0
33307,-100,4,2,1,70,0,0
33382,-100,4,2,1,70,0,0
33457,-100,4,2,1,70,0,0
33532,-100,4,2,1,70,0,0
33607,-100,4,2,1,70,0,0
33757,-100,4,2,1,70,0,0
33907,-100,4,2,1,70,0,0
33982,-100,4,2,1,70,0,0
34057,-100,4,2,1,70,0,0
34132,-100,4,2,1,70,0,0
34207,-100,4,2,1,70,0,0
34957,-100,4,2,1,70,0,0
35107,-100,4,2,1,70,0,0
35182,-100,4,2,1,70,0,0
35257,-100,4,2,1,70,0,0
35332,-100,4,2,1,70,0,0
35407,-100,4,2,1,70,0,0
35557,-100,4,2,1,70,0,0
35707,-100,4,2,1,70,0,0
35782,-100,4,2,1,70,0,0
35857,-100,4,2,1,70,0,0
35932,-100,4,2,1,70,0,0
36007,-100,4,2,1,70,0,0
36157,-100,4,2,1,70,0,0
36307,-100,4,2,1,70,0,0
36382,-100,4,2,1,70,0,0
36457,-100,4,2,1,70,0,0
36532,-100,4,2,1,70,0,0
36607,-100,4,2,1,70,0,0
39607,-133.333333333333,4,2,1,60,0,0
48907,-181.818181818181,4,2,1,60,0,0
49207,-133.333333333333,4,2,1,60,0,0
58807,-133.333333333333,4,2,1,50,0,0
58957,-133.333333333333,4,2,1,50,0,0
59107,-133.333333333333,4,2,1,50,0,0
59257,-133.333333333333,4,2,1,50,0,0
59407,-133.333333333333,4,2,1,50,0,0
59557,-133.333333333333,4,2,1,50,0,0
59707,-133.333333333333,4,2,1,50,0,0
59857,-133.333333333333,4,2,1,50,0,0
60007,-133.333333333333,4,2,1,50,0,0
63607,-133.333333333333,4,2,1,60,0,0
67207,-222.222222222221,4,2,1,40,0,0
68107,-100,4,2,1,60,0,0
68407,-83.3333333333333,4,2,1,80,0,1
68631,-83.3333333333333,4,2,1,80,0,1
68707,-83.3333333333333,4,2,1,80,0,1
69081,-83.3333333333333,4,2,1,80,0,1
69232,-83.3333333333333,4,2,1,80,0,1
70281,-83.3333333333333,4,2,1,80,0,1
70432,-83.3333333333333,4,2,1,80,0,1
77482,-83.3333333333333,4,2,1,80,0,1
77557,-83.3333333333333,4,2,1,80,0,1
77782,-83.3333333333333,4,2,1,80,0,1
77857,-83.3333333333333,4,2,1,80,0,1
78756,-83.3333333333333,4,2,1,80,0,1
78907,-83.3333333333333,4,2,1,80,0,1
81156,-83.3333333333333,4,2,1,80,0,1
81232,-83.3333333333333,4,2,1,80,0,1
81381,-83.3333333333333,4,2,1,80,0,1
81457,-83.3333333333333,4,2,1,80,0,1
81756,-83.3333333333333,4,2,1,80,0,1
81907,-83.3333333333333,4,2,1,80,0,1
85956,-83.3333333333333,4,2,1,80,0,1
86107,-83.3333333333333,4,2,1,80,0,1
86256,-83.3333333333333,4,2,1,80,0,1
86407,-83.3333333333333,4,2,1,80,0,1
87607,-83.3333333333333,4,2,1,70,0,0
97207,-133.333333333333,4,2,1,60,0,0
97507,-100,4,2,1,60,0,0
106807,-90.9090909090909,4,2,1,70,0,0
106957,-90.9090909090909,4,2,1,70,0,0
107107,-90.9090909090909,4,2,1,70,0,0
107182,-90.9090909090909,4,2,1,70,0,0
107257,-90.9090909090909,4,2,1,70,0,0
107332,-90.9090909090909,4,2,1,70,0,0
107407,-90.9090909090909,4,2,1,70,0,0
107557,-90.9090909090909,4,2,1,70,0,0
107707,-90.9090909090909,4,2,1,70,0,0
107782,-90.9090909090909,4,2,1,70,0,0
107857,-90.9090909090909,4,2,1,70,0,0
107932,-90.9090909090909,4,2,1,70,0,0
108007,-90.9090909090909,4,2,1,70,0,0
108157,-90.9090909090909,4,2,1,70,0,0
108307,-90.9090909090909,4,2,1,70,0,0
108382,-90.9090909090909,4,2,1,70,0,0
108457,-90.9090909090909,4,2,1,70,0,0
108532,-90.9090909090909,4,2,1,70,0,0
108607,-90.9090909090909,4,2,1,70,0,0
109357,-90.9090909090909,4,2,1,70,0,0
109507,-90.9090909090909,4,2,1,70,0,0
109582,-90.9090909090909,4,2,1,70,0,0
109657,-90.9090909090909,4,2,1,70,0,0
109732,-90.9090909090909,4,2,1,70,0,0
109807,-90.9090909090909,4,2,1,70,0,0
109957,-90.9090909090909,4,2,1,70,0,0
110107,-90.9090909090909,4,2,1,70,0,0
110182,-90.9090909090909,4,2,1,70,0,0
110257,-90.9090909090909,4,2,1,70,0,0
110332,-90.9090909090909,4,2,1,70,0,0
110407,-90.9090909090909,4,2,1,70,0,0
110557,-90.9090909090909,4,2,1,70,0,0
110707,-90.9090909090909,4,2,1,70,0,0
110782,-90.9090909090909,4,2,1,70,0,0
110857,-90.9090909090909,4,2,1,70,0,0
110932,-90.9090909090909,4,2,1,70,0,0
111007,-90.9090909090909,4,2,1,70,0,0
111757,-90.9090909090909,4,2,1,70,0,0
111907,-90.9090909090909,4,2,1,70,0,0
111982,-90.9090909090909,4,2,1,70,0,0
112057,-90.9090909090909,4,2,1,70,0,0
112132,-90.9090909090909,4,2,1,70,0,0
112207,-90.9090909090909,4,2,1,70,0,0
112357,-90.9090909090909,4,2,1,70,0,0
112507,-90.9090909090909,4,2,1,70,0,0
112582,-90.9090909090909,4,2,1,70,0,0
112657,-90.9090909090909,4,2,1,70,0,0
112732,-90.9090909090909,4,2,1,70,0,0
112807,-90.9090909090909,4,2,1,70,0,0
112957,-90.9090909090909,4,2,1,70,0,0
113107,-90.9090909090909,4,2,1,70,0,0
113182,-90.9090909090909,4,2,1,70,0,0
113257,-90.9090909090909,4,2,1,70,0,0
113332,-90.9090909090909,4,2,1,70,0,0
113407,-90.9090909090909,4,2,1,70,0,0
116407,-100,4,2,1,60,0,0
117232,-100,4,2,1,5,0,0
117307,-100,4,2,1,60,0,0
118432,-100,4,2,1,5,0,0
118507,-100,4,2,1,60,0,0
119632,-100,4,2,1,5,0,0
119707,-100,4,2,1,60,0,0
122032,-100,4,2,1,5,0,0
122107,-100,4,2,1,60,0,0
123232,-100,4,2,1,5,0,0
123307,-100,4,2,1,60,0,0
125707,-133.333333333333,4,2,1,60,0,0
135607,-100,4,2,1,50,0,0
135757,-100,4,2,1,50,0,0
135907,-100,4,2,1,50,0,0
136057,-100,4,2,1,50,0,0
136207,-100,4,2,1,50,0,0
136282,-100,4,2,1,50,0,0
136507,-100,4,2,1,50,0,0
136582,-100,4,2,1,50,0,0
136807,-100,4,2,1,50,0,0
137032,-100,4,2,1,50,0,0
137107,-100,4,2,1,50,0,0
137332,-100,4,2,1,50,0,0
137407,-100,4,2,1,50,0,0
137482,-100,4,2,1,50,0,0
137707,-100,4,2,1,50,0,0
137782,-100,4,2,1,50,0,0
137857,-100,4,2,1,50,0,0
137932,-100,4,2,1,50,0,0
138007,-100,4,2,1,50,0,0
138232,-100,4,2,1,50,0,0
138307,-100,4,2,1,50,0,0
138532,-100,4,2,1,50,0,0
138607,-100,4,2,1,50,0,0
139807,-100,4,2,1,50,0,0
139957,-100,4,2,1,50,0,0
140257,-100,4,2,1,50,0,0
140407,-100,4,2,1,50,0,0
140857,-100,4,2,1,50,0,0
141007,-100,4,2,1,50,0,0
141157,-100,4,2,1,50,0,0
141307,-100,4,2,1,50,0,0
141382,-100,4,2,1,50,0,0
141457,-100,4,2,1,50,0,0
141532,-100,4,2,1,50,0,0
141607,-100,4,2,1,50,0,0
142132,-100,4,2,1,50,0,0
142207,-100,4,2,1,50,0,0
142282,-100,4,2,1,50,0,0
142507,-100,4,2,1,50,0,0
142582,-100,4,2,1,50,0,0
142657,-100,4,2,1,50,0,0
142732,-100,4,2,1,50,0,0
142807,-100,4,2,1,50,0,0
143332,-100,4,2,1,50,0,0
143407,-100,4,2,1,50,0,0
144007,-400,4,2,1,50,0,0
144907,-200,4,2,1,50,0,0
145207,-200,4,2,1,50,0,0
145657,-200,4,2,1,50,0,0
145807,-200,4,2,1,50,0,0
146857,-200,4,2,1,50,0,0
147007,-200,4,2,1,50,0,0
148057,-200,4,2,1,50,0,0
148207,-200,4,2,1,50,0,0
149557,-200,4,2,1,50,0,0
149707,-200,4,2,1,50,0,0
149857,-200,4,2,1,50,0,0
150007,-200,4,2,1,50,0,0
152707,-200,4,2,1,50,0,0
152857,-200,4,2,1,50,0,0
153157,-200,4,2,1,50,0,0
153307,-200,4,2,1,50,0,0
153457,-200,4,2,1,50,0,0
153607,-200,4,2,1,50,0,0
154807,-133.333333333333,4,2,1,50,0,0
155257,-133.333333333333,4,2,1,50,0,0
155407,-133.333333333333,4,2,1,50,0,0
155557,-133.333333333333,4,2,1,50,0,0
155857,-133.333333333333,4,2,1,50,0,0
156457,-133.333333333333,4,2,1,50,0,0
156607,-133.333333333333,4,2,1,50,0,0
156757,-133.333333333333,4,2,1,50,0,0
157057,-133.333333333333,4,2,1,50,0,0
157657,-133.333333333333,4,2,1,50,0,0
157807,-133.333333333333,4,2,1,50,0,0
157957,-133.333333333333,4,2,1,50,0,0
158257,-133.333333333333,4,2,1,50,0,0
159157,-133.333333333333,4,2,1,50,0,0
159307,-133.333333333333,4,2,1,50,0,0
159457,-133.333333333333,4,2,1,50,0,0
159607,-100,4,2,1,50,0,0
164407,-200,4,2,1,50,0,0
164632,-200,4,2,1,50,0,0
164707,300,4,2,1,80,1,1
164707,-83.3333333333333,4,2,1,80,0,1
165456,-83.3333333333333,4,2,1,80,0,1
165532,-83.3333333333333,4,2,1,80,0,1
165681,-83.3333333333333,4,2,1,80,0,1
165757,-83.3333333333333,4,2,1,80,0,1
165831,-83.3333333333333,4,2,1,80,0,1
165907,-83.3333333333333,4,2,1,80,0,1
166656,-83.3333333333333,4,2,1,80,0,1
166732,-83.3333333333333,4,2,1,80,0,1
166882,-83.3333333333333,4,2,1,80,0,1
166957,-83.3333333333333,4,2,1,80,0,1
167031,-83.3333333333333,4,2,1,80,0,1
167107,-83.3333333333333,4,2,1,80,0,1
167856,-83.3333333333333,4,2,1,80,0,1
167932,-83.3333333333333,4,2,1,80,0,1
168081,-83.3333333333333,4,2,1,80,0,1
168157,-83.3333333333333,4,2,1,80,0,1
168231,-83.3333333333333,4,2,1,80,0,1
168307,-83.3333333333333,4,2,1,80,0,1
168456,-83.3333333333333,4,2,1,80,0,1
168532,-83.3333333333333,4,2,1,80,0,1
168832,-83.3333333333333,4,2,1,80,0,1
168907,-83.3333333333333,4,2,1,80,0,1
169732,-83.3333333333333,4,2,1,80,0,1
169807,-83.3333333333333,4,2,1,80,0,1
169881,-83.3333333333333,4,2,1,80,0,1
169957,-83.3333333333333,4,2,1,80,0,1
170031,-83.3333333333333,4,2,1,80,0,1
170107,-83.3333333333333,4,2,1,80,0,1
170932,-83.3333333333333,4,2,1,80,0,1
171007,-83.3333333333333,4,2,1,80,0,1
171081,-83.3333333333333,4,2,1,80,0,1
171157,-83.3333333333333,4,2,1,80,0,1
171231,-83.3333333333333,4,2,1,80,0,1
171307,-83.3333333333333,4,2,1,80,0,1
172132,-83.3333333333333,4,2,1,80,0,1
172207,-83.3333333333333,4,2,1,80,0,1
173782,-83.3333333333333,4,2,1,80,0,1
173857,-83.3333333333333,4,2,1,80,0,1
173894,-83.3333333333333,4,2,1,80,0,1
173931,-83.3333333333333,4,2,1,80,0,1
173969,-83.3333333333333,4,2,1,80,0,1
174007,-83.3333333333333,4,2,1,80,0,1
174082,-83.3333333333333,4,2,1,80,0,1
174157,-83.3333333333333,4,2,1,80,0,1
174194,-83.3333333333333,4,2,1,80,0,1
174231,-83.3333333333333,4,2,1,80,0,1
174269,-83.3333333333333,4,2,1,80,0,1
174307,-83.3333333333333,4,2,1,80,0,1
175056,-83.3333333333333,4,2,1,80,0,1
175132,-83.3333333333333,4,2,1,80,0,1
175281,-83.3333333333333,4,2,1,80,0,1
175357,-83.3333333333333,4,2,1,80,0,1
175431,-83.3333333333333,4,2,1,80,0,1
175507,-83.3333333333333,4,2,1,80,0,1
176256,-83.3333333333333,4,2,1,80,0,1
176332,-83.3333333333333,4,2,1,80,0,1
176481,-83.3333333333333,4,2,1,80,0,1
176557,-83.3333333333333,4,2,1,80,0,1
176631,-83.3333333333333,4,2,1,80,0,1
176707,-83.3333333333333,4,2,1,80,0,1
177456,-83.3333333333333,4,2,1,80,0,1
177532,-83.3333333333333,4,2,1,80,0,1
177681,-83.3333333333333,4,2,1,80,0,1
177757,-83.3333333333333,4,2,1,80,0,1
177831,-83.3333333333333,4,2,1,80,0,1
177907,-83.3333333333333,4,2,1,80,0,1
178056,-83.3333333333333,4,2,1,80,0,1
178132,-83.3333333333333,4,2,1,80,0,1
178432,-83.3333333333333,4,2,1,80,0,1
178507,-83.3333333333333,4,2,1,80,0,1
179332,-83.3333333333333,4,2,1,80,0,1
179407,-83.3333333333333,4,2,1,80,0,1
179481,-83.3333333333333,4,2,1,80,0,1
179557,-83.3333333333333,4,2,1,80,0,1
179631,-83.3333333333333,4,2,1,80,0,1
179707,-83.3333333333333,4,2,1,80,0,1
182256,-83.3333333333333,4,2,1,80,0,1
182407,-83.3333333333333,4,2,1,80,0,1
182556,-83.3333333333333,4,2,1,80,0,1
182707,-83.3333333333333,4,2,1,80,0,1
183381,-83.3333333333333,4,2,1,80,0,1
183457,-83.3333333333333,4,2,1,80,0,1
183682,-83.3333333333333,4,2,1,80,0,1
183757,-83.3333333333333,4,2,1,80,0,1
183907,292.682926829268,4,2,1,70,1,0
183907,-80,4,2,1,70,0,0
184053,-80,4,2,1,70,0,0
184199,-80,4,2,1,70,0,0
184272,-80,4,2,1,70,0,0
184346,-80,4,2,1,70,0,0
184419,-80,4,2,1,70,0,0
184492,-80,4,2,1,70,0,0
184638,-80,4,2,1,70,0,0
184785,-80,4,2,1,70,0,0
184858,-80,4,2,1,70,0,0
184931,-80,4,2,1,70,0,0
185004,-80,4,2,1,70,0,0
185077,-80,4,2,1,70,0,0
185223,-80,4,2,1,70,0,0
185370,-80,4,2,1,70,0,0
185589,-80,4,2,1,70,0,0
185663,-80,4,2,1,70,0,0
185736,-80,4,2,1,70,0,0
185809,-80,4,2,1,70,0,0
185882,-80,4,2,1,70,0,0
185955,-80,4,2,1,70,0,0
186028,-80,4,2,1,70,0,0
186102,-80,4,2,1,70,0,0
186175,-80,4,2,1,70,0,0
186248,-80,4,2,1,70,0,0
186394,-80,4,2,1,70,0,0
186541,-80,4,2,1,70,0,0
186614,-80,4,2,1,70,0,0
186687,-80,4,2,1,70,0,0
186760,-80,4,2,1,70,0,0
186833,-80,4,2,1,70,0,0
186979,-80,4,2,1,70,0,0
187126,-80,4,2,1,70,0,0
187199,-80,4,2,1,70,0,0
187272,-80,4,2,1,70,0,0
187345,-80,4,2,1,70,0,0
187419,-80,4,2,1,70,0,0
187565,-80,4,2,1,70,0,0
187711,-80,4,2,1,70,0,0
187931,-80,4,2,1,70,0,0
188004,-80,4,2,1,70,0,0
188333,-80,4,2,1,70,0,0
188443,-80,4,2,1,70,0,0
188479,-80,4,2,1,70,0,0
188589,285.714285714286,4,2,1,70,1,0
188589,-76.9230769230769,4,2,1,70,0,0
188731,-76.9230769230769,4,2,1,70,0,0
188874,-76.9230769230769,4,2,1,70,0,0
188945,-76.9230769230769,4,2,1,70,0,0
189017,-76.9230769230769,4,2,1,70,0,0
189088,-76.9230769230769,4,2,1,70,0,0
189160,-76.9230769230769,4,2,1,70,0,0
189302,-76.9230769230769,4,2,1,70,0,0
189445,-76.9230769230769,4,2,1,70,0,0
189516,-76.9230769230769,4,2,1,70,0,0
189587,-76.9230769230769,4,2,1,70,0,0
189659,-76.9230769230769,4,2,1,70,0,0
189731,-76.9230769230769,4,2,1,70,0,0
189873,-76.9230769230769,4,2,1,70,0,0
190017,-76.9230769230769,4,2,1,70,0,0
190088,-76.9230769230769,4,2,1,70,0,0
190160,-76.9230769230769,4,2,1,70,0,0
190231,-76.9230769230769,4,2,1,70,0,0
190303,-76.9230769230769,4,2,1,70,0,0
190517,-76.9230769230769,4,2,1,70,0,0
190589,-76.9230769230769,4,2,1,70,0,0
190660,-76.9230769230769,4,2,1,70,0,0
190731,-76.9230769230769,4,2,1,70,0,0
190802,-76.9230769230769,4,2,1,70,0,0
191065,-76.9230769230769,4,2,1,70,0,0
192231,-76.9230769230769,4,2,1,70,0,0
192303,-76.9230769230769,4,2,1,70,0,0
192517,-76.9230769230769,4,2,1,70,0,0
192589,-76.9230769230769,4,2,1,70,0,0
193089,-76.9230769230769,4,2,1,70,0,0
193160,279.06976744186,4,2,1,70,1,0
193160,-399.999999999997,4,2,1,70,0,0
193369,-399.999999999997,4,2,1,70,0,0
193439,-399.999999999997,4,2,1,80,0,0
193578,-90.9090909090909,4,2,1,80,0,0
202090,272.727272727273,4,2,1,80,1,0
202090,-83.3333333333333,4,2,1,80,0,0
202226,-83.3333333333333,4,2,1,80,0,0
202362,-83.3333333333333,4,2,1,80,0,0
202498,-83.3333333333333,4,2,1,80,0,0
202635,-83.3333333333333,4,2,1,80,0,0
202771,-83.3333333333333,4,2,1,80,0,0
202908,-83.3333333333333,4,2,1,80,0,0
203316,-83.3333333333333,4,2,1,80,0,0
203453,-83.3333333333333,4,2,1,80,0,0
203589,-83.3333333333333,4,2,1,80,0,0
203726,-83.3333333333333,4,2,1,80,0,0
203862,-83.3333333333333,4,2,1,80,0,0
203999,-83.3333333333333,4,2,1,80,0,0
204135,-83.3333333333333,4,2,1,80,0,0
204271,-83.3333333333333,4,2,1,80,0,0
204407,-83.3333333333333,4,2,1,80,0,0
204544,-83.3333333333333,4,2,1,80,0,0
204680,-83.3333333333333,4,2,1,80,0,0
204817,-83.3333333333333,4,2,1,80,0,0
204953,-83.3333333333333,4,2,1,80,0,0
205090,-83.3333333333333,4,2,1,80,0,0
205498,-83.3333333333333,4,2,1,80,0,0
205635,-83.3333333333333,4,2,1,80,0,0
205771,-83.3333333333333,4,2,1,80,0,0
205908,-83.3333333333333,4,2,1,80,0,0
206453,292.682926829268,4,2,1,80,1,0
206892,-100,4,2,1,80,0,0
207038,-100,4,2,1,80,0,0
207184,-100,4,2,1,80,0,0
207331,-100,4,2,1,80,0,0
207623,315.789473684211,4,2,1,75,1,0
207780,-100,4,2,1,75,0,0
207938,-100,4,2,1,75,0,0
208095,-100,4,2,1,75,0,0
208254,-100,4,2,1,75,0,0
208412,-100,4,2,1,75,0,0
208570,-100,4,2,1,75,0,0
208728,-100,4,2,1,75,0,0
208886,342.857142857143,4,2,1,70,1,0
209571,375,4,2,1,65,1,0
210321,400,4,2,1,60,1,0
210653,-100,4,2,1,60,0,0
210720,-100,4,2,1,60,0,0

[Colours]
Combo1 : 248,213,139
Combo2 : 255,26,26
Combo3 : 0,204,204
Combo4 : 107,27,180

[HitObjects]
85,264,907,5,2,0:2:0:0:
77,284,1057,1,2,0:2:0:0:
11,229,1207,6,0,L|166:212,1,140.25000428009,2|0,0:2|0:0,0:0:0:0:
255,192,1807,2,0,L|231:279,2,70.1250021400452,2|2|2,0:2|0:2|0:2,0:0:0:0:
465,245,2407,6,0,L|310:262,1,140.25000428009,2|0,0:2|0:0,0:0:0:0:
221,282,3007,2,0,L|245:195,2,70.1250021400452,2|2|2,0:2|0:2|0:2,0:0:0:0:
0,216,3607,6,0,L|155:199,1,140.25000428009,2|0,0:2|0:0,0:0:0:0:
244,179,4207,2,0,L|220:266,2,70.1250021400452,2|2|2,0:2|0:2|0:2,0:0:0:0:
221,282,4807,2,0,L|245:195,2,70.1250021400452,2|2|2,0:2|0:2|0:2,0:0:0:0:
477,265,5407,5,2,0:2:0:0:
0,216,5707,1,2,0:2:0:0:
150,84,6007,6,0,L|210:78,1,46.7500014266968,2|0,0:2|0:0,0:0:0:0:
362,84,6307,2,0,L|302:78,1,46.7500014266968
212,183,6607,2,0,P|254:229|296:176,1,140.25000428009
172,300,7207,6,0,L|184:358,1,46.7500014266968,2|0,0:2|0:0,0:0:0:0:
330,345,7507,2,0,L|340:300,1,46.7500014266968
256,90,7807,2,0,L|256:247,1,140.25000428009
430,316,8407,5,2,0:2:0:0:
256,371,8857,1,2,0:2:0:0:
82,316,9307,1,2,0:2:0:0:
179,286,9607,5,2,0:2:0:0:
256,352,9832,1,2,0:2:0:0:
333,286,10057,1,2,0:2:0:0:
256,371,10207,1,2,0:2:0:0:
106,227,10507,1,6,1:2:0:0:
103,210,10582,1,2,1:2:0:0:
101,194,10657,1,2,1:2:0:0:
98,178,10732,1,2,1:2:0:0:
97,159,10807,6,0,L|81:48,1,97.7500018644333,6|0,1:2|0:0,0:0:0:0:
333,286,11107,1,10,0:2:0:0:
336,269,11182,1,2,0:0:0:0:
338,253,11257,1,2,0:2:0:0:
341,237,11332,1,2,0:0:0:0:
342,218,11407,2,0,L|358:107,1,97.7500018644333,2|0,1:2|0:0,0:0:0:0:
123,376,11707,2,0,L|112:317,1,48.8750009322167,10|0,0:2|0:0,0:0:0:0:
218,275,11857,2,0,L|210:324,1,48.8750009322167,2|0,0:2|0:0,0:0:0:0:
5,244,12007,5,2,1:2:0:0:
160,199,12157,1,0,0:0:0:0:
41,70,12307,1,10,0:2:0:0:
58,73,12382,1,2,0:0:0:0:
74,75,12457,1,2,0:2:0:0:
90,78,12532,1,2,0:0:0:0:
109,82,12607,5,2,1:2:0:0:
74,185,12757,1,2,0:2:0:0:
212,50,12907,5,10,0:2:0:0:
64,207,13057,1,2,0:2:0:0:
326,35,13207,6,0,P|382:4|442:2,1,97.7500018644333,2|0,1:2|0:0,0:0:0:0:
351,260,13507,1,10,0:2:0:0:
317,268,13582,1,2,0:0:0:0:
283,268,13657,1,2,0:2:0:0:
250,259,13732,1,2,0:0:0:0:
221,242,13807,2,0,L|191:137,1,97.7500018644333,2|0,1:2|0:0,0:0:0:0:
64,354,14107,1,10,0:2:0:0:
98,362,14182,1,2,0:0:0:0:
132,362,14257,1,2,0:2:0:0:
165,353,14332,1,2,0:0:0:0:
194,336,14407,6,0,L|223:231,1,97.7500018644333,2|0,1:2|0:0,0:0:0:0:
78,173,14707,2,0,L|93:220,1,48.8750009322167,10|0,0:2|0:0,0:0:0:0:
302,163,14857,2,0,L|317:116,1,48.8750009322167,2|0,0:2|0:0,0:0:0:0:
131,46,15007,6,0,L|149:108,2,65.1666679096222,2|2|2,3:2|3:2|3:2,0:2:0:0:
219,158,15307,5,2,3:2:0:0:
209,195,15407,1,2,3:2:0:0:
198,233,15507,1,2,3:2:0:0:
126,280,15607,6,0,L|147:383,1,97.7500018644333,6|0,1:2|0:0,0:0:0:0:
432,195,15907,1,10,0:2:0:0:
402,177,15982,1,2,0:0:0:0:
370,166,16057,1,2,0:2:0:0:
336,161,16132,1,2,0:0:0:0:
302,163,16207,2,0,L|281:266,1,97.7500018644333,2|0,1:2|0:0,0:0:0:0:
0,63,16507,1,10,0:2:0:0:
30,45,16582,1,2,0:0:0:0:
62,34,16657,1,2,0:2:0:0:
96,29,16732,1,2,0:0:0:0:
130,31,16807,6,0,L|151:134,1,97.7500018644333,2|0,1:2|0:0,0:0:0:0:
34,243,17107,2,0,P|55:216|88:193,1,48.8750009322167,10|2,0:2|0:0,0:0:0:0:
174,233,17257,2,0,P|195:206|228:183,1,48.8750009322167,2|2,0:2|0:0,0:0:0:0:
205,349,17407,6,0,P|150:339|64:335,1,97.7500018644333,2|2,1:2|0:2,0:0:0:0:
307,349,17707,2,0,P|362:339|448:335,1,97.7500018644333,10|2,0:2|0:2,0:0:0:0:
252,32,18007,5,6,3:2:0:0:
174,233,18207,1,2,3:2:0:0:
102,100,18407,1,2,3:2:0:0:
341,204,18607,6,0,L|346:236,2,32.5833339548111,6|0|0,3:2|3:2|3:2,0:0:0:0:
270,133,18807,1,2,3:2:0:0:
216,332,19007,1,2,3:2:0:0:
123,292,19207,6,0,L|82:299,2,32.5833339548111,6|0|0,3:2|3:2|3:2,0:0:0:0:
200,215,19407,1,2,3:2:0:0:
342,355,19607,1,2,3:2:0:0:
429,131,19807,6,0,P|442:90|424:39,1,93.5000028533936,6|2,3:2|0:2,0:0:0:0:
428,44,20407,6,0,L|512:50,1,85,6|0,1:2|0:2,0:0:0:0:
264,97,20707,2,0,L|348:91,1,85,10|2,0:2|1:2,0:0:0:0:
112,0,21007,2,0,L|293:14,1,170,2|10,0:2|0:2,0:0:0:0:
348,90,21457,1,0,0:2:0:0:
195,211,21607,6,0,P|167:163|168:127,1,85,2|0,1:2|0:2,0:0:0:0:
124,281,21907,2,0,P|156:307|198:314,1,85,10|2,0:2|0:2,0:0:0:0:
414,212,22207,2,0,P|353:191|284:272,1,170,2|10,0:2|0:2,0:0:0:0:
270,349,22657,1,0,3:2:0:0:
361,281,22807,6,0,L|356:375,1,85,2|0,1:2|0:2,0:0:0:0:
280,173,23107,2,0,L|284:257,1,85,10|2,0:2|1:2,0:0:0:0:
427,42,23407,2,0,L|413:218,1,170,2|10,0:2|0:2,0:0:0:0:
361,281,23857,1,0,0:2:0:0:
101,250,24007,5,2,1:2:0:0:
189,222,24157,1,0,0:2:0:0:
320,119,24307,5,10,0:2:0:0:
408,138,24457,1,2,0:2:0:0:
265,181,24607,6,0,P|235:117|292:41,1,170,2|10,0:2|0:2,0:0:0:0:
386,37,25057,1,0,0:2:0:0:
208,101,25207,5,2,1:2:0:0:
102,86,25357,1,0,0:2:0:0:
20,208,25507,5,10,0:2:0:0:
130,180,25657,1,2,1:2:0:0:
268,309,25807,6,0,P|155:281|92:274,1,170,2|10,0:2|0:2,0:0:0:0:
28,330,26257,1,0,0:2:0:0:
227,211,26407,6,0,L|332:194,1,85,2|0,1:2|0:2,0:0:0:0:
364,368,26707,2,0,L|469:351,1,85,10|2,0:2|0:2,0:0:0:0:
419,104,27007,2,0,L|392:279,1,170,2|10,0:2|0:2,0:0:0:0:
310,197,27457,1,0,3:2:0:0:
337,43,27607,6,0,P|382:13|421:8,1,85,2|0,1:2|0:2,0:0:0:0:
248,120,27907,2,0,P|203:90|164:85,1,85,10|2,0:2|1:2,0:0:0:0:
30,163,28207,1,2,0:2:0:0:
65,261,28357,1,0,1:2:0:0:
132,177,28507,1,10,0:2:0:0:
20,180,28657,1,2,0:2:0:0:
77,270,28807,5,2,1:2:0:0:
117,284,28882,1,0,1:2:0:0:
159,283,28957,1,2,1:2:0:0:
198,267,29032,1,0,1:2:0:0:
232,241,29107,1,10,1:2:0:0:
271,226,29182,1,0,1:2:0:0:
313,227,29257,1,2,1:2:0:0:
352,243,29332,1,0,1:2:0:0:
383,273,29407,2,0,L|377:334,3,42.5,2|0|0|0,1:2|1:2|1:2|1:2,0:0:0:0:
458,221,29707,6,0,L|448:165,1,42.5,10|0,1:2|1:2,0:0:0:0:
379,126,29857,2,0,L|387:80,1,42.5,2|0,1:2|1:2,0:0:0:0:
130,39,30007,6,0,L|144:149,1,85,6|0,1:2|0:0,0:0:0:0:
396,262,30307,1,10,0:2:0:0:
370,228,30382,1,2,0:0:0:0:
334,207,30457,1,2,0:2:0:0:
292,203,30532,1,2,0:0:0:0:
252,216,30607,2,0,L|238:326,1,85,2|0,1:2|0:0,0:0:0:0:
0,189,30907,1,10,0:2:0:0:
26,155,30982,1,2,0:0:0:0:
62,134,31057,1,2,0:2:0:0:
104,130,31132,1,2,0:0:0:0:
144,143,31207,6,0,L|158:253,1,85,2|0,1:2|0:0,0:0:0:0:
20,324,31507,2,0,L|72:310,1,42.5,10|2,0:2|0:0,0:0:0:0:
238,384,31657,2,0,L|290:370,1,42.5,2|2,0:2|0:0,0:0:0:0:
374,315,31807,5,2,1:2:0:0:
172,270,31957,1,2,0:2:0:0:
392,328,32107,5,10,0:2:0:0:
129,362,32257,1,2,0:2:0:0:
409,344,32407,6,0,L|422:258,1,85,2|0,1:2|0:0,0:0:0:0:
250,108,32707,1,10,0:2:0:0:
237,148,32782,1,2,0:0:0:0:
239,190,32857,1,2,0:2:0:0:
257,228,32932,1,2,0:0:0:0:
287,258,33007,2,0,L|274:172,1,85,2|0,1:2|0:0,0:0:0:0:
499,40,33307,1,10,0:2:0:0:
512,80,33382,1,2,0:0:0:0:
510,122,33457,1,2,0:2:0:0:
492,160,33532,1,2,0:0:0:0:
462,190,33607,6,0,L|475:104,1,85,2|0,1:2|0:0,0:0:0:0:
124,68,33907,2,0,L|180:85,1,42.5,10|0,0:2|0:0,0:0:0:0:
336,28,34057,2,0,L|392:11,1,42.5,2|0,0:2|0:0,0:0:0:0:
259,80,34207,5,2,3:2:0:0:
268,118,34307,1,2,3:2:0:0:
279,156,34407,1,2,3:2:0:0:
195,161,34507,5,2,3:2:0:0:
184,199,34607,1,2,3:2:0:0:
175,237,34707,1,2,3:2:0:0:
111,318,34807,6,0,L|84:205,1,85,6|0,1:2|0:0,0:0:0:0:
365,364,35107,5,10,0:2:0:0:
369,343,35182,1,2,0:0:0:0:
374,322,35257,1,2,0:2:0:0:
379,301,35332,1,2,0:0:0:0:
384,281,35407,2,0,L|484:251,1,85,2|0,1:2|0:0,0:0:0:0:
509,139,35707,5,10,0:2:0:0:
488,143,35782,1,2,0:0:0:0:
467,148,35857,1,2,0:2:0:0:
446,153,35932,1,2,0:0:0:0:
423,159,36007,2,0,L|433:65,1,85,2|0,1:2|0:0,0:0:0:0:
228,190,36307,5,10,0:2:0:0:
232,211,36382,1,2,0:0:0:0:
237,232,36457,1,2,0:2:0:0:
242,253,36532,1,2,0:0:0:0:
247,273,36607,5,2,1:2:0:0:
86,113,36757,1,2,0:2:0:0:
330,212,36907,5,10,0:2:0:0:
79,306,37057,1,2,0:2:0:0:
207,106,37207,5,6,3:2:0:0:
267,361,37407,1,2,3:2:0:0:
455,179,37607,1,2,3:2:0:0:
179,256,37807,5,6,3:2:0:0:
267,361,38007,1,2,3:2:0:0:
463,341,38207,1,2,3:2:0:0:
164,249,38407,5,6,3:2:0:0:
252,376,38607,1,2,3:2:0:0:
475,352,38807,1,2,3:2:0:0:
147,236,39007,5,6,3:2:0:0:
396,30,39307,2,0,P|413:50|435:122,1,85,2|0,0:2|0:2,0:0:0:0:
335,173,39607,6,0,L|343:94,1,63.7500024318696,6|0,1:2|0:2,0:0:0:0:
316,187,39907,2,0,L|324:108,1,63.7500024318696,10|2,0:2|0:2,0:0:0:0:
236,253,40207,2,0,P|268:278|377:268,1,127.500004863739,2|10,1:2|0:2,0:0:0:0:
408,203,40657,1,0,0:2:0:0:
251,130,40807,5,2,1:2:0:0:
104,176,40957,1,0,0:2:0:0:
147,266,41107,5,10,0:2:0:0:
0,225,41257,1,2,0:2:0:0:
236,253,41407,6,0,L|215:404,1,127.500004863739,2|10,1:2|0:2,0:0:0:0:
118,368,41857,1,0,0:2:0:0:
331,303,42007,6,0,P|371:291|414:290,1,63.7500024318696,2|0,1:2|0:2,0:0:0:0:
236,253,42307,2,0,P|271:231|312:218,1,63.7500024318696,10|2,0:2|0:2,0:0:0:0:
129,239,42607,2,0,P|169:186|222:144,1,127.500004863739,2|10,1:2|0:2,0:0:0:0:
324,132,43057,1,0,0:2:0:0:
112,39,43207,5,2,1:2:0:0:
152,154,43357,1,0,0:2:0:0:
270,200,43507,5,10,0:2:0:0:
218,333,43657,1,2,0:2:0:0:
19,279,43807,6,0,P|83:263|154:261,1,127.500004863739,2|10,1:2|0:2,0:0:0:0:
363,345,44257,1,0,0:2:0:0:
357,188,44407,6,0,L|344:250,1,63.7500024318696,6|0,1:2|0:2,0:0:0:0:
188,95,44707,2,0,L|175:157,1,63.7500024318696,10|2,0:2|0:2,0:0:0:0:
452,98,45007,2,0,L|478:239,1,127.500004863739,2|10,1:2|0:2,0:0:0:0:
451,316,45457,1,0,0:2:0:0:
214,265,45607,5,2,1:2:0:0:
362,223,45757,1,0,0:2:0:0:
297,359,45907,5,10,0:2:0:0:
109,335,46057,1,2,0:2:0:0:
157,206,46207,6,0,P|182:276|192:334,1,127.500004863739,2|10,1:2|0:2,0:0:0:0:
69,181,46657,1,0,0:2:0:0:
174,87,46807,5,2,1:2:0:0:
182,83,46882,1,0,1:2:0:0:
192,80,46957,1,0,1:2:0:0:
201,78,47032,1,0,1:2:0:0:
210,76,47107,1,10,1:2:0:0:
220,74,47182,1,0,1:2:0:0:
229,73,47257,1,0,1:2:0:0:
239,72,47332,1,0,1:2:0:0:
248,72,47407,1,10,1:2:0:0:
258,72,47482,1,0,1:2:0:0:
267,73,47557,1,2,1:2:0:0:
277,74,47632,1,0,1:2:0:0:
286,76,47707,1,10,1:2:0:0:
296,78,47782,1,0,1:2:0:0:
305,80,47857,1,0,1:2:0:0:
314,83,47932,1,0,1:2:0:0:
323,88,48007,6,0,L|330:143,3,31.8750012159348,10|0|2|0,1:2|1:2|1:2|1:2,0:0:0:0:
405,117,48307,2,0,L|412:172,3,31.8750012159348,10|0|2|0,1:2|1:2|1:2|1:2,0:0:0:0:
371,218,48607,1,10,1:2:0:0:
182,312,48907,2,0,P|111:308|102:300,1,70.1250021400452,2|0,3:2|0:0,0:0:0:0:
78,381,49207,6,0,L|66:249,1,127.500004863739,6|0,1:2|0:0,0:0:0:0:
434,381,49807,2,0,L|445:254,1,127.500004863739,10|0,0:2|0:0,0:0:0:0:
293,150,50407,5,2,1:2:0:0:
328,249,50557,1,2,0:2:0:0:
210,180,50707,1,2,3:2:0:0:
332,276,50857,1,2,0:2:0:0:
148,252,51007,1,10,0:2:0:0:
147,251,51307,2,0,L|137:314,1,63.7500024318696,2|0,0:2|0:2,0:0:0:0:
64,212,51607,5,2,1:2:0:0:
9,100,51757,1,0,0:2:0:0:
73,195,51907,1,2,0:2:0:0:
190,55,52057,1,2,1:2:0:0:
111,115,52207,1,10,0:2:0:0:
258,153,52357,1,0,0:2:0:0:
176,43,52507,1,2,0:2:0:0:
176,206,52657,1,2,0:2:0:0:
304,58,52807,6,0,L|382:32,1,63.7500024318696,0|2,1:2|0:2,0:0:0:0:
405,175,53107,2,0,L|343:193,2,63.7500024318696,2|2|0,3:2|0:2|0:0,0:0:0:0:
475,238,53557,2,0,P|448:309|378:313,1,127.500004863739,2|0,0:2|0:0,0:0:0:0:
275,248,54007,6,0,P|223:244|178:254,1,95.6250036478044,6|0,1:2|0:0,0:0:0:0:
158,272,54307,1,0,0:0:0:0:
353,206,54457,1,0,3:2:0:0:
233,90,54607,2,0,L|223:171,1,63.7500024318696,10|0,0:2|0:0,0:0:0:0:
322,56,54907,2,0,L|312:137,1,63.7500024318696
411,328,55207,5,2,1:2:0:0:
433,195,55357,1,2,0:2:0:0:
428,349,55507,1,2,3:2:0:0:
278,290,55657,1,2,0:2:0:0:
443,367,55807,1,10,0:2:0:0:
120,371,56107,2,0,P|79:362|61:343,1,63.7500024318696,2|0,0:2|0:2,0:0:0:0:
145,185,56407,6,0,P|161:237|159:291,2,95.6250036478044,2|0|2,1:2|3:2|1:2,3:0:0:0:
96,95,57007,1,10,0:2:0:0:
59,243,57307,1,2,0:2:0:0:
285,302,57607,1,2,1:2:0:0:
35,257,57907,5,2,3:2:0:0:
299,331,58057,1,2,0:2:0:0:
211,165,58357,5,2,0:2:0:0:
180,256,58507,1,0,0:0:0:0:
334,204,58657,1,0,0:0:0:0:
249,72,58807,6,0,L|183:65,1,63.7500024318696,6|0,0:2|0:0,0:0:0:0:
261,63,59107,2,0,L|195:56,1,63.7500024318696,8|0,0:2|0:0,0:0:0:0:
109,169,59407,6,0,L|43:162,1,63.7500024318696,2|0,0:2|0:0,0:0:0:0:
121,160,59707,2,0,L|55:153,1,63.7500024318696,8|0,0:2|0:0,0:0:0:0:
214,266,60007,5,2,0:2:0:0:
239,262,60157,1,2,0:2:0:0:
342,189,60307,5,10,0:2:0:0:
367,193,60457,1,2,0:2:0:0:
447,285,60607,5,2,0:2:0:0:
145,341,60907,2,0,P|121:301|115:271,1,63.7500024318696,10|0,0:2|0:2,0:0:0:0:
223,202,61207,6,0,L|211:281,1,63.7500024318696,2|0,0:2|0:2,0:0:0:0:
237,188,61507,2,0,L|246:124,1,63.7500024318696,10|2,0:2|0:2,0:0:0:0:
447,285,61807,6,0,L|435:364,1,63.7500024318696,2|0,0:2|0:2,0:0:0:0:
461,271,62107,2,0,L|470:207,1,63.7500024318696,10|2,0:2|0:2,0:0:0:0:
352,47,62407,5,2,0:2:0:0:
384,159,62557,1,2,0:2:0:0:
247,165,62707,1,10,0:2:0:0:
179,284,62857,1,2,0:2:0:0:
179,284,63157,2,0,P|192:250|192:213,1,63.7500024318696,2|8,0:2|0:2,0:0:0:0:
51,71,63607,5,6,3:2:0:0:
311,137,63757,1,0,1:2:0:0:
218,81,63907,2,0,L|223:148,1,63.7500024318696,8|0,0:2|0:0,0:0:0:0:
188,158,64207,2,0,L|193:222,1,63.7500024318696,2|0,0:2|0:0,0:0:0:0:
159,236,64507,2,0,L|164:300,1,63.7500024318696,8|0,0:2|1:2,0:0:0:0:
256,381,64807,5,6,3:2:0:0:
507,303,64957,1,2,1:2:0:0:
410,228,65107,2,0,P|358:221|325:221,1,63.7500024318696,10|2,0:2|0:2,0:0:0:0:
311,137,65407,2,0,P|259:144|226:144,1,63.7500024318696,2|0,0:2|0:0,0:0:0:0:
199,221,65707,2,0,P|147:214|114:214,1,63.7500024318696,10|0,0:2|1:2,0:0:0:0:
89,346,66007,5,6,3:2:0:0:
19,97,66157,1,0,1:2:0:0:
111,137,66307,1,10,0:2:0:0:
21,277,66457,5,2,3:2:0:0:
305,349,66607,1,6,1:2:0:0:
207,274,66757,1,0,1:2:0:0:
150,356,66907,2,0,P|102:352|71:334,1,63.7500024318696,2|0,3:2|1:2,0:0:0:0:
256,192,67207,5,6,1:2:0:0:
102,36,68107,5,2,0:2:0:0:
57,105,68257,1,0,0:0:0:0:
117,240,68407,6,0,P|171:257|259:174,1,152.999995330811,6|0,1:2|0:0,0:0:0:0:
254,107,68707,2,0,P|227:164|241:225,1,101.999996887207,10|0,0:2|0:2,0:0:0:0:
350,315,69007,2,0,L|249:333,1,101.999996887207,2|0,1:2|0:0,0:0:0:0:
174,384,69232,2,0,L|16:367,1,152.999995330811,2|0,0:2|0:2,0:0:0:0:
186,236,69607,5,2,1:2:0:0:
103,297,69757,1,0,0:2:0:0:
28,175,69907,2,0,P|-1:114|3:66,1,101.999996887207,10|2,0:2|0:2,0:0:0:0:
144,9,70207,2,0,L|101:122,1,101.999996887207,2|0,1:2|0:0,0:0:0:0:
178,170,70432,2,0,L|213:71,1,101.999996887207,2|0,0:2|0:2,0:0:0:0:
287,25,70657,1,0,0:2:0:0:
271,182,70807,6,0,P|337:151|387:154,1,101.999996887207,2|0,1:2|0:2,0:0:0:0:
462,281,71107,2,0,L|345:267,1,101.999996887207,10|2,0:2|0:2,0:0:0:0:
168,368,71407,2,0,P|219:369|240:278,2,152.999995330811,2|2|2,1:2|0:2|0:2,0:0:0:0:
23,249,72007,2,0,P|29:177|99:165,2,152.999995330811,2|2|2,1:2|0:2|0:2,0:0:0:0:
212,173,72607,6,0,L|244:126,2,33.9999989624024,2|0|0,3:2|3:2|3:2,0:0:0:0:
308,113,72807,1,0,3:2:0:0:
235,60,72907,2,0,P|189:53|164:56,2,67.9999979248048,2|0|0,3:2|3:2|3:2,0:0:0:0:
326,126,73207,6,0,L|437:108,1,101.999996887207,6|0,1:2|0:2,0:0:0:0:
298,284,73507,2,0,L|187:266,1,101.999996887207,10|0,0:2|0:2,0:0:0:0:
395,215,73807,2,0,L|417:338,1,101.999996887207,2|2,1:2|0:2,0:0:0:0:
84,306,74107,2,0,L|106:183,1,101.999996887207,10|0,0:2|0:2,0:0:0:0:
68,55,74407,5,2,1:2:0:0:
168,138,74557,1,0,0:2:0:0:
200,44,74707,5,10,0:2:0:0:
229,207,74857,1,2,0:2:0:0:
306,129,75007,5,2,1:2:0:0:
224,291,75157,1,0,0:2:0:0:
378,378,75307,2,0,P|429:385|486:352,1,101.999996887207,10|2,0:2|0:2,0:0:0:0:
347,194,75607,5,2,1:2:0:0:
261,379,75757,1,2,0:2:0:0:
141,248,75907,1,10,0:2:0:0:
309,297,76057,2,0,L|431:275,1,101.999996887207,2|0,0:2|1:2,0:0:0:0:
229,207,76357,1,2,0:2:0:0:
151,368,76507,1,10,0:2:0:0:
47,300,76657,1,2,0:2:0:0:
117,101,76807,6,0,P|147:209|138:257,2,152.999995330811,6|2|2,1:2|3:2|1:2,0:0:0:0:
24,18,77407,1,6,1:2:0:0:
41,36,77482,1,2,0:0:0:0:
62,50,77557,1,0,3:2:0:0:
85,61,77632,1,0,3:2:0:0:
110,67,77707,1,8,0:2:0:0:
135,69,77782,1,2,0:0:0:0:
161,66,77857,1,0,1:2:0:0:
185,58,77932,1,0,1:2:0:0:
208,45,78007,6,0,P|269:20|326:27,1,101.999996887207,6|0,1:2|0:2,0:0:0:0:
349,197,78307,2,0,P|296:156|274:103,1,101.999996887207,10|2,0:2|0:2,0:0:0:0:
471,176,78607,2,0,L|444:298,1,101.999996887207,2|0,1:2|0:0,0:0:0:0:
372,337,78832,2,0,P|323:296|226:276,1,152.999995330811,2|0,0:2|0:2,0:0:0:0:
27,301,79207,5,2,1:2:0:0:
169,345,79357,1,0,0:2:0:0:
21,173,79507,1,10,0:2:0:0:
2,321,79657,1,2,0:2:0:0:
138,214,79807,2,0,P|228:205|291:218,1,152.999995330811,2|2,1:2|0:2,0:0:0:0:
358,258,80107,2,0,P|268:266|220:275,1,101.999996887207,8|0,0:2|0:2,0:0:0:0:
437,328,80407,6,0,P|465:280|445:197,1,101.999996887207,2|0,1:2|0:2,0:0:0:0:
393,59,80707,2,0,L|376:173,1,101.999996887207,10|2,0:2|0:2,0:0:0:0:
284,11,81007,2,0,L|267:125,1,101.999996887207,2|0,1:2|0:0,0:0:0:0:
223,181,81232,2,0,L|238:80,1,101.999996887207,2|0,0:2|0:0,0:0:0:0:
177,16,81457,1,2,0:2:0:0:
26,129,81607,6,0,P|118:133|146:113,1,101.999996887207,2|0,1:2|0:0,0:0:0:0:
137,314,81907,2,0,P|94:232|63:218,1,101.999996887207,8|2,0:2|0:2,0:0:0:0:
223,181,82207,6,0,P|192:201|175:223,2,33.9999989624024,2|0|0,3:2|3:2|3:2,0:0:0:0:
309,159,82407,1,0,3:2:0:0:
368,221,82507,2,0,P|430:229|457:223,2,67.9999979248048,2|0|0,3:2|3:2|3:2,0:0:0:0:
307,140,82807,6,0,L|296:35,1,101.999996887207,6|0,1:2|0:2,0:0:0:0:
89,229,83107,2,0,L|100:124,1,101.999996887207,10|0,0:2|0:2,0:0:0:0:
284,357,83407,1,2,1:2:0:0:
254,215,83557,1,2,0:2:0:0:
144,384,83707,1,10,0:2:0:0:
167,253,83857,1,0,0:2:0:0:
345,284,84007,6,0,L|464:269,1,101.999996887207,2|0,1:2|0:2,0:0:0:0:
211,130,84307,2,0,L|92:115,1,101.999996887207,10|2,0:2|0:2,0:0:0:0:
410,23,84607,1,2,1:2:0:0:
312,129,84757,1,0,0:2:0:0:
472,219,84907,1,10,0:2:0:0:
288,132,85057,1,2,0:2:0:0:
441,142,85207,6,0,P|446:209|336:283,1,203.999993774414,2|8,1:2|0:2,0:0:0:0:
160,198,85657,2,0,P|236:172|395:213,1,203.999993774414,2|0,0:2|0:0,0:0:0:0:
159,309,86107,2,0,P|106:308|70:270,1,101.999996887207,10|0,0:2|0:0,0:0:0:0:
89,62,86407,5,6,1:2:0:0:
263,222,86632,1,2,3:2:0:0:
38,324,86857,1,2,1:2:0:0:
38,324,86932,1,0,1:2:0:0:
38,324,87007,2,0,L|49:222,1,101.999996887207,6|0,1:2|1:2,0:0:0:0:
49,222,87232,1,0,1:2:0:0:
49,222,87307,1,0,1:2:0:0:
295,81,87457,2,0,L|283:130,1,50.9999984436036,0|0,1:2|1:2,0:0:0:0:
236,318,87607,5,6,0:2:0:0:
404,295,97207,6,0,P|346:276|318:274,1,63.7500024318696,2|0,1:2|0:0,0:0:0:0:
410,319,97507,6,0,P|357:298|257:298,1,127.5,14|0,0:2|0:0,0:0:0:0:
226,338,97807,2,0,P|167:347|129:327,1,85,2|2,1:2|0:2,0:0:0:0:
167,165,98107,2,0,L|189:260,1,85,8|2,0:2|0:2,0:0:0:0:
50,131,98407,5,2,1:2:0:0:
285,135,98557,1,0,0:2:0:0:
118,55,98707,1,10,0:2:0:0:
216,77,98857,1,2,0:2:0:0:
30,213,99007,2,0,L|52:118,1,85,2|0,1:2|0:0,0:0:0:0:
203,306,99307,2,0,P|144:321|79:268,1,127.5,10|0,0:2|0:0,0:0:0:0:
256,224,99607,6,0,P|284:247|301:315,1,85,2|0,1:2|0:0,0:0:0:0:
161,231,99907,1,10,0:2:0:0:
318,158,100057,2,0,L|422:147,1,85,0|2,0:2|1:2,0:0:0:0:
272,66,100357,1,0,0:2:0:0:
256,224,100507,1,10,0:2:0:0:
135,10,100657,1,2,0:2:0:0:
186,143,100807,6,0,P|116:130|74:126,1,85,2|0,1:2|0:2,0:0:0:0:
35,264,101107,2,0,P|93:241|134:234,1,85,10|2,0:2|0:2,0:0:0:0:
344,319,101407,6,0,L|357:391,2,56.6666666666667,2|0|0,3:2|3:2|3:2,0:0:0:0:
256,224,101707,2,0,L|269:152,2,56.6666666666667,0|0|0,3:2|3:2|3:2,0:0:0:0:
331,92,102007,6,0,P|293:71|231:74,1,85,6|0,1:2|0:0,0:0:0:0:
120,120,102307,1,10,0:2:0:0:
266,168,102457,1,0,0:2:0:0:
128,224,102607,2,0,P|85:220|49:200,1,85,2|2,1:2|0:2,0:0:0:0:
104,36,102907,2,0,L|121:127,1,85,10|0,0:2|0:2,0:0:0:0:
250,251,103207,6,0,L|265:167,1,85,2|2,1:2|0:2,0:0:0:0:
424,205,103507,2,0,P|363:228|330:216,1,85,10|2,0:2|0:2,0:0:0:0:
481,135,103807,2,0,P|511:186|489:276,1,127.5,2|0,1:2|0:0,0:0:0:0:
416,289,104107,2,0,L|426:169,1,85,10|0,0:2|3:2,0:0:0:0:
484,372,104407,5,6,1:2:0:0:
308,294,104607,1,2,0:2:0:0:
148,361,104807,1,2,0:2:0:0:
381,365,105007,5,6,3:2:0:0:
211,294,105207,1,2,3:2:0:0:
178,132,105407,1,2,3:2:0:0:
276,206,105607,5,6,3:2:0:0:
56,210,105807,1,2,3:2:0:0:
148,361,106007,1,2,3:2:0:0:
178,132,106207,5,6,3:2:0:0:
486,123,106807,6,0,P|427:91|381:93,1,93.5000028533936,6|0,1:2|0:0,0:0:0:0:
310,249,107107,1,10,0:2:0:0:
335,269,107182,1,2,0:0:0:0:
365,281,107257,1,2,0:2:0:0:
398,284,107332,1,2,0:0:0:0:
430,278,107407,2,0,L|414:170,1,93.5000028533936,2|0,1:2|0:0,0:0:0:0:
230,308,107707,1,10,0:2:0:0:
205,328,107782,1,2,0:0:0:0:
175,340,107857,1,2,0:2:0:0:
142,343,107932,1,2,0:0:0:0:
110,337,108007,2,0,L|126:229,1,93.5000028533936,2|0,1:2|0:0,0:0:0:0:
232,118,108307,6,0,L|242:189,3,46.7500014266968,10|2|2|2,0:2|0:0|0:2|0:0,0:0:0:0:
206,238,108607,1,2,1:2:0:0:
116,71,108757,1,2,0:2:0:0:
18,241,108907,1,10,0:2:0:0:
150,158,109057,1,2,0:2:0:0:
38,23,109207,6,0,P|21:86|40:129,1,93.5000028533936,2|0,1:2|0:0,0:0:0:0:
162,76,109507,2,0,L|99:69,3,46.7500014266968,10|2|2|2,0:2|0:0|0:2|0:0,0:0:0:0:
232,118,109807,2,0,L|360:102,1,93.5000028533936,2|0,1:2|0:0,0:0:0:0:
457,56,110107,1,10,0:2:0:0:
436,81,110182,1,2,0:0:0:0:
422,110,110257,1,2,0:2:0:0:
416,142,110332,1,2,0:0:0:0:
418,175,110407,6,0,L|406:277,1,93.5000028533936,2|0,1:2|0:0,0:0:0:0:
335,376,110707,1,10,0:2:0:0:
303,384,110782,1,2,0:0:0:0:
271,384,110857,1,2,0:2:0:0:
239,376,110932,1,2,0:0:0:0:
210,361,111007,6,0,L|127:353,2,62.3333352355958,2|2|2,3:2|3:2|3:2,0:0:0:0:
184,267,111307,2,0,L|101:259,2,62.3333352355958,2|2|2,3:2|3:2|3:2,0:0:0:0:
159,173,111607,6,0,L|51:164,1,93.5000028533936,6|0,1:2|0:0,0:0:0:0:
278,92,111907,1,10,0:2:0:0:
279,124,111982,1,2,0:0:0:0:
281,157,112057,1,10,0:2:0:0:
283,190,112132,1,2,0:0:0:0:
285,222,112207,2,0,L|294:331,1,93.5000028533936,2|0,1:2|0:0,0:0:0:0:
470,199,112507,2,0,L|478:146,3,46.7500014266968,10|0|2|0,0:2|0:0|0:2|0:0,0:0:0:0:
467,71,112807,6,0,P|418:93|396:136,1,93.5000028533936,2|0,1:2|0:0,0:0:0:0:
195,46,113107,5,10,0:2:0:0:
182,64,113182,1,2,0:0:0:0:
176,88,113257,1,2,0:2:0:0:
177,111,113332,1,2,0:0:0:0:
186,135,113407,2,0,L|282:123,1,93.5000028533936,2|2,1:2|0:2,0:0:0:0:
144,292,113707,2,0,L|48:280,1,93.5000028533936,10|2,0:2|0:2,0:0:0:0:
277,212,114007,5,6,3:2:0:0:
226,343,114207,1,2,3:2:0:0:
393,307,114407,1,2,3:2:0:0:
173,259,114607,5,6,3:2:0:0:
372,208,114807,1,2,3:2:0:0:
313,374,115007,1,2,3:2:0:0:
173,145,115207,5,6,3:2:0:0:
393,307,115407,1,2,3:2:0:0:
403,53,115607,1,2,3:2:0:0:
206,288,115807,5,6,3:2:0:0:
206,288,116407,5,6,1:2:0:0:
226,151,116557,1,0,0:2:0:0:
68,215,116707,2,0,P|131:220|181:194,1,85,10|2,0:2|0:2,0:0:0:0:
282,73,117007,2,0,B|246:57|246:57|141:84,1,127.5,2|0,1:2|0:0,0:0:0:0:
135,86,117307,1,10,0:2:0:0:
203,286,117457,1,0,0:2:0:0:
312,183,117607,5,2,1:2:0:0:
284,362,117757,1,0,0:2:0:0:
449,380,117907,1,10,0:2:0:0:
474,204,118057,1,2,0:2:0:0:
312,183,118207,2,0,P|248:208|210:275,1,127.5,2|0,1:2|0:0,0:0:0:0:
203,286,118507,1,10,0:2:0:0:
356,269,118657,1,0,0:2:0:0:
131,188,118807,6,0,L|110:284,1,85,2|0,1:2|0:2,0:0:0:0:
312,183,119107,1,10,0:2:0:0:
177,102,119257,1,2,0:2:0:0:
315,32,119407,2,0,P|343:65|330:159,1,127.5,2|0,1:2|0:0,0:0:0:0:
312,183,119707,1,10,0:2:0:0:
356,348,119857,1,0,0:2:0:0:
511,312,120007,5,2,1:2:0:0:
468,148,120157,1,0,0:2:0:0:
278,282,120307,1,10,0:2:0:0:
404,244,120457,1,2,0:2:0:0:
468,148,120607,2,0,P|463:64|450:31,1,85,2|0,1:2|0:0,0:0:0:0:
192,184,120907,1,10,0:2:0:0:
152,319,121057,1,0,0:2:0:0:
297,260,121207,6,0,P|309:164|300:140,1,85,6|0,1:2|0:2,0:0:0:0:
68,209,121507,1,10,0:2:0:0:
152,319,121657,1,2,0:2:0:0:
192,184,121807,2,0,B|96:174|96:174|75:199,1,127.5,2|0,1:2|0:0,0:0:0:0:
68,209,122107,1,10,0:2:0:0:
135,75,122257,1,0,0:2:0:0:
272,111,122407,5,2,1:2:0:0:
347,2,122557,1,0,0:2:0:0:
376,189,122707,2,0,L|363:280,1,85,10|2,0:2|0:2,0:0:0:0:
486,212,123007,2,0,P|481:133|423:88,1,127.5,2|0,1:2|0:0,0:0:0:0:
418,86,123307,2,0,L|363:74,1,42.5,10|0,0:2|0:0,0:0:0:0:
376,189,123457,2,0,L|321:201,1,42.5,0|0,0:2|0:0,0:0:0:0:
272,111,123607,5,2,1:2:0:0:
248,115,123682,1,0,1:2:0:0:
226,119,123757,1,0,1:2:0:0:
202,123,123832,1,0,1:2:0:0:
178,127,123907,2,0,P|163:80|170:58,3,42.5,10|0|2|0,1:2|1:2|1:2|1:2,0:0:0:0:
110,200,124207,2,0,P|106:253|97:273,1,42.5,2|0,1:2|1:2,0:0:0:0:
178,302,124357,2,0,P|182:355|191:375,1,42.5,2|0,1:2|1:2,0:0:0:0:
272,371,124507,2,0,L|320:373,1,42.5,10|0,1:2|1:2,0:0:0:0:
375,306,124657,2,0,L|423:304,1,42.5,2|0,1:2|1:2,0:0:0:0:
489,231,124807,5,2,1:2:0:0:
492,209,124882,1,0,1:2:0:0:
489,189,124957,1,2,1:2:0:0:
480,169,125032,1,0,1:2:0:0:
467,153,125107,1,10,1:2:0:0:
449,141,125182,1,0,1:2:0:0:
429,134,125257,1,2,1:2:0:0:
408,133,125332,1,0,1:2:0:0:
388,137,125407,1,2,1:2:0:0:
388,137,125707,6,0,L|303:128,1,63.7500024318696,2|2,3:2|3:2,0:0:0:0:
166,313,126007,2,0,P|193:260|183:190,1,127.500004863739,6|0,1:2|0:0,0:0:0:0:
138,120,126457,1,0,3:2:0:0:
21,298,126607,1,10,0:2:0:0:
21,298,126907,2,0,L|84:306,1,63.7500024318696
185,194,127207,2,0,L|122:202,1,63.7500024318696,2|2,1:2|0:2,0:0:0:0:
138,120,127507,2,0,L|75:112,1,63.7500024318696,2|2,3:2|0:2,0:0:0:0:
284,56,127807,1,10,0:2:0:0:
284,56,128107,2,0,P|298:87|292:129,1,63.7500024318696,2|0,0:2|0:2,0:0:0:0:
379,293,128407,6,0,P|378:261|391:232,1,63.7500024318696,2|0,1:2|0:2,0:0:0:0:
481,258,128707,2,0,P|481:289|468:318,1,63.7500024318696,2|2,0:2|1:2,0:0:0:0:
289,318,129007,6,0,P|288:349|301:378,1,63.7500024318696,10|0,0:2|0:2,0:0:0:0:
391,353,129307,2,0,P|391:321|378:292,1,63.7500024318696,2|0,0:2|0:2,0:0:0:0:
307,218,129607,2,0,L|232:211,2,63.7500024318696,0|2|2,1:2|0:2|3:2,0:0:0:0:
271,122,130057,2,0,L|199:113,1,63.7500024318696,2|8,0:2|0:2,0:0:0:0:
435,64,130357,2,0,B|468:112|468:112|459:204,1,127.500004863739,2|0,0:2|0:0,0:0:0:0:
331,32,130807,6,0,L|194:18,1,127.500004863739,6|0,1:2|0:0,0:0:0:0:
115,75,131257,1,0,3:2:0:0:
169,251,131407,1,10,0:2:0:0:
240,153,131707,2,0,L|318:146,1,63.7500024318696
169,251,132007,2,0,L|91:244,1,63.7500024318696,2|2,1:2|0:2,0:0:0:0:
231,353,132307,2,0,L|153:360,1,63.7500024318696,2|2,3:2|0:2,0:0:0:0:
304,148,132607,1,10,0:2:0:0:
304,148,132907,2,0,P|326:185|326:226,1,63.7500024318696,2|0,0:2|0:2,0:0:0:0:
407,354,133207,6,0,P|405:303|444:249,2,95.6250036478044,2|0|2,1:2|3:2|1:2,0:0:0:0:
328,204,133807,2,0,P|353:155|356:126,1,63.7500024318696,10|0,0:2|0:0,0:0:0:0:
248,100,134107,2,0,P|223:149|220:178,1,63.7500024318696,2|0,0:2|0:0,0:0:0:0:
238,306,134407,2,0,L|322:300,2,63.7500024318696,2|2|2,1:2|0:2|3:2,0:0:0:0:
123,249,134857,2,0,P|128:175|121:161,1,63.7500024318696,2|8,0:2|0:2,0:0:0:0:
38,317,135157,2,0,P|72:348|167:337,1,127.500004863739,2|0,0:2|0:0,0:0:0:0:
329,225,135607,6,0,P|307:254|308:322,1,85,6|0,0:2|0:0,0:0:0:0:
470,358,135907,2,0,P|466:316|442:281,1,85,8|0,0:2|0:0,0:0:0:0:
285,374,136207,2,0,L|408:386,1,85,2|0,0:2|0:0,0:0:0:0:
512,192,136507,2,0,L|389:204,1,85,8|0,0:2|0:0,0:0:0:0:
301,301,136807,1,2,0:2:0:0:
329,225,136957,1,2,0:2:0:0:
210,306,137107,1,10,0:2:0:0:
178,211,137257,1,2,0:2:0:0:
110,349,137407,1,2,0:2:0:0:
110,349,137707,6,0,P|83:294|94:248,1,85,10|0,0:2|0:2,0:0:0:0:
178,211,138007,2,0,P|201:175|203:133,1,85,2|0,0:2|0:2,0:0:0:0:
285,25,138307,2,0,L|294:109,1,85,10|2,0:2|0:2,0:0:0:0:
344,315,138607,1,2,0:2:0:0:
298,205,138757,1,0,0:2:0:0:
267,342,138907,1,10,0:2:0:0:
366,156,139057,1,0,0:2:0:0:
417,221,139207,6,0,L|509:229,1,85,2|2,0:2|0:2,0:0:0:0:
298,205,139507,2,0,P|259:190|214:191,1,85,10|2,0:2|0:2,0:0:0:0:
344,315,139807,2,0,L|434:333,1,85,0|2,0:0|0:2,0:0:0:0:
233,369,140107,2,0,P|194:384|149:383,1,85,8|0,0:2|0:0,0:0:0:0:
81,155,140407,5,6,3:2:0:0:
171,302,140557,1,0,1:2:0:0:
81,322,140707,2,0,P|78:262|93:236,1,85,8|0,0:2|0:0,0:0:0:0:
166,187,140932,1,0,0:0:0:0:
166,187,141007,2,0,P|169:127|154:101,1,85,2|0,0:2|0:0,0:0:0:0:
137,84,141232,1,0,0:0:0:0:
117,60,141307,2,0,L|166:53,1,42.5,8|0,0:2|0:0,0:0:0:0:
246,104,141457,2,0,L|295:111,1,42.5,0|0,1:2|0:0,0:0:0:0:
384,50,141607,5,6,3:2:0:0:
348,213,141757,1,2,1:2:0:0:
427,219,141907,2,0,P|421:171|387:142,1,85,10|2,0:2|0:2,0:0:0:0:
385,287,142132,1,0,0:0:0:0:
374,296,142207,2,0,L|313:290,1,42.5,2|0,0:2|0:0,0:0:0:0:
264,244,142357,2,0,L|203:250,1,42.5
146,308,142507,1,10,0:2:0:0:
125,278,142582,1,0,0:0:0:0:
121,244,142657,1,0,1:2:0:0:
130,206,142732,1,0,0:0:0:0:
145,174,142807,5,6,3:2:0:0:
232,341,142957,1,0,1:2:0:0:
146,308,143107,2,0,L|59:316,1,85,10|2,0:2|3:2,0:0:0:0:
61,315,143332,1,0,0:0:0:0:
61,315,143407,1,6,1:2:0:0:
12,168,143557,1,0,1:2:0:0:
46,86,143707,2,0,P|86:133|89:175,1,85,2|0,3:2|1:2,0:0:0:0:
285,241,144007,6,0,P|289:190|350:146,1,127.5,6|2,1:2|0:2,0:0:0:0:
361,226,145057,1,2,0:2:0:0:
333,306,145207,6,0,P|306:323|239:315,1,85,6|2,0:2|0:2,0:0:0:0:
201,256,145657,1,0,0:0:0:0:
159,185,145807,2,0,L|168:106,2,63.75,2|2|2,0:2|0:2|0:2,0:0:0:0:
116,259,146407,2,0,P|80:257|40:223,1,85,2|2,0:2|0:2,0:0:0:0:
34,141,146857,1,0,0:0:0:0:
99,81,147007,2,0,L|163:76,2,63.75,2|2|2,0:2|0:2|0:2,0:0:0:0:
34,141,147607,6,0,P|10:92|16:47,1,85,2|2,0:2|0:2,0:0:0:0:
116,164,148057,1,0,0:0:0:0:
116,164,148207,2,0,L|105:233,1,63.75,2|2,0:2|0:2,0:0:0:0:
192,335,148657,1,2,0:2:0:0:
192,335,148807,2,0,L|184:262,1,63.75,2|2,0:2|0:2,0:0:0:0:
54,344,149257,1,2,0:2:0:0:
54,344,149407,2,0,P|86:360|108:364,1,42.5,2|0,0:2|0:0,0:0:0:0:
191,334,149707,2,0,P|211:327|230:317,1,42.5,2|0,0:2|0:0,0:0:0:0:
334,183,150007,6,0,L|329:229,2,42.5,2|0|2,0:2|0:2|0:2,0:0:0:0:
264,135,150457,1,0,0:2:0:0:
182,137,150607,1,2,0:2:0:0:
122,186,150757,1,2,0:2:0:0:
100,264,150907,2,0,L|116:317,1,42.5,2|0,0:2|0:2,0:0:0:0:
296,292,151207,6,0,L|252:308,2,42.5,2|0|2,0:2|0:2|0:2,0:0:0:0:
304,205,151657,1,2,0:2:0:0:
264,135,151807,1,2,0:2:0:0:
193,105,151957,1,0,0:2:0:0:
114,122,152107,2,0,L|74:160,1,42.5,2|2,0:2|0:2,0:0:0:0:
100,264,152407,6,0,P|114:303|109:345,1,85,2|0,0:2|0:0,0:0:0:0:
203,374,152857,2,0,P|197:332|212:292,1,85,2|0,0:2|0:0,0:0:0:0:
271,245,153307,2,0,L|323:237,1,42.5,2|0,0:2|0:0,0:0:0:0:
432,146,153607,2,0,L|356:138,1,63.75,2|2,0:2|0:2,0:0:0:0:
230,71,154057,1,2,0:2:0:0:
198,154,154207,1,2,0:2:0:0:
198,154,154807,6,0,P|283:143|305:112,1,127.500004863739,6|2,0:2|0:2,0:0:0:0:
230,71,155257,1,0,0:0:0:0:
143,79,155407,2,0,P|112:114|109:175,2,95.6250036478044,2|2|2,0:2|0:2|0:2,0:0:0:0:
166,237,156007,2,0,P|117:258|41:226,1,127.500004863739,2|2,0:2|0:2,0:0:0:0:
49,235,156457,1,0,0:0:0:0:
114,343,156607,2,0,B|74:373|74:373|10:365,2,95.6250036478044,2|2|2,0:2|0:2|0:2,0:0:0:0:
227,331,157207,6,0,B|250:248|250:248|238:204,1,127.500004863739,2|2,0:2|0:2,0:0:0:0:
239,208,157657,1,0,0:0:0:0:
292,138,157807,2,0,P|307:84|289:46,2,95.6250036478044,2|2|2,0:2|0:2|0:2,0:0:0:0:
183,75,158407,2,0,B|160:106|160:106|171:185,2,95.6250036478044,2|2|2,0:2|0:2|0:2,0:0:0:0:
220,240,159007,2,0,P|190:251|158:255,1,63.7500024318696,2|0,0:2|0:0,0:0:0:0:
292,138,159307,2,0,P|331:144|366:161,1,63.7500024318696,2|0,0:2|0:0,0:0:0:0:
370,305,159607,5,6,1:2:0:0:
254,329,159757,1,0,1:2:0:0:
158,255,159907,1,2,1:2:0:0:
151,140,160057,1,0,1:2:0:0:
217,48,160207,2,0,P|279:55|301:67,1,85,2|2,1:2|1:2,0:0:0:0:
151,140,160507,1,2,1:2:0:0:
62,207,160657,5,4,1:2:0:0:
254,329,160807,2,0,P|272:294|268:224,1,85,6|0,1:2|1:2,0:0:0:0:
158,255,161107,1,2,1:2:0:0:
152,380,161257,1,2,1:2:0:0:
275,249,161407,1,2,1:2:0:0:
267,125,161557,1,0,1:2:0:0:
381,247,161707,1,2,1:2:0:0:
380,383,161857,1,6,1:2:0:0:
347,142,162007,6,0,P|300:122|234:144,1,85,6|0,1:2|1:2,0:0:0:0:
267,125,162232,1,0,1:2:0:0:
267,125,162307,2,0,L|207:116,3,42.5,0|0|0|2,1:2|1:2|1:2|1:2,0:0:0:0:
175,190,162607,2,0,P|168:220|174:255,1,42.5,4|0,1:2|1:2,0:0:0:0:
225,307,162757,2,0,P|232:337|226:372,1,42.5,0|0,1:2|1:2,0:0:0:0:
126,369,162907,2,0,L|80:366,3,42.5,2|0|0|0,1:2|1:2|1:2|1:2,0:0:0:0:
36,289,163207,1,6,1:2:0:0:
28,273,163282,1,0,1:2:0:0:
23,257,163357,1,0,1:2:0:0:
23,240,163432,1,2,1:2:0:0:
25,223,163507,2,0,L|81:224,1,42.5,4|0,1:2|1:2,0:0:0:0:
175,190,163657,1,2,1:2:0:0:
184,175,163732,1,0,1:2:0:0:
194,160,163807,2,0,L|142:167,1,42.5,6|0,1:2|1:2,0:0:0:0:
17,145,163957,1,0,1:2:0:0:
14,128,164032,1,0,1:2:0:0:
10,109,164107,2,0,L|64:115,1,42.5,4|0,1:2|1:2,0:0:0:0:
223,64,164257,2,0,L|162:71,1,42.5,0|0,1:2|1:2,0:0:0:0:
21,37,164407,6,0,L|92:43,1,63.75,2|0,1:2|0:0,0:0:0:0:
104,44,164707,5,6,1:2:0:0:
243,40,164857,1,0,0:2:0:0:
173,178,165007,1,10,0:2:0:0:
319,133,165157,1,2,0:2:0:0:
273,292,165307,2,0,B|220:304|220:304|150:277,1,101.999996887207,2|0,1:2|0:0,0:0:0:0:
155,269,165532,1,2,0:2:0:0:
133,246,165607,2,0,L|66:250,1,50.9999984436036,8|0,0:2|0:0,0:0:0:0:
46,351,165757,2,0,L|113:355,1,50.9999984436036,0|0,0:2|0:0,0:0:0:0:
173,178,165907,5,2,1:2:0:0:
178,378,166057,1,0,0:2:0:0:
310,218,166207,1,10,0:2:0:0:
261,369,166357,1,2,0:2:0:0:
433,261,166507,2,0,P|446:182|436:137,1,101.999996887207,2|0,1:2|0:0,0:0:0:0:
430,144,166732,1,2,0:2:0:0:
414,127,166807,2,0,P|413:60|417:53,1,50.9999984436036,8|0,0:2|0:2,0:0:0:0:
347,34,166957,2,0,L|294:40,1,50.9999984436036,0|0,0:2|0:0,0:0:0:0:
252,159,167107,5,2,1:2:0:0:
339,311,167257,1,0,0:2:0:0:
430,144,167407,1,10,0:2:0:0:
510,280,167557,1,2,0:2:0:0:
339,311,167707,2,0,P|285:310|229:269,1,101.999996887207,2|0,1:2|0:0,0:0:0:0:
155,328,167932,1,2,0:2:0:0:
155,328,168007,2,0,L|165:238,1,50.9999984436036,10|0,0:2|0:0,0:0:0:0:
83,215,168157,2,0,L|73:125,1,50.9999984436036,2|0,0:2|0:0,0:0:0:0:
169,78,168307,6,0,B|181:118|181:118|166:223,1,101.999996887207,2|0,1:2|0:0,0:0:0:0:
255,164,168532,1,2,0:2:0:0:
255,164,168607,2,0,L|265:54,1,101.999996887207,8|2,0:2|0:2,0:0:0:0:
342,41,168832,1,0,0:0:0:0:
342,41,168907,6,0,P|414:82|434:77,1,67.9999979248048,2|0,3:2|3:2,0:0:0:0:
492,62,169107,1,0,3:2:0:0:
466,155,169207,2,0,L|458:239,2,67.9999979248048,2|0|0,3:2|3:2|3:2,0:0:0:0:
369,170,169507,6,0,L|348:311,1,101.999996887207,6|0,1:2|0:2,0:0:0:0:
353,270,169732,1,0,0:0:0:0:
353,270,169807,2,0,P|271:283|259:280,1,50.9999984436036,10|0,0:2|0:0,0:0:0:0:
216,242,169957,2,0,P|191:237|167:227,1,50.9999984436036,0|0,0:2|0:0,0:0:0:0:
256,382,170107,1,2,1:2:0:0:
111,345,170257,1,2,0:2:0:0:
216,242,170407,1,10,0:2:0:0:
35,254,170557,1,0,0:2:0:0:
137,123,170707,6,0,P|189:106|273:113,1,101.999996887207,2|0,1:2|0:2,0:0:0:0:
235,104,170932,1,0,0:0:0:0:
235,104,171007,2,0,L|248:169,1,50.9999984436036,10|0,0:2|0:0,0:0:0:0:
314,234,171157,2,0,L|300:299,1,50.9999984436036,2|0,0:2|0:0,0:0:0:0:
400,113,171307,1,2,1:2:0:0:
383,284,171457,1,0,0:2:0:0:
465,160,171607,1,10,0:2:0:0:
314,234,171757,1,0,0:2:0:0:
428,367,171907,6,0,P|371:375|309:349,1,101.999996887207,2|2,1:2|0:2,0:0:0:0:
329,362,172132,1,0,0:0:0:0:
329,362,172207,1,10,0:2:0:0:
314,234,172357,1,2,0:2:0:0:
199,328,172507,1,0,1:2:0:0:
246,159,172657,1,2,0:2:0:0:
56,227,172807,2,0,P|168:245|189:237,1,101.999996887207,10|2,0:2|0:2,0:0:0:0:
347,26,173107,5,6,1:2:0:0:
153,248,173332,5,2,3:2:0:0:
443,301,173557,5,2,1:2:0:0:
496,202,173707,1,6,1:2:0:0:
477,188,173782,1,2,0:0:0:0:
455,182,173857,2,0,L|465:103,1,50.9999984436036,0|0,3:2|3:2,0:0:0:0:
386,147,174007,1,8,0:2:0:0:
367,161,174082,1,2,0:0:0:0:
344,164,174157,2,0,L|349:197,2,25.4999992218018,0|0|0,1:2|1:0|1:2,0:0:0:0:
268,121,174307,5,6,1:2:0:0:
305,300,174457,1,0,0:2:0:0:
199,184,174607,2,0,P|146:166|60:175,1,101.999996887207,10|2,0:2|0:2,0:0:0:0:
183,340,174907,2,0,L|305:328,1,101.999996887207,2|0,1:2|0:0,0:0:0:0:
294,317,175132,1,2,0:2:0:0:
304,299,175207,2,0,L|391:288,1,50.9999984436036,8|0,0:2|0:0,0:0:0:0:
416,215,175357,2,0,L|503:226,1,50.9999984436036,0|0,0:2|0:0,0:0:0:0:
388,111,175507,5,2,1:2:0:0:
441,308,175657,1,0,0:2:0:0:
322,166,175807,1,10,0:2:0:0:
284,330,175957,1,2,0:2:0:0:
191,194,176107,2,0,L|317:184,1,101.999996887207,2|0,1:2|0:0,0:0:0:0:
306,177,176332,1,2,0:2:0:0:
322,166,176407,2,0,P|308:110|312:78,1,50.9999984436036,8|0,0:2|0:0,0:0:0:0:
401,62,176557,2,0,P|396:87|387:110,1,50.9999984436036,0|0,0:2|0:0,0:0:0:0:
405,196,176707,5,2,1:2:0:0:
315,35,176857,1,0,0:2:0:0:
292,185,177007,1,10,0:2:0:0:
200,88,177157,1,2,0:2:0:0:
104,213,177307,2,0,P|112:303|126:322,1,101.999996887207,2|0,1:2|0:0,0:0:0:0:
116,310,177532,1,2,0:2:0:0:
116,310,177607,2,0,L|181:314,1,50.9999984436036,10|0,0:2|0:0,0:0:0:0:
244,352,177757,2,0,L|309:348,1,50.9999984436036,2|0,0:2|0:0,0:0:0:0:
388,270,177907,6,0,L|268:278,1,101.999996887207,2|0,1:2|0:0,0:0:0:0:
218,203,178132,1,2,0:2:0:0:
218,203,178207,2,0,L|354:193,1,101.999996887207,8|2,0:2|0:2,0:0:0:0:
374,117,178432,1,0,0:0:0:0:
374,117,178507,6,0,P|383:39|375:21,1,67.9999979248048,2|0,3:2|3:2,0:0:0:0:
306,73,178707,1,0,3:2:0:0:
239,30,178807,2,0,P|226:61|226:95,2,67.9999979248048,2|0|0,3:2|3:2|3:2,0:0:0:0:
132,71,179107,6,0,P|137:140|103:200,1,101.999996887207,6|0,1:2|0:2,0:0:0:0:
125,169,179332,1,0,0:0:0:0:
125,169,179407,2,0,L|130:230,1,50.9999984436036,10|0,0:2|0:0,0:0:0:0:
214,253,179557,2,0,L|218:192,1,50.9999984436036,0|0,0:2|0:0,0:0:0:0:
334,198,179707,1,2,1:2:0:0:
248,341,179857,1,2,0:2:0:0:
381,280,180007,1,10,0:2:0:0:
214,253,180157,1,0,0:2:0:0:
315,84,180307,5,2,1:2:0:0:
315,84,180457,1,0,0:2:0:0:
381,280,180607,1,10,0:2:0:0:
226,137,180757,1,2,0:2:0:0:
426,69,180907,1,2,1:2:0:0:
334,198,181057,1,0,0:2:0:0:
441,338,181207,2,0,P|465:290|453:227,1,101.999996887207,10|2,0:2|0:2,0:0:0:0:
226,137,181507,6,0,B|209:203|209:203|232:245|232:245|213:334,1,203.999993774414,2|8,1:2|0:2,0:0:0:0:
118,270,181957,2,0,B|99:228|117:173|117:173|142:106|92:53,1,203.999993774414,2|0,0:2|0:0,0:0:0:0:
222,18,182407,2,0,P|317:82|321:100,1,101.999996887207,10|0,0:2|0:0,0:0:0:0:
397,314,182707,5,6,1:2:0:0:
226,137,182932,1,2,3:2:0:0:
456,69,183157,1,2,1:2:0:0:
454,165,183307,2,0,P|399:144|390:133,1,50.9999984436036,6|0,1:2|0:0,0:0:0:0:
361,229,183457,2,0,P|306:250|297:261,1,50.9999984436036,0|0,1:2|1:2,0:0:0:0:
226,137,183607,1,0,1:2:0:0:
221,158,183682,1,0,0:0:0:0:
213,177,183757,1,0,1:2:0:0:
208,198,183832,1,0,1:2:0:0:
201,219,183907,6,0,P|128:224|94:197,1,106.25,6|0,1:2|0:0,0:0:0:0:
105,125,184199,2,0,P|70:135|32:171,1,53.125,10|2,0:2|0:0,0:0:0:0:
95,259,184346,2,0,P|103:223|90:172,1,53.125,2|2,0:2|0:0,0:0:0:0:
52,337,184492,2,0,L|198:350,1,106.25,2|0,1:2|0:0,0:0:0:0:
242,306,184711,1,0,0:0:0:0:
242,306,184785,2,0,P|255:358|252:371,1,53.125,10|0,0:2|0:0,0:0:0:0:
201,219,184931,2,0,P|202:192|214:168,1,53.125,2|0,0:2|0:0,0:0:0:0:
301,237,185077,6,0,L|427:255,1,106.25,2|0,1:2|0:0,0:0:0:0:
406,252,185297,1,0,0:0:0:0:
406,252,185370,2,0,P|428:204|407:137,1,106.25,10|2,0:2|0:2,0:0:0:0:
368,88,185589,1,2,0:0:0:0:
368,88,185663,2,0,P|303:104|280:97,1,53.125,2|0,1:2|0:0,0:0:0:0:
259,47,185809,2,0,P|194:31|171:38,1,53.125,2|0,0:2|0:0,0:0:0:0:
131,96,185955,2,0,L|139:157,1,53.125,10|0,0:2|0:0,0:0:0:0:
201,219,186102,1,2,0:2:0:0:
201,219,186175,1,0,0:0:0:0:
201,219,186248,6,0,P|173:272|194:341,1,106.25,2|0,1:2|0:0,0:0:0:0:
246,360,186467,1,0,0:0:0:0:
246,360,186541,2,0,L|304:347,1,53.125,10|0,0:2|0:0,0:0:0:0:
342,277,186687,2,0,L|400:290,1,53.125,2|0,0:2|0:0,0:0:0:0:
479,324,186833,2,0,B|497:294|497:294|471:178,1,106.25,2|0,1:2|0:0,0:0:0:0:
451,149,187053,1,0,0:0:0:0:
451,149,187126,2,0,P|463:98|488:78,1,53.125,10|2,0:2|0:0,0:0:0:0:
376,198,187272,2,0,P|364:174|364:147,1,53.125,2|2,0:2|0:0,0:0:0:0:
320,77,187419,6,0,L|173:68,1,106.25,2|0,1:2|0:0,0:0:0:0:
144,124,187638,1,0,0:0:0:0:
144,124,187711,2,0,P|125:208|139:243,1,106.25,10|2,0:2|0:2,0:0:0:0:
182,295,187931,1,0,0:0:0:0:
182,295,188004,2,0,L|273:288,2,70.8333333333333,2|2|2,3:2|3:2|3:2,0:0:0:0:
239,212,188297,2,0,L|195:215,5,35.4166666666667,0|0|0|0|0|0,3:2|3:2|3:2|3:2|3:2|3:2,0:0:0:0:
250,195,188589,6,0,P|270:151|238:78,1,110.499994941712,6|0,1:2|0:0,0:0:0:0:
213,70,188802,1,0,0:0:0:0:
213,70,188874,2,0,L|158:76,1,55.2499974708558,10|2,0:2|0:0,0:0:0:0:
116,170,189017,2,0,L|63:158,1,55.2499974708558,2|2,0:2|0:0,0:0:0:0:
182,295,189160,2,0,P|145:353|63:355,1,110.499994941712,2|0,1:2|0:0,0:0:0:0:
74,339,189374,1,0,0:0:0:0:
74,339,189446,2,0,L|53:254,3,55.2499974708558,10|0|2|0,0:2|0:0|0:2|0:0,0:0:0:0:
0,205,189731,6,0,P|-7:125|44:76,1,110.499994941712,2|0,1:2|0:0,0:0:0:0:
34,78,189946,1,0,0:0:0:0:
34,78,190017,2,0,L|126:70,1,55.2499974708558,10|2,0:2|0:0,0:0:0:0:
138,151,190160,2,0,L|230:159,1,55.2499974708558,2|2,0:2|0:0,0:0:0:0:
264,94,190303,2,0,B|281:133|281:133|270:210,1,110.499994941712,2|2,1:2|0:2,0:0:0:0:
264,229,190517,1,0,0:0:0:0:
256,260,190589,2,0,L|322:248,1,55.2499974708558,10|0,0:2|0:0,0:0:0:0:
229,345,190731,2,0,L|174:335,1,55.2499974708558,2|0,0:2|0:0,0:0:0:0:
112,249,190874,5,6,3:2:0:0:
322,369,191065,5,2,3:2:0:0:
264,94,191255,5,2,3:2:0:0:
229,345,191446,5,6,3:2:0:0:
384,112,191636,5,2,3:2:0:0:
112,249,191827,5,2,3:2:0:0:
449,299,192017,5,6,1:2:0:0:
472,195,192160,2,0,P|470:158|464:144,4,27.6249987354279,0|0|0|0|0,1:2|1:0|1:0|1:0|1:0,0:0:0:0:
325,63,192446,2,0,P|314:99|312:108,2,27.6249987354279,0|0|0,1:2|1:0|1:0,0:0:0:0:
314,37,192589,2,0,P|232:28|215:31,1,55.2499974708558,0|0,1:2|1:2,0:0:0:0:
215,114,192731,2,0,P|133:123|116:120,1,55.2499974708558,0|0,1:2|1:2,0:0:0:0:
59,80,192874,1,0,1:2:0:0:
62,109,192946,1,0,1:2:0:0:
65,136,193017,1,0,1:2:0:0:
68,165,193089,1,0,1:0:0:0:
72,191,193160,2,0,L|67:228,1,31.875,2|0,0:2|0:0,0:0:0:0:
67,235,193439,5,14,0:2:0:0:
132,340,193578,1,0,0:2:0:0:
185,233,193718,1,2,1:2:0:0:
61,247,193857,5,0,0:2:0:0:
145,337,193996,1,8,0:2:0:0:
177,222,194136,1,2,0:2:0:0:
263,313,194276,2,0,P|334:290|354:269,1,93.5000028533936,2|0,1:2|0:2,0:0:0:0:
368,113,194555,2,0,P|322:121|284:147,1,93.5000028533936,10|2,0:2|0:2,0:0:0:0:
478,213,194834,2,0,L|497:98,1,93.5000028533936,2|0,1:2|0:0,0:0:0:0:
352,20,195113,2,0,L|367:112,1,93.5000028533936,10|0,0:2|0:0,0:0:0:0:
160,45,195392,6,0,B|191:92|191:92|175:231,1,187.000005706787,2|10,1:2|0:2,0:0:0:0:
88,114,195811,1,0,0:2:0:0:
24,231,195950,1,2,1:2:0:0:
108,337,196090,1,0,0:2:0:0:
227,315,196229,2,0,L|323:296,1,93.5000028533936,10|2,0:2|0:2,0:0:0:0:
277,111,196508,5,2,1:2:0:0:
352,221,196648,1,2,0:2:0:0:
361,88,196787,1,10,0:2:0:0:
270,195,196927,1,2,0:2:0:0:
410,157,197066,6,0,L|475:130,2,62.3333352355958,2|0|0,3:2|3:2|3:2,0:0:0:0:
352,221,197346,1,0,3:2:0:0:
349,306,197439,1,0,3:2:0:0:
281,354,197532,1,0,3:2:0:0:
201,333,197625,6,0,P|145:277|33:288,1,187.000005706787,6|10,1:2|0:2,0:0:0:0:
99,360,198043,1,0,0:2:0:0:
151,199,198183,2,0,P|136:157|90:118,1,93.5000028533936,2|0,1:2|0:2,0:0:0:0:
343,25,198462,2,0,P|309:56|293:100,1,93.5000028533936,10|2,0:2|0:2,0:0:0:0:
387,201,198741,1,2,1:2:0:0:
266,249,198880,1,0,0:2:0:0:
374,108,199020,2,0,P|430:115|466:152,1,93.5000028533936,10|2,0:2|0:2,0:0:0:0:
254,338,199299,2,0,P|310:331|346:294,1,93.5000028533936,2|0,1:2|0:0,0:0:0:0:
193,136,199578,2,0,L|65:119,1,93.5000028533936,10|0,0:2|3:2,0:0:0:0:
177,281,199857,5,6,1:2:0:0:
412,326,200043,1,2,0:2:0:0:
266,249,200229,1,2,0:2:0:0:
380,220,200415,5,6,3:2:0:0:
193,136,200601,1,2,3:2:0:0:
365,92,200787,1,2,3:2:0:0:
288,37,200973,5,6,3:2:0:0:
266,249,201160,1,2,3:2:0:0:
365,92,201346,1,2,3:2:0:0:
133,58,201532,1,6,3:2:0:0:
133,58,202090,6,0,P|93:116|105:180,1,101.999996887207,6|0,1:2|0:0,0:0:0:0:
266,249,202362,2,0,P|306:191|294:127,1,101.999996887207,8|0,0:2|0:0,0:0:0:0:
95,308,202635,2,0,L|213:297,1,101.999996887207,0|0,1:2|0:0,0:0:0:0:
283,364,202908,1,10,0:2:0:0:
266,249,203044,1,2,0:2:0:0:
399,279,203180,2,0,L|383:379,1,101.999996887207,2|0,1:2|0:0,0:0:0:0:
306,161,203453,2,0,L|290:61,1,101.999996887207,8|0,0:2|0:0,0:0:0:0:
398,185,203726,1,2,1:2:0:0:
399,279,203862,1,0,0:0:0:0:
306,161,203999,1,8,0:2:0:0:
266,249,204135,1,0,0:0:0:0:
188,117,204271,6,0,L|50:128,1,101.999996887207,2|0,1:2|0:0,0:0:0:0:
51,321,204544,2,0,L|152:329,1,101.999996887207,8|0,0:2|0:0,0:0:0:0:
266,249,204817,1,0,1:2:0:0:
171,222,204953,1,0,0:0:0:0:
252,347,205090,2,0,P|360:333|374:321,1,101.999996887207,10|2,0:2|0:2,0:0:0:0:
404,168,205362,2,0,P|355:152|305:160,1,101.999996887207,2|0,1:2|0:0,0:0:0:0:
463,349,205635,2,0,L|446:225,1,101.999996887207,10|0,0:2|0:0,0:0:0:0:
390,70,205908,6,0,L|483:86,2,67.9999979248048,2|0|2,3:2|0:0|3:2,0:0:0:0:
305,160,206180,2,0,L|223:150,2,67.9999979248048,2|2|2,3:2|3:2|3:2,0:0:0:0:
252,47,206453,6,0,B|135:34|135:34|185:79,1,170,4|8,1:2|0:2,0:0:0:0:
92,110,206892,1,0,0:0:0:0:
133,253,207038,2,0,L|152:166,1,85,0|0,1:2|0:0,0:0:0:0:
7,268,207331,1,10,0:2:0:0:
88,368,207477,1,2,0:2:0:0:
227,246,207623,2,0,L|313:235,1,85,2|0,1:2|0:0,0:0:0:0:
369,363,207938,2,0,L|283:352,1,85,8|0,0:2|0:0,0:0:0:0:
429,191,208254,1,2,1:2:0:0:
494,333,208412,1,0,0:0:0:0:
311,235,208570,1,8,0:2:0:0:
400,80,208728,1,0,0:0:0:0:
252,146,208886,6,0,L|137:162,1,113.333333333333,6|0,1:2|3:2,0:0:0:0:
55,73,209343,1,0,1:2:0:0:
41,269,209571,2,0,L|31:334,2,56.6666666666667,6|0|0,3:2|3:2|3:2,0:0:0:0:
141,314,209946,1,0,3:2:0:0:
141,314,210071,2,0,L|143:375,1,56.6666666666667,0|0,3:2|3:2,0:0:0:0:
245,329,210321,2,0,L|247:271,1,56.6666666666667,6|2,3:2|3:2,0:0:0:0:
345,359,210587,2,0,L|390:352,2,28.3333333333333,2|0|0,3:2|0:0|3:2,0:0:0:0:
414,258,210854,2,0,L|336:249,1,56.6666666666667,2|2,3:2|3:2,0:0:0:0:
254,100,211121,5,4,0:2:0:0:
