osu file format v14

[General]
AudioFilename: audio.mp3
AudioLeadIn: 0
PreviewTime: 67957
Countdown: 0
SampleSet: Soft
StackLeniency: 0.7
Mode: 0
LetterboxInBreaks: 0
WidescreenStoryboard: 1

[Editor]
Bookmarks: 13807
DistanceSpacing: 1.2
BeatDivisor: 4
GridSize: 8
TimelineZoom: 2.599999

[Metadata]
Title:Kakuzetsu Thanatos
TitleUnicode:隔絶≡タナトス
Artist:Rohi
ArtistUnicode:ろひ
Creator:Nevo
Version:Aistre's Insane
Source:osu!
Tags:fa featured artist vocaloid japanese rock electronic yumerios arc [arc] aistre alphabet squishi Flowziee Kakuzetsu=Thanatos venax
BeatmapID:2579658
BeatmapSetID:1151959

[Difficulty]
HPDrainRate:5.2
CircleSize:4
OverallDifficulty:7.8
ApproachRate:8.8
SliderMultiplier:1.5
SliderTickRate:1

[Events]
//Background and Video events
0,0,"osubg.jpg",0,0
Video,32,"kakuzetsu video.mp4"
//Break Periods
2,145407,154178
//Storyboard Layer 0 (Background)
//Storyboard Layer 1 (Fail)
//Storyboard Layer 2 (Pass)
//Storyboard Layer 3 (Foreground)
//Storyboard Layer 4 (Overlay)
//Storyboard Sound Samples

[TimingPoints]
7,300,4,2,1,40,1,0
907,-100,4,2,1,40,0,0
1507,-100,4,2,1,40,0,0
1807,-100,4,2,1,40,0,0
2707,-100,4,2,1,40,0,0
3007,-100,4,2,1,40,0,0
3907,-100,4,2,1,40,0,0
4207,-100,4,2,1,40,0,0
6157,-100,4,2,1,40,0,0
7207,-100,4,2,1,40,0,0
7357,-100,4,2,1,40,0,0
8407,-100,4,2,1,40,0,0
8557,-100,4,2,1,40,0,0
8857,-100,4,2,1,40,0,0
9007,-100,4,2,1,40,0,0
9307,-100,4,2,1,40,0,0
9457,-100,4,2,1,40,0,0
9607,-100,4,2,1,40,0,0
10807,-83.3333333333333,4,2,1,70,0,0
10956,-83.3333333333333,4,2,1,70,0,0
11107,-83.3333333333333,4,2,1,70,0,0
11181,-83.3333333333333,4,2,1,70,0,0
11257,-83.3333333333333,4,2,1,70,0,0
11331,-83.3333333333333,4,2,1,70,0,0
11407,-83.3333333333333,4,2,1,70,0,0
11556,-83.3333333333333,4,2,1,70,0,0
11707,-83.3333333333333,4,2,1,70,0,0
12156,-83.3333333333333,4,2,1,70,0,0
12307,-83.3333333333333,4,2,1,70,0,0
12381,-83.3333333333333,4,2,1,70,0,0
12457,-83.3333333333333,4,2,1,70,0,0
12531,-83.3333333333333,4,2,1,70,0,0
12607,-83.3333333333333,4,2,1,70,0,0
13356,-83.3333333333333,4,2,1,70,0,0
13507,-83.3333333333333,4,2,1,70,0,0
13581,-83.3333333333333,4,2,1,70,0,0
13657,-83.3333333333333,4,2,1,70,0,0
13731,-83.3333333333333,4,2,1,70,0,0
13807,-83.3333333333333,4,2,1,70,0,0
13956,-83.3333333333333,4,2,1,70,0,0
14107,-83.3333333333333,4,2,1,70,0,0
14556,-83.3333333333333,4,2,1,70,0,0
14707,-83.3333333333333,4,2,1,70,0,0
14781,-83.3333333333333,4,2,1,70,0,0
14857,-83.3333333333333,4,2,1,70,0,0
14931,-83.3333333333333,4,2,1,70,0,0
15007,-83.3333333333333,4,2,1,70,0,0
15756,-83.3333333333333,4,2,1,70,0,0
15907,-83.3333333333333,4,2,1,70,0,0
15981,-83.3333333333333,4,2,1,70,0,0
16057,-83.3333333333333,4,2,1,70,0,0
16131,-83.3333333333333,4,2,1,70,0,0
16207,-83.3333333333333,4,2,1,70,0,0
16356,-83.3333333333333,4,2,1,70,0,0
16507,-83.3333333333333,4,2,1,70,0,0
16956,-83.3333333333333,4,2,1,70,0,0
17107,-83.3333333333333,4,2,1,70,0,0
17181,-83.3333333333333,4,2,1,70,0,0
17257,-83.3333333333333,4,2,1,70,0,0
17331,-83.3333333333333,4,2,1,70,0,0
17407,-83.3333333333333,4,2,1,70,0,0
19807,-142.857142857143,4,2,1,70,0,0
20107,-142.857142857143,4,2,1,5,0,0
20331,-142.857142857143,4,2,1,5,0,0
20407,-100,4,2,1,60,0,0
30007,-83.3333333333333,4,2,1,70,0,0
30156,-83.3333333333333,4,2,1,70,0,0
30307,-83.3333333333333,4,2,1,70,0,0
30381,-83.3333333333333,4,2,1,70,0,0
30457,-83.3333333333333,4,2,1,70,0,0
30531,-83.3333333333333,4,2,1,70,0,0
30607,-83.3333333333333,4,2,1,70,0,0
30756,-83.3333333333333,4,2,1,70,0,0
30907,-83.3333333333333,4,2,1,70,0,0
31356,-83.3333333333333,4,2,1,70,0,0
31507,-83.3333333333333,4,2,1,70,0,0
31581,-83.3333333333333,4,2,1,70,0,0
31657,-83.3333333333333,4,2,1,70,0,0
31731,-83.3333333333333,4,2,1,70,0,0
31807,-83.3333333333333,4,2,1,70,0,0
32556,-83.3333333333333,4,2,1,70,0,0
32707,-83.3333333333333,4,2,1,70,0,0
32781,-83.3333333333333,4,2,1,70,0,0
32857,-83.3333333333333,4,2,1,70,0,0
32931,-83.3333333333333,4,2,1,70,0,0
33007,-83.3333333333333,4,2,1,70,0,0
33156,-83.3333333333333,4,2,1,70,0,0
33307,-83.3333333333333,4,2,1,70,0,0
33756,-83.3333333333333,4,2,1,70,0,0
33907,-83.3333333333333,4,2,1,70,0,0
33981,-83.3333333333333,4,2,1,70,0,0
34057,-83.3333333333333,4,2,1,70,0,0
34131,-83.3333333333333,4,2,1,70,0,0
34207,-83.3333333333333,4,2,1,70,0,0
34956,-83.3333333333333,4,2,1,70,0,0
35107,-83.3333333333333,4,2,1,70,0,0
35181,-83.3333333333333,4,2,1,70,0,0
35257,-83.3333333333333,4,2,1,70,0,0
35331,-83.3333333333333,4,2,1,70,0,0
35407,-83.3333333333333,4,2,1,70,0,0
35556,-83.3333333333333,4,2,1,70,0,0
35707,-83.3333333333333,4,2,1,70,0,0
36156,-83.3333333333333,4,2,1,70,0,0
36307,-83.3333333333333,4,2,1,70,0,0
36381,-83.3333333333333,4,2,1,70,0,0
36457,-83.3333333333333,4,2,1,70,0,0
36531,-83.3333333333333,4,2,1,70,0,0
36607,-83.3333333333333,4,2,1,70,0,0
39007,-142.857142857143,4,2,1,70,0,0
39531,-142.857142857143,4,2,1,5,0,0
39607,-100,4,2,1,60,0,0
49207,-117.647058823529,4,2,1,60,0,0
58807,-117.647058823529,4,2,1,50,0,0
58957,-117.647058823529,4,2,1,50,0,0
59107,-117.647058823529,4,2,1,50,0,0
59257,-117.647058823529,4,2,1,50,0,0
59407,-117.647058823529,4,2,1,50,0,0
59482,-117.647058823529,4,2,1,50,0,0
59707,-117.647058823529,4,2,1,50,0,0
59782,-117.647058823529,4,2,1,50,0,0
60007,-117.647058823529,4,2,1,50,0,0
60757,-117.647058823529,4,2,1,50,0,0
60907,-117.647058823529,4,2,1,50,0,0
63007,-117.647058823529,4,2,1,50,0,0
63307,-117.647058823529,4,2,1,50,0,0
63607,-117.647058823529,4,2,1,60,0,0
67207,-117.647058823529,4,2,1,40,0,0
67807,-117.647058823529,4,2,1,40,0,0
68107,-117.647058823529,4,2,1,60,0,0
68407,-83.3333333333333,4,2,1,80,0,1
87607,-83.3333333333333,4,2,1,70,0,0
88431,-83.3333333333333,4,2,1,70,0,0
88507,-83.3333333333333,4,2,1,70,0,0
90156,-83.3333333333333,4,2,1,70,0,0
90232,-83.3333333333333,4,2,1,70,0,0
93156,-83.3333333333333,4,2,1,70,0,0
93232,-83.3333333333333,4,2,1,70,0,0
96007,-133.333333333333,4,2,1,70,0,0
96082,-133.333333333333,4,2,1,70,0,0
97207,-133.333333333333,4,2,1,60,0,0
97507,-100,4,2,1,60,0,0
106807,-83.3333333333333,4,2,1,70,0,0
107331,-83.3333333333333,4,2,1,70,0,0
107407,-83.3333333333333,4,2,1,70,0,0
107556,-83.3333333333333,4,2,1,70,0,0
107707,-83.3333333333333,4,2,1,70,0,0
108156,-83.3333333333333,4,2,1,70,0,0
108307,-83.3333333333333,4,2,1,70,0,0
108531,-83.3333333333333,4,2,1,70,0,0
108607,-83.3333333333333,4,2,1,70,0,0
109356,-83.3333333333333,4,2,1,70,0,0
109507,-83.3333333333333,4,2,1,70,0,0
109581,-83.3333333333333,4,2,1,70,0,0
109657,-83.3333333333333,4,2,1,70,0,0
109731,-83.3333333333333,4,2,1,70,0,0
109807,-83.3333333333333,4,2,1,70,0,0
109956,-83.3333333333333,4,2,1,70,0,0
110107,-83.3333333333333,4,2,1,70,0,0
110556,-83.3333333333333,4,2,1,70,0,0
110707,-83.3333333333333,4,2,1,70,0,0
110781,-83.3333333333333,4,2,1,70,0,0
110857,-83.3333333333333,4,2,1,70,0,0
110931,-83.3333333333333,4,2,1,70,0,0
111007,-83.3333333333333,4,2,1,70,0,0
112131,-83.3333333333333,4,2,1,70,0,0
112207,-83.3333333333333,4,2,1,70,0,0
112356,-83.3333333333333,4,2,1,70,0,0
112507,-83.3333333333333,4,2,1,70,0,0
112581,-83.3333333333333,4,2,1,70,0,0
112656,-83.3333333333333,4,2,1,70,0,0
112731,-83.3333333333333,4,2,1,70,0,0
112807,-83.3333333333333,4,2,1,70,0,0
112956,-83.3333333333333,4,2,1,70,0,0
113107,-83.3333333333333,4,2,1,70,0,0
113331,-83.3333333333333,4,2,1,70,0,0
113407,-83.3333333333333,4,2,1,70,0,0
115807,-250,4,2,1,70,0,0
116407,-100,4,2,1,60,0,0
126007,-117.647058823529,4,2,1,60,0,0
135607,-117.647058823529,4,2,1,50,0,0
135757,-117.647058823529,4,2,1,50,0,0
135907,-117.647058823529,4,2,1,50,0,0
136057,-117.647058823529,4,2,1,50,0,0
136207,-117.647058823529,4,2,1,50,0,0
136282,-117.647058823529,4,2,1,50,0,0
136507,-117.647058823529,4,2,1,50,0,0
136582,-117.647058823529,4,2,1,50,0,0
136807,-117.647058823529,4,2,1,50,0,0
137557,-117.647058823529,4,2,1,50,0,0
137707,-117.647058823529,4,2,1,50,0,0
138682,-117.647058823529,4,2,1,50,0,0
138757,-117.647058823529,4,2,1,50,0,0
138832,-117.647058823529,4,2,1,50,0,0
138907,-117.647058823529,4,2,1,50,0,0
138982,-117.647058823529,4,2,1,50,0,0
139057,-117.647058823529,4,2,1,50,0,0
139132,-117.647058823529,4,2,1,50,0,0
139207,-117.647058823529,4,2,1,50,0,0
139807,-117.647058823529,4,2,1,50,0,0
139957,-117.647058823529,4,2,1,50,0,0
140257,-117.647058823529,4,2,1,50,0,0
140407,-117.647058823529,4,2,1,50,0,0
140857,-117.647058823529,4,2,1,50,0,0
141007,-117.647058823529,4,2,1,50,0,0
141082,-117.647058823529,4,2,1,50,0,0
141307,-117.647058823529,4,2,1,50,0,0
141382,-117.647058823529,4,2,1,50,0,0
141457,-117.647058823529,4,2,1,50,0,0
141532,-117.647058823529,4,2,1,50,0,0
141607,-117.647058823529,4,2,1,50,0,0
142357,-117.647058823529,4,2,1,50,0,0
142507,-117.647058823529,4,2,1,50,0,0
142882,-117.647058823529,4,2,1,50,0,0
142957,-117.647058823529,4,2,1,50,0,0
143032,-117.647058823529,4,2,1,50,0,0
143107,-117.647058823529,4,2,1,50,0,0
143182,-117.647058823529,4,2,1,50,0,0
143257,-117.647058823529,4,2,1,50,0,0
143332,-117.647058823529,4,2,1,50,0,0
143407,-117.647058823529,4,2,1,50,0,0
143482,-117.647058823529,4,2,1,50,0,0
143557,-117.647058823529,4,2,1,50,0,0
143632,-117.647058823529,4,2,1,50,0,0
143707,-117.647058823529,4,2,1,50,0,0
143782,-117.647058823529,4,2,1,50,0,0
143857,-117.647058823529,4,2,1,50,0,0
143932,-117.647058823529,4,2,1,50,0,0
144007,-100,4,2,1,50,0,0
145207,-100,4,2,1,50,0,0
154807,-133.333333333333,4,2,1,50,0,0
160807,-100,4,2,1,50,0,0
164707,300,4,2,1,80,1,1
164707,-80,4,2,1,80,0,1
182257,-80,4,2,1,80,0,1
182407,-80,4,2,1,80,0,1
182557,-80,4,2,1,80,0,1
182707,-80,4,2,1,80,0,1
183907,292.682926829268,4,2,1,70,1,0
183907,-100,4,2,1,70,0,0
184053,-100,4,2,1,70,0,0
184199,-100,4,2,1,70,0,0
184272,-100,4,2,1,70,0,0
184345,-100,4,2,1,70,0,0
184418,-100,4,2,1,70,0,0
184492,-100,4,2,1,70,0,0
184638,-100,4,2,1,70,0,0
184785,-100,4,2,1,70,0,0
184858,-100,4,2,1,70,0,0
184931,-100,4,2,1,70,0,0
185004,-100,4,2,1,70,0,0
185077,-100,4,2,1,70,0,0
185223,-100,4,2,1,70,0,0
185370,-100,4,2,1,70,0,0
185443,-100,4,2,1,70,0,0
185516,-100,4,2,1,70,0,0
185589,-100,4,2,1,70,0,0
185663,-100,4,2,1,70,0,0
186394,-100,4,2,1,70,0,0
186541,-100,4,2,1,70,0,0
186614,-100,4,2,1,70,0,0
186687,-100,4,2,1,70,0,0
186760,-100,4,2,1,70,0,0
186833,-100,4,2,1,70,0,0
186979,-100,4,2,1,70,0,0
187126,-100,4,2,1,70,0,0
187199,-100,4,2,1,70,0,0
187272,-100,4,2,1,70,0,0
187345,-100,4,2,1,70,0,0
187419,-100,4,2,1,70,0,0
187565,-100,4,2,1,70,0,0
187711,-100,4,2,1,70,0,0
187784,-100,4,2,1,70,0,0
187858,-100,4,2,1,70,0,0
187931,-100,4,2,1,70,0,0
188004,-100,4,2,1,70,0,0
188589,285.714285714286,4,2,1,70,1,0
188589,-100,4,2,1,70,0,0
188731,-100,4,2,1,70,0,0
188874,-100,4,2,1,70,0,0
188945,-100,4,2,1,70,0,0
189017,-100,4,2,1,70,0,0
189088,-100,4,2,1,70,0,0
189160,-100,4,2,1,70,0,0
189302,-100,4,2,1,70,0,0
189446,-100,4,2,1,70,0,0
189517,-100,4,2,1,70,0,0
189588,-100,4,2,1,70,0,0
189660,-100,4,2,1,70,0,0
189731,-100,4,2,1,70,0,0
189873,-100,4,2,1,70,0,0
190017,-100,4,2,1,70,0,0
190088,-100,4,2,1,70,0,0
190160,-100,4,2,1,70,0,0
190231,-100,4,2,1,70,0,0
190303,-100,4,2,1,70,0,0
190874,-100,4,2,1,70,0,0
191065,-100,4,2,1,70,0,0
193160,279.06976744186,4,2,1,70,1,0
193439,-90.9090909090909,4,2,1,80,0,0
202090,272.727272727273,4,2,1,80,1,0
202090,-83.3333333333333,4,2,1,80,0,0
202499,-83.3333333333333,4,2,1,80,0,0
202635,-83.3333333333333,4,2,1,80,0,0
202771,-83.3333333333333,4,2,1,80,0,0
202908,-83.3333333333333,4,2,1,80,0,0
203590,-83.3333333333333,4,2,1,80,0,0
203726,-83.3333333333333,4,2,1,80,0,0
204135,-83.3333333333333,4,2,1,80,0,0
204271,-83.3333333333333,4,2,1,80,0,0
204680,-83.3333333333333,4,2,1,80,0,0
204817,-83.3333333333333,4,2,1,80,0,0
204953,-83.3333333333333,4,2,1,80,0,0
205090,-83.3333333333333,4,2,1,80,0,0
205498,-83.3333333333333,4,2,1,80,0,0
205635,-83.3333333333333,4,2,1,80,0,0
205771,-83.3333333333333,4,2,1,80,0,0
205908,-83.3333333333333,4,2,1,80,0,0
206453,292.682926829268,4,2,1,80,1,0
206453,-86.9565217391304,4,2,1,80,0,0
206892,-86.9565217391304,4,2,1,80,0,0
207038,-86.9565217391304,4,2,1,80,0,0
207184,-86.9565217391304,4,2,1,80,0,0
207331,-86.9565217391304,4,2,1,80,0,0
207623,315.789473684211,4,2,1,75,1,0
207623,-90.9090909090909,4,2,1,75,0,0
208096,-90.9090909090909,4,2,1,75,0,0
208254,-90.9090909090909,4,2,1,75,0,0
208728,-90.9090909090909,4,2,1,75,0,0
208886,342.857142857143,4,2,1,70,1,0
209143,-100,4,2,1,70,0,0
209571,375,4,2,1,65,1,0
210321,400,4,2,1,60,1,0

[Colours]
Combo1 : 248,213,139
Combo2 : 255,26,26
Combo3 : 0,204,204
Combo4 : 107,27,180

[HitObjects]
88,96,907,5,2,0:2:0:0:
88,96,1057,1,2,0:2:0:0:
88,96,1207,2,0,P|154:103|216:169,1,150,2|0,0:2|0:0,0:0:0:0:
211,159,1807,2,0,L|193:280,2,112.5,2|2|2,0:2|0:2|0:2,0:0:0:0:
274,99,2407,6,0,P|325:152|398:162,1,150,2|0,0:2|0:0,0:0:0:0:
398,162,3007,2,0,L|414:50,2,112.5,2|2|2,0:2|0:2|0:2,0:0:0:0:
461,235,3607,6,0,B|418:266|418:266|404:367,1,150,2|0,0:2|0:0,0:0:0:0:
404,362,4207,2,0,L|288:350,2,112.5,2|2|2,0:2|0:2|0:2,0:0:0:0:
260,260,4807,2,0,L|376:248,2,112.5,2|2|2,0:2|0:2|0:2,0:0:0:0:
201,326,5407,2,0,B|170:283|170:283|69:269,1,150,2|2,0:2|0:2,0:0:0:0:
30,74,6007,5,2,0:2:0:0:
52,72,6157,1,0,0:0:0:0:
74,70,6307,1,0,0:0:0:0:
96,68,6457,1,0,0:0:0:0:
297,17,7207,5,2,0:2:0:0:
319,19,7357,1,0,0:0:0:0:
341,21,7507,1,0,0:0:0:0:
363,23,7657,1,0,0:0:0:0:
486,232,8407,6,0,P|434:212|399:206,1,75,2|0,0:2|0:0,0:0:0:0:
343,155,8707,2,0,P|291:175|256:181,1,75,0|2,0:0|0:2,0:0:0:0:
216,248,9007,2,0,P|168:213|74:202,1,150,0|2,0:0|0:2,0:0:0:0:
125,112,9457,1,0,0:0:0:0:
197,47,9607,2,0,B|251:29|251:29|314:43,2,112.5,2|2|2,0:2|0:2|0:2,0:0:0:0:
256,108,10207,1,2,0:2:0:0:
427,218,10507,6,0,L|480:206,3,37.5,6|0|2|0,1:2|1:2|1:2|1:2,0:0:0:0:
384,293,10807,6,0,P|337:280|286:271,1,89.9999972534181,6|0,1:2|0:0,0:0:0:0:
161,335,11107,2,0,P|166:307|170:287,1,44.999998626709,10|2,0:2|0:0,0:0:0:0:
152,330,11257,2,0,P|157:302|161:282,1,44.999998626709,2|2,0:2|0:0,0:0:0:0:
133,340,11407,2,0,P|75:345|29:356,1,89.9999972534181,2|0,1:2|0:0,0:0:0:0:
96,209,11707,2,0,P|154:204|200:193,1,89.9999972534181,10|2,0:2|0:2,0:0:0:0:
287,107,12007,6,0,P|282:49|271:3,1,89.9999972534181,2|0,1:2|0:0,0:0:0:0:
203,198,12307,2,0,P|209:224|212:262,1,44.999998626709,10|2,0:2|0:0,0:0:0:0:
213,191,12457,2,0,P|219:217|222:255,1,44.999998626709,2|2,0:2|0:0,0:0:0:0:
237,197,12607,2,0,B|282:191|282:191|339:221,1,89.9999972534181,2|2,1:2|0:2,0:0:0:0:
405,319,12907,2,0,B|360:325|360:325|303:295,1,89.9999972534181,10|2,0:2|0:2,0:0:0:0:
463,257,13207,6,0,P|466:210|472:143,1,89.9999972534181,2|0,1:2|0:0,0:0:0:0:
394,47,13507,2,0,P|392:20|390:-4,1,44.999998626709,10|0,0:2|0:0,0:0:0:0:
385,53,13657,2,0,P|383:26|381:2,1,44.999998626709,2|0,0:2|0:0,0:0:0:0:
366,75,13807,2,0,L|265:62,1,89.9999972534181,2|0,1:2|0:0,0:0:0:0:
154,160,14107,2,0,L|243:148,1,89.9999972534181,10|2,0:2|0:2,0:0:0:0:
69,27,14407,6,0,P|80:77|75:115,1,89.9999972534181,2|0,1:2|0:0,0:0:0:0:
45,244,14707,2,0,P|20:259|2:272,1,44.999998626709,10|0,0:2|0:0,0:0:0:0:
52,253,14857,2,0,P|27:268|9:281,1,44.999998626709,2|0,0:2|0:0,0:0:0:0:
74,273,15007,5,2,3:2:0:0:
107,259,15107,5,2,3:2:0:0:
142,254,15207,5,2,3:2:0:0:
177,261,15307,5,2,3:2:0:0:
208,278,15407,5,2,3:2:0:0:
232,304,15507,5,2,3:2:0:0:
247,336,15607,6,0,P|215:304|221:238,1,89.9999972534181,6|0,1:2|0:0,0:0:0:0:
336,178,15907,2,0,P|364:184|383:190,1,44.999998626709,10|2,0:2|0:0,0:0:0:0:
329,167,16057,2,0,P|301:173|282:179,1,44.999998626709,2|2,0:2|0:0,0:0:0:0:
343,143,16207,2,0,P|350:76|351:29,1,89.9999972534181,2|0,1:2|0:0,0:0:0:0:
475,149,16507,2,0,P|477:193|482:238,1,89.9999972534181,10|2,0:2|0:2,0:0:0:0:
374,374,16807,6,0,P|350:314|365:269,1,89.9999972534181,2|0,1:2|0:0,0:0:0:0:
187,337,17107,2,0,P|200:311|206:289,1,44.999998626709,10|2,0:2|0:0,0:0:0:0:
174,331,17257,2,0,P|181:352|191:372,1,44.999998626709,2|2,0:2|0:0,0:0:0:0:
150,343,17407,2,0,P|101:318|61:311,1,89.9999972534181,2|2,1:2|0:2,0:0:0:0:
195,217,17707,2,0,P|234:195|278:185,1,89.9999972534181,10|2,0:2|0:2,0:0:0:0:
48,5,18007,5,6,3:2:0:0:
11,87,18207,1,2,3:2:0:0:
48,169,18407,1,2,3:2:0:0:
195,217,18607,6,0,B|195:230|195:230|187:247,2,29.9999990844727,6|0|0,3:2|3:0|3:0,0:0:0:0:
139,112,18807,1,2,3:2:0:0:
11,87,19007,1,2,3:2:0:0:
73,267,19207,6,0,B|81:283|81:283|78:299,2,29.9999990844727,6|0|0,3:2|3:0|3:0,0:0:0:0:
195,217,19407,1,2,3:2:0:0:
304,273,19607,1,2,3:2:0:0:
412,208,19807,2,0,B|432:169|421:103|385:132|375:72|393:32,1,183.749994392395,6|0,3:2|0:0,0:0:0:0:
399,18,20407,6,0,P|431:20|471:60,2,75,6|0|10,1:2|0:2|0:2,0:0:0:0:
301,92,20857,1,2,1:2:0:0:
259,175,21007,2,0,P|205:141|91:128,1,150,2|10,0:2|0:2,0:0:0:0:
181,232,21457,1,0,0:2:0:0:
115,278,21607,6,0,B|95:241|95:241|112:191,1,75,2|0,1:2|0:2,0:0:0:0:
243,285,21907,2,0,B|263:322|263:322|246:372,1,75,10|2,0:2|0:2,0:0:0:0:
424,251,22207,1,2,0:2:0:0:
424,251,22507,2,0,L|340:265,1,75,10|0,0:2|3:2,0:0:0:0:
154,124,22807,5,2,1:2:0:0:
234,165,22957,1,0,0:2:0:0:
171,48,23107,2,0,P|127:51|89:82,1,75,10|2,0:2|1:2,0:0:0:0:
247,80,23407,2,0,P|254:43|243:7,1,75,2|0,0:2|0:0,0:0:0:0:
327,123,23707,1,10,0:2:0:0:
410,101,23857,1,0,0:2:0:0:
497,205,24007,6,0,L|485:291,1,75,2|0,1:2|0:2,0:0:0:0:
365,372,24307,2,0,L|354:297,1,75,10|2,0:2|0:2,0:0:0:0:
221,338,24607,2,0,P|221:367|218:380,2,37.5,2|0|0,0:2|0:0|0:0,0:0:0:0:
125,273,24907,2,0,P|89:297|44:312,1,75,10|0,0:2|0:2,0:0:0:0:
160,140,25207,6,0,P|184:168|213:191,1,75,2|0,1:2|0:2,0:0:0:0:
311,219,25507,1,10,0:2:0:0:
311,219,25657,1,2,1:2:0:0:
349,307,25807,2,0,P|385:280|484:244,1,150,2|10,0:2|0:2,0:0:0:0:
414,168,26257,1,0,0:2:0:0:
480,107,26407,6,0,L|498:25,1,75,2|0,1:2|0:2,0:0:0:0:
363,98,26707,1,10,0:2:0:0:
414,168,26857,1,2,0:2:0:0:
267,126,27007,2,0,L|185:108,1,75,2|0,0:2|0:0,0:0:0:0:
128,212,27307,2,0,L|201:195,1,75,10|0,0:2|3:2,0:0:0:0:
156,41,27607,6,0,P|119:84|116:117,1,75,2|0,1:2|0:2,0:0:0:0:
241,265,27907,2,0,P|278:222|281:189,1,75,10|2,0:2|1:2,0:0:0:0:
128,212,28207,2,0,L|112:303,1,75,2|0,0:2|1:2,0:0:0:0:
254,339,28507,2,0,L|241:265,1,75,10|2,0:2|0:2,0:0:0:0:
371,144,28807,5,2,1:2:0:0:
349,226,28957,1,2,1:2:0:0:
438,206,29107,2,0,L|525:215,1,75,10|2,1:2|1:2,0:0:0:0:
378,55,29407,2,0,P|354:64|340:66,3,37.5,2|0|0|0,1:2|1:2|1:2|1:2,0:0:0:0:
305,94,29707,2,0,P|281:85|267:83,3,37.5,10|0|2|0,1:2|1:2|1:2|1:2,0:0:0:0:
173,22,30007,6,0,P|184:69|188:132,1,89.9999972534181,6|0,1:2|0:0,0:0:0:0:
69,180,30307,2,0,P|85:175|128:163,1,44.999998626709,10|2,0:2|0:0,0:0:0:0:
80,193,30457,2,0,P|96:198|139:210,1,44.999998626709,2|2,0:2|0:0,0:0:0:0:
76,220,30607,2,0,P|65:276|62:335,1,89.9999972534181,2|0,1:2|0:0,0:0:0:0:
187,376,30907,2,0,P|182:331|173:287,1,89.9999972534181,10|2,0:2|0:2,0:0:0:0:
261,180,31207,6,0,L|370:191,1,89.9999972534181,2|0,1:2|0:0,0:0:0:0:
475,306,31507,2,0,P|485:285|489:254,1,44.999998626709,10|2,0:2|0:0,0:0:0:0:
461,314,31657,2,0,P|465:336|474:356,1,44.999998626709,2|2,0:2|0:0,0:0:0:0:
436,303,31807,2,0,P|384:287|339:282,1,89.9999972534181,2|2,1:2|0:2,0:0:0:0:
187,376,32107,1,10,0:2:0:0:
282,355,32257,1,2,0:2:0:0:
162,287,32407,6,0,P|109:273|71:265,1,89.9999972534181,2|0,1:2|0:0,0:0:0:0:
236,137,32707,2,0,P|238:155|240:197,1,44.999998626709,10|0,0:2|0:0,0:0:0:0:
224,141,32857,2,0,P|221:163|220:185,1,44.999998626709,2|0,0:2|0:0,0:0:0:0:
188,131,33007,2,0,P|135:145|97:153,1,89.9999972534181,2|0,1:2|0:0,0:0:0:0:
256,28,33307,2,0,P|299:37|343:49,1,89.9999972534181,10|2,0:2|0:2,0:0:0:0:
466,146,33607,6,0,L|444:253,1,89.9999972534181,2|0,1:2|0:0,0:0:0:0:
382,355,33907,2,0,L|372:296,1,44.999998626709,10|0,0:2|0:0,0:0:0:0:
373,363,34057,2,0,L|363:304,1,44.999998626709,2|0,0:2|0:0,0:0:0:0:
339,353,34207,5,2,3:2:0:0:
311,330,34307,5,2,3:2:0:0:
278,313,34407,5,2,3:2:0:0:
242,305,34507,5,2,3:2:0:0:
206,302,34607,5,2,3:2:0:0:
170,307,34707,5,2,3:2:0:0:
137,322,34807,6,0,P|153:282|146:204,1,89.9999972534181,6|0,1:2|0:0,0:0:0:0:
85,89,35107,2,0,P|111:79|137:67,1,44.999998626709,10|0,0:2|0:0,0:0:0:0:
74,101,35257,2,0,P|48:91|22:79,1,44.999998626709,2|0,0:2|0:0,0:0:0:0:
86,132,35407,2,0,P|86:73|92:15,1,89.9999972534181,2|0,1:2|0:0,0:0:0:0:
220,97,35707,2,0,P|222:141|222:186,1,89.9999972534181,10|2,0:2|0:2,0:0:0:0:
414,79,36007,6,0,L|291:57,1,89.9999972534181,2|0,1:2|0:0,0:0:0:0:
286,275,36307,2,0,P|295:252|296:228,1,44.999998626709,10|0,0:2|0:0,0:0:0:0:
299,285,36457,2,0,P|308:308|309:332,1,44.999998626709,2|0,0:2|0:0,0:0:0:0:
334,274,36607,2,0,P|390:272|432:263,1,89.9999972534181,2|2,1:2|0:2,0:0:0:0:
227,361,36907,2,0,P|182:353|137:352,1,89.9999972534181,10|2,0:2|0:2,0:0:0:0:
35,239,37207,5,6,3:2:0:0:
148,208,37407,1,2,3:2:0:0:
240,282,37607,1,2,3:2:0:0:
95,357,37807,6,0,B|86:372|86:372|89:394,2,29.9999990844727,6|0|0,3:2|3:0|3:0,0:0:0:0:
35,239,38007,1,2,3:2:0:0:
100,123,38207,1,2,3:2:0:0:
218,114,38407,6,0,B|220:134|220:134|212:153,2,29.9999990844727,6|0|0,3:2|3:0|3:0,0:0:0:0:
328,146,38607,1,2,3:2:0:0:
438,109,38807,1,2,3:2:0:0:
485,8,39007,6,0,B|442:0|396:16|416:42|358:63|307:43,1,183.749994392395,6|0,3:2|0:0,0:0:0:0:
287,26,39607,6,0,P|327:6|362:11,2,75,6|0|10,1:2|0:2|0:2,0:0:0:0:
218,114,40057,1,2,0:2:0:0:
277,187,40207,2,0,P|343:192|418:251,1,150,2|10,1:2|0:2,0:0:0:0:
447,340,40657,1,0,0:2:0:0:
385,379,40807,6,0,B|353:358|353:358|289:364,1,75,2|0,1:2|0:2,0:0:0:0:
426,262,41107,2,0,B|462:265|462:265|494:244,1,75,10|2,0:2|0:2,0:0:0:0:
420,97,41407,1,2,1:2:0:0:
420,97,41707,2,0,L|320:118,1,75,10|0,0:2|0:2,0:0:0:0:
176,48,42007,5,2,1:2:0:0:
106,101,42157,1,0,0:2:0:0:
29,56,42307,2,0,P|80:13|118:12,1,75,10|2,0:2|0:2,0:0:0:0:
109,188,42607,2,0,P|46:165|26:132,1,75,2|0,1:2|0:0,0:0:0:0:
199,170,42907,1,10,0:2:0:0:
269,117,43057,1,0,0:2:0:0:
336,269,43207,6,0,L|231:254,1,75,2|0,1:2|0:2,0:0:0:0:
426,210,43507,2,0,L|531:195,1,75,10|2,0:2|0:2,0:0:0:0:
352,119,43807,2,0,L|336:30,1,75,2|0,1:2|0:0,0:0:0:0:
488,14,44107,2,0,L|474:87,1,75,10|0,0:2|0:2,0:0:0:0:
474,366,44407,5,6,1:2:0:0:
399,330,44557,1,0,0:2:0:0:
320,354,44707,2,0,P|249:349|216:342,1,75,10|2,0:2|0:2,0:0:0:0:
162,251,45007,2,0,P|199:246|236:245,1,75,2|0,1:2|0:0,0:0:0:0:
111,354,45307,1,10,0:2:0:0:
111,354,45457,1,0,0:2:0:0:
19,260,45607,6,0,P|27:209|30:165,1,75,2|0,1:2|0:2,0:0:0:0:
100,88,45907,2,0,P|103:125|110:162,1,75,10|2,0:2|0:2,0:0:0:0:
262,64,46207,2,0,P|224:60|187:53,1,75,2|0,1:2|0:0,0:0:0:0:
317,175,46507,2,0,P|353:168|391:164,1,75,10|0,0:2|0:2,0:0:0:0:
488,51,46807,6,0,P|484:67|483:94,3,37.5,2|0|0|0,1:2|1:2|1:2|1:2,0:0:0:0:
462,125,47107,2,0,P|472:175|477:225,1,75,10|0,1:2|1:2,0:0:0:0:
434,355,47407,2,0,P|416:342|381:328,3,37.5,10|0|2|0,1:2|1:2|1:2|1:2,0:0:0:0:
346,290,47707,2,0,P|328:303|293:317,3,37.5,10|0|0|0,1:2|1:2|1:2|1:2,0:0:0:0:
243,341,48007,6,0,P|239:360|236:390,1,37.5,10|0,1:2|1:2,0:0:0:0:
226,331,48157,2,0,P|228:312|232:294,1,37.5,2|0,1:2|1:2,0:0:0:0:
131,342,48307,6,0,P|118:356|100:380,1,37.5,10|0,1:2|1:2,0:0:0:0:
121,324,48457,2,0,P|132:309|144:295,1,37.5,2|0,1:2|1:2,0:0:0:0:
24,288,48607,5,10,1:2:0:0:
24,288,49207,6,0,B|51:242|51:242|27:98,1,191.250003647804,6|0,1:2|3:2,0:0:0:0:
88,5,49807,2,0,B|97:67|97:67|101:76|101:76|110:142,1,127.50000243187,10|0,0:2|0:0,0:0:0:0:
108,130,50407,6,0,L|175:121,1,63.7500012159348,2|2,1:2|0:2,0:0:0:0:
239,28,50707,2,0,L|172:37,1,63.7500012159348,2|2,3:2|0:2,0:0:0:0:
313,98,51007,1,10,0:2:0:0:
313,98,51307,2,0,L|376:89,1,63.7500012159348,2|0,0:2|0:2,0:0:0:0:
490,180,51607,6,0,B|465:162|465:162|388:172,2,95.6250018239022,2|0|2,1:2|3:2|1:2,0:0:0:0:
448,245,52207,2,0,L|470:385,1,127.50000243187,10|2,0:2|0:2,0:0:0:0:
309,329,52657,1,2,0:2:0:0:
376,276,52807,2,0,L|387:345,1,63.7500012159348,0|2,1:2|0:2,0:0:0:0:
309,329,53107,2,0,L|299:266,1,63.7500012159348,2|2,3:2|0:2,0:0:0:0:
247,380,53407,2,0,B|224:353|224:353|126:361,1,127.50000243187,0|8,0:0|0:0,0:0:0:0:
49,91,54007,6,0,B|83:68|83:68|96:227,1,191.250003647804,6|0,1:2|3:2,0:0:0:0:
174,303,54607,2,0,B|167:242|167:242|171:230|171:230|164:154,1,127.50000243187,10|0,0:2|0:0,0:0:0:0:
285,25,55207,6,0,L|222:34,1,63.7500012159348,2|2,1:2|0:2,0:0:0:0:
323,109,55507,2,0,L|386:100,1,63.7500012159348,2|2,3:2|0:2,0:0:0:0:
442,0,55807,1,10,0:2:0:0:
442,0,56107,2,0,L|379:9,1,63.7500012159348,2|0,0:2|0:2,0:0:0:0:
330,195,56407,6,0,B|343:177|343:177|389:171|389:171|409:190,2,95.6250018239022,2|0|2,1:2|3:2|1:2,0:0:0:0:
392,382,57007,2,0,L|377:244,1,127.50000243187,10|2,0:2|0:2,0:0:0:0:
476,336,57607,6,0,L|468:267,1,63.7500012159348,2|0,1:2|0:0,0:0:0:0:
302,355,57907,2,0,L|294:286,1,63.7500012159348,2|2,3:2|0:2,0:0:0:0:
378,255,58207,2,0,L|392:382,1,127.50000243187,8|0,0:2|0:0,0:0:0:0:
73,312,58807,5,6,0:2:0:0:
73,312,58957,1,0,0:0:0:0:
150,288,59107,2,0,P|150:336|133:367,1,63.7500012159348,8|0,0:2|0:0,0:0:0:0:
22,250,59407,2,0,L|18:204,3,31.8750006079674,2|0|0|0,0:2|1:0|1:0|1:0,0:0:0:0:
0,174,59707,2,0,L|4:128,3,31.8750006079674,8|0|0|0,0:2|1:0|1:0|1:0,0:0:0:0:
61,85,60007,6,0,P|99:101|126:117,1,63.7500012159348,2|2,0:2|0:2,0:0:0:0:
204,102,60307,2,0,P|200:143|193:173,1,63.7500012159348,10|2,0:2|0:2,0:0:0:0:
268,207,60607,2,0,P|306:191|333:175,1,63.7500012159348,2|0,0:2|0:0,0:0:0:0:
411,190,60907,2,0,P|407:148|400:118,1,63.7500012159348,10|0,0:2|0:2,0:0:0:0:
508,323,61207,5,2,0:2:0:0:
508,323,61357,1,0,0:2:0:0:
441,269,61507,2,0,P|394:274|375:278,1,63.7500012159348,10|2,0:2|0:2,0:0:0:0:
281,370,61807,2,0,P|328:365|347:361,1,63.7500012159348,2|0,0:2|0:2,0:0:0:0:
291,222,62107,2,0,P|296:269|300:288,1,63.7500012159348,10|2,0:2|0:2,0:0:0:0:
194,372,62407,6,0,P|212:290|206:232,2,127.50000243187,2|10|0,0:2|0:2|0:0,0:0:0:0:
46,170,63307,1,8,0:2:0:0:
271,60,63607,5,6,3:2:0:0:
271,60,63757,1,0,1:2:0:0:
192,10,63907,2,0,P|147:19|110:30,1,63.7500012159348,8|0,0:2|0:0,0:0:0:0:
329,130,64207,2,0,L|378:120,3,31.8750006079674,2|0|0|0,0:2|0:0|0:0|0:0,0:0:0:0:
396,94,64507,2,0,L|427:100,3,31.8750006079674,8|0|0|0,0:2|0:0|1:2|0:0,0:0:0:0:
472,162,64807,6,0,P|461:227|459:241,1,63.7500012159348,6|2,3:2|1:2,0:0:0:0:
402,339,65107,2,0,P|391:274|389:260,1,63.7500012159348,10|2,0:2|0:2,0:0:0:0:
512,296,65407,2,0,P|447:285|433:283,1,63.7500012159348,2|0,0:2|0:0,0:0:0:0:
337,226,65707,2,0,P|402:215|416:213,1,63.7500012159348,10|0,0:2|1:2,0:0:0:0:
274,338,66007,6,0,L|266:368,1,31.8750006079674,6|0,3:2|0:0,0:0:0:0:
204,307,66157,2,0,L|196:337,1,31.8750006079674,0|0,1:2|0:0,0:0:0:0:
134,276,66307,2,0,L|126:306,3,31.8750006079674,10|0|2|0,0:2|0:0|3:2|0:0,0:0:0:0:
25,206,66607,6,0,L|33:236,1,31.8750006079674,6|0,1:2|0:0,0:0:0:0:
95,175,66757,2,0,L|103:205,1,31.8750006079674,0|0,1:2|0:0,0:0:0:0:
165,144,66907,2,0,L|173:174,3,31.8750006079674,2|0|0|0,3:2|0:0|1:2|0:0,0:0:0:0:
192,54,67207,6,0,B|248:26|337:55|293:106|375:130|436:106,1,255.000004863739,6|0,1:2|0:0,0:0:0:0:
473,44,68107,2,0,B|497:64|497:64|503:97,1,63.7500012159348,2|0,0:2|0:0,0:0:0:0:
398,284,68407,6,0,L|282:293,1,89.9999972534181,6|0,1:2|0:2,0:0:0:0:
158,207,68707,2,0,L|247:213,1,89.9999972534181,10|0,0:2|0:2,0:0:0:0:
346,135,69007,2,0,P|309:179|276:275,2,134.999995880127,2|2|0,1:2|0:2|0:2,0:0:0:0:
104,39,69607,5,2,1:2:0:0:
104,39,69757,1,0,0:2:0:0:
181,16,69907,2,0,B|185:63|185:63|154:103,1,89.9999972534181,10|2,0:2|0:2,0:0:0:0:
66,308,70207,2,0,P|63:218|47:167,1,134.999995880127,2|2,1:2|0:2,0:0:0:0:
34,154,70507,2,0,L|151:168,1,89.9999972534181,8|0,0:2|0:2,0:0:0:0:
279,250,70807,6,0,L|162:264,1,89.9999972534181,2|0,1:2|0:2,0:0:0:0:
340,334,71107,1,10,0:2:0:0:
438,265,71257,1,2,0:2:0:0:
480,134,71407,2,0,P|425:150|356:218,1,134.999995880127,2|2,1:2|0:2,0:0:0:0:
353,221,71707,2,0,P|299:215|249:183,1,89.9999972534181,8|2,0:0|0:2,0:0:0:0:
154,18,72007,2,0,P|152:75|195:161,1,134.999995880127,2|2,1:2|0:2,0:0:0:0:
197,165,72307,2,0,P|174:214|128:252,1,89.9999972534181,0|2,0:0|0:2,0:0:0:0:
21,353,72607,6,0,B|15:335|15:335|4:326,2,29.9999990844727,2|0|0,3:2|3:0|3:2,0:0:0:0:
30,345,72807,5,0,3:2:0:0:
66,324,72907,5,2,3:2:0:0:
106,314,73007,5,0,3:2:0:0:
147,315,73107,5,0,3:2:0:0:
185,332,73207,6,0,P|225:359|272:359,1,89.9999972534181,6|0,1:2|0:2,0:0:0:0:
341,330,73507,1,10,0:2:0:0:
325,148,73657,2,0,P|281:169|258:209,1,89.9999972534181,0|2,0:2|1:2,0:0:0:0:
248,284,73957,1,2,0:2:0:0:
414,361,74107,2,0,P|417:312|393:272,1,89.9999972534181,10|0,0:2|0:2,0:0:0:0:
335,226,74407,6,0,L|436:236,2,89.9999972534181,2|0|10,1:2|0:2|0:2,0:0:0:0:
207,116,74857,2,0,L|106:126,2,89.9999972534181,2|2|0,0:2|1:2|0:2,0:0:0:0:
316,24,75307,1,10,0:2:0:0:
374,96,75457,1,2,0:2:0:0:
453,33,75607,5,2,1:2:0:0:
453,33,75757,2,0,P|423:70|506:154,2,179.999994506836,2|2|2,0:2|0:2|0:2,0:0:0:0:
296,125,76507,2,0,L|201:115,1,89.9999972534181,10|2,0:2|0:2,0:0:0:0:
39,174,76807,6,0,B|77:154|77:154|167:187,2,134.999995880127,6|2|2,1:2|3:2|1:2,0:0:0:0:
85,248,77407,2,0,P|78:301|77:347,1,89.9999972534181,6|0,1:2|3:2,0:0:0:0:
91,359,77632,1,0,3:2:0:0:
91,359,77707,2,0,P|135:360|180:367,1,89.9999972534181,8|0,0:2|1:2,0:0:0:0:
275,239,78007,6,0,B|260:283|260:283|279:327,1,89.9999972534181,6|0,1:2|0:2,0:0:0:0:
351,365,78307,2,0,B|366:321|366:321|347:277,1,89.9999972534181,10|2,0:2|0:2,0:0:0:0:
476,177,78607,2,0,P|485:125|502:41,2,134.999995880127,2|2|0,1:2|1:2|0:2,0:0:0:0:
496,259,79207,6,0,P|440:258|407:220,1,89.9999972534181,2|0,1:2|0:2,0:0:0:0:
368,145,79507,1,10,0:2:0:0:
368,145,79657,1,2,0:2:0:0:
255,188,79807,2,0,P|278:114|275:34,1,134.999995880127,2|2,1:2|0:2,0:0:0:0:
264,33,80107,2,0,P|220:61|173:66,1,89.9999972534181,8|0,0:2|0:2,0:0:0:0:
52,104,80407,6,0,P|95:112|132:137,1,89.9999972534181,2|0,1:2|0:2,0:0:0:0:
180,268,80707,2,0,P|167:321|160:364,1,89.9999972534181,10|2,0:2|0:2,0:0:0:0:
95,246,81007,2,0,P|141:188|209:184,1,134.999995880127,2|2,1:2|0:2,0:0:0:0:
224,193,81307,2,0,P|280:218|318:216,1,89.9999972534181,8|2,0:0|0:2,0:0:0:0:
480,134,81607,2,0,P|434:76|366:72,1,134.999995880127,2|2,1:2|0:2,0:0:0:0:
351,81,81907,2,0,P|295:106|257:104,1,89.9999972534181,8|2,0:0|0:2,0:0:0:0:
63,40,82207,6,0,L|68:5,2,29.9999990844727,2|0|0,3:2|3:0|3:2,0:0:0:0:
70,60,82407,5,0,3:2:0:0:
45,86,82507,5,2,3:2:0:0:
34,120,82607,5,0,3:2:0:0:
33,155,82707,5,0,3:2:0:0:
47,188,82807,6,0,P|63:221|51:287,2,89.9999972534181,6|0|10,1:2|0:2|0:2,0:0:0:0:
128,314,83257,2,0,P|101:339|35:348,2,89.9999972534181,0|2|2,0:2|1:2|0:2,0:0:0:0:
251,260,83707,2,0,P|256:209|253:158,1,89.9999972534181,10|0,0:2|0:2,0:0:0:0:
381,314,84007,6,0,P|407:339|473:348,2,89.9999972534181,2|0|10,1:2|0:2|0:2,0:0:0:0:
462,188,84457,2,0,P|446:221|458:287,2,89.9999972534181,2|2|0,0:2|1:2|0:2,0:0:0:0:
367,64,84907,2,0,P|365:108|370:153,1,89.9999972534181,10|2,0:2|0:2,0:0:0:0:
251,260,85207,6,0,P|219:187|44:162,2,269.999991760254,2|2|10,1:2|0:2|0:2,0:0:0:0:
41,362,86407,6,0,B|35:343|36:316|36:316|86:289|72:213,2,134.999995880127,6|2|2,1:2|3:2|1:2,0:0:0:0:
138,348,87007,2,0,P|189:333|231:327,1,89.9999972534181,6|0,1:2|1:2,0:0:0:0:
248,306,87232,1,0,1:0:0:0:
248,306,87307,2,0,P|299:321|341:327,1,89.9999972534181,0|0,1:2|1:2,0:0:0:0:
361,348,87532,1,0,1:2:0:0:
361,348,87607,6,0,B|419:313|419:313|492:346,1,134.999995880127,6|0,0:2|0:0,0:0:0:0:
504,249,87907,2,0,B|486:263|486:263|409:226,1,89.9999972534181,8|0,0:2|0:2,0:0:0:0:
273,173,88207,2,0,L|417:157,1,134.999995880127,2|0,1:2|0:0,0:0:0:0:
408,159,88507,2,0,L|395:65,1,89.9999972534181,8|2,0:0|0:2,0:0:0:0:
232,49,88807,6,0,B|261:84|261:84|273:179,2,134.999995880127,2|2|2,1:2|0:2|0:2,0:0:0:0:
177,127,89407,2,0,B|89:124|89:124|82:130|82:130|-25:126,1,179.999994506836,2|10,1:2|0:2,0:0:0:0:
126,200,89857,1,2,0:2:0:0:
13,309,90007,6,0,B|-3:266|-3:266|20:213,1,89.9999972534181,2|0,1:2|0:0,0:0:0:0:
25,212,90232,1,2,0:2:0:0:
25,212,90307,2,0,L|129:224,1,89.9999972534181,8|2,0:0|0:2,0:0:0:0:
202,325,90607,2,0,L|356:305,1,134.999995880127,2|2,1:2|0:2,0:0:0:0:
349,316,90907,2,0,B|365:273|365:273|342:220,1,89.9999972534181,8|2,0:0|0:2,0:0:0:0:
436,105,91207,6,0,B|447:190|447:190|444:199|444:199|458:297,1,179.999994506836,2|8,1:2|0:0,0:0:0:0:
455,282,91807,5,10,0:2:0:0:
428,257,91907,5,10,0:2:0:0:
415,223,92007,5,10,0:2:0:0:
414,187,92107,5,10,0:2:0:0:
421,151,92207,5,10,0:2:0:0:
442,122,92307,5,10,0:2:0:0:
472,103,92407,6,0,P|418:116|327:105,1,134.999995880127,6|2,1:2|0:2,0:0:0:0:
305,95,92707,2,0,P|336:151|334:192,1,89.9999972534181,8|2,0:0|0:2,0:0:0:0:
186,282,93007,2,0,P|192:237|217:201,1,89.9999972534181,2|0,1:2|0:0,0:0:0:0:
235,188,93232,1,2,0:2:0:0:
235,188,93307,2,0,P|184:194|146:188,1,89.9999972534181,8|2,0:0|0:2,0:0:0:0:
20,83,93607,6,0,P|53:155|57:232,2,134.999995880127,2|2|2,1:2|0:2|0:2,0:0:0:0:
116,25,94207,2,0,B|163:0|221:26|197:44|252:64|302:48,1,179.999994506836,2|10,1:2|0:2,0:0:0:0:
360,114,94657,1,2,1:2:0:0:
476,143,94807,5,2,3:2:0:0:
443,19,95007,1,2,3:2:0:0:
360,114,95207,1,6,3:2:0:0:
397,198,95407,5,6,3:2:0:0:
364,322,95607,1,6,3:2:0:0:
281,227,95807,1,6,3:2:0:0:
435,273,96007,5,6,3:2:0:0:
256,192,96082,12,2,97207,1:2:0:0:
101,276,97507,6,0,P|84:226|59:206,1,75,14|2,0:2|0:2,0:0:0:0:
180,321,97807,2,0,P|197:271|222:251,1,75,2|2,1:2|0:2,0:0:0:0:
262,370,98107,2,0,L|362:349,1,75,8|2,0:2|0:2,0:0:0:0:
472,294,98407,6,0,L|372:273,1,75,2|0,1:2|0:2,0:0:0:0:
348,199,98707,2,0,L|369:99,1,75,10|2,0:2|0:2,0:0:0:0:
447,66,99007,2,0,B|418:90|418:90|278:56,1,150,2|10,1:2|0:2,0:0:0:0:
194,113,99457,1,0,0:0:0:0:
79,60,99607,6,0,P|109:111|104:229,1,150,2|10,1:2|0:2,0:0:0:0:
164,318,100057,1,0,0:2:0:0:
164,318,100207,2,0,P|125:296|86:284,1,75,2|0,1:2|0:2,0:0:0:0:
206,231,100507,2,0,P|241:218|273:199,1,75,10|2,0:2|0:2,0:0:0:0:
422,303,100807,5,2,1:2:0:0:
361,193,100957,1,0,0:2:0:0:
315,274,101107,2,0,P|327:322|334:373,1,75,10|2,0:2|0:2,0:0:0:0:
478,233,101407,6,0,L|505:242,2,25,2|0|0,3:2|3:0|3:2,0:0:0:0:
461,201,101607,5,0,3:2:0:0:
472,173,101707,5,0,3:2:0:0:
476,143,101807,5,0,3:2:0:0:
473,113,101907,5,0,3:2:0:0:
464,84,102007,6,0,P|405:113|354:116,1,112.5,6|0,1:2|0:0,0:0:0:0:
324,137,102307,2,0,P|276:118|230:114,1,75,10|0,0:2|0:2,0:0:0:0:
185,64,102607,2,0,P|152:103|134:146,1,75,2|2,1:2|0:2,0:0:0:0:
43,178,102907,2,0,P|75:217|93:260,1,75,10|0,0:2|0:2,0:0:0:0:
174,357,103207,6,0,L|186:275,1,75,2|2,1:2|0:2,0:0:0:0:
306,248,103507,1,10,0:2:0:0:
349,327,103657,1,2,0:2:0:0:
461,292,103807,2,0,B|472:221|472:221|468:212|468:212|483:116,1,150,2|10,1:2|0:2,0:0:0:0:
490,51,104257,1,0,3:2:0:0:
364,124,104407,5,6,1:2:0:0:
244,53,104607,1,2,0:2:0:0:
128,129,104807,1,2,0:2:0:0:
52,173,105007,6,0,L|49:209,2,25,6|0|0,3:2|3:0|3:0,0:0:0:0:
168,249,105207,1,2,3:2:0:0:
288,178,105407,1,2,3:2:0:0:
209,167,105607,6,0,L|205:140,2,25,6|0|0,3:2|3:0|3:0,0:0:0:0:
325,91,105807,1,2,3:2:0:0:
445,162,106007,1,2,3:2:0:0:
495,245,106207,6,0,B|448:220|367:249|420:283|325:320|277:282,1,225,6|0,3:2|0:0,0:0:0:0:
226,344,106807,6,0,P|196:298|69:266,1,179.999994506836,6|10,1:2|0:2,0:0:0:0:
23,157,107257,2,0,P|39:187|43:207,1,44.999998626709,2|2,0:2|0:0,0:0:0:0:
36,137,107407,2,0,P|85:119|116:88,1,89.9999972534181,2|0,1:2|0:0,0:0:0:0:
171,179,107707,2,0,P|220:197|251:228,1,89.9999972534181,10|2,0:2|0:2,0:0:0:0:
345,312,108007,6,0,L|325:214,1,89.9999972534181,2|0,1:2|0:0,0:0:0:0:
396,154,108307,1,10,0:2:0:0:
342,55,108457,2,0,P|337:77|335:109,1,44.999998626709,2|2,0:2|0:0,0:0:0:0:
326,43,108607,2,0,L|219:55,1,89.9999972534181,2|2,1:2|0:2,0:0:0:0:
146,115,108907,1,10,0:2:0:0:
63,73,109057,1,2,0:2:0:0:
62,247,109207,6,0,B|79:204|79:204|61:153,1,89.9999972534181,2|0,1:2|0:0,0:0:0:0:
157,267,109507,2,0,P|184:258|207:244,1,44.999998626709,10|0,0:2|0:0,0:0:0:0:
168,278,109657,2,0,P|195:269|218:255,1,44.999998626709,2|0,0:2|0:0,0:0:0:0:
166,297,109807,2,0,B|151:338|151:338|168:381,1,89.9999972534181,2|0,1:2|0:0,0:0:0:0:
330,348,110107,2,0,L|233:337,1,89.9999972534181,10|2,0:2|0:2,0:0:0:0:
400,293,110407,6,0,B|417:250|417:250|399:199,1,89.9999972534181,2|0,1:2|0:0,0:0:0:0:
368,116,110707,2,0,P|372:93|373:60,1,44.999998626709,10|0,0:2|0:0,0:0:0:0:
359,118,110857,2,0,P|363:95|364:62,1,44.999998626709,2|0,0:2|0:0,0:0:0:0:
331,131,111007,5,2,3:2:0:0:
297,105,111107,5,2,3:2:0:0:
257,89,111207,5,2,3:2:0:0:
215,82,111307,5,2,3:2:0:0:
173,83,111407,5,2,3:2:0:0:
132,94,111507,5,2,3:2:0:0:
95,115,111607,6,0,P|72:156|65:207,1,89.9999972534181,6|0,1:2|0:0,0:0:0:0:
38,316,111907,2,0,P|59:323|78:334,1,44.999998626709,10|2,0:2|0:0,0:0:0:0:
142,379,112057,2,0,P|179:363|197:349,1,44.999998626709,10|2,0:2|0:0,0:0:0:0:
201,334,112207,2,0,P|185:277|158:227,1,89.9999972534181,2|0,1:2|0:0,0:0:0:0:
268,177,112507,2,0,P|282:186|314:200,3,44.999998626709,10|0|2|0,0:2|0:0|0:2|0:0,0:0:0:0:
332,234,112807,6,0,P|394:216|416:190,1,89.9999972534181,2|0,1:2|0:0,0:0:0:0:
447,82,113107,2,10,P|450:52|463:20,1,44.999998626709,10|2,0:2|0:0,0:0:0:0:
336,0,113257,2,0,P|342:21|343:57,1,44.999998626709,2|2,0:2|0:0,0:0:0:0:
322,64,113407,2,0,L|224:78,1,89.9999972534181,2|2,1:2|0:2,0:0:0:0:
135,126,113707,2,0,L|45:113,1,89.9999972534181,10|2,0:2|0:2,0:0:0:0:
33,232,114007,5,6,3:2:0:0:
199,190,114207,1,2,3:2:0:0:
148,343,114407,1,2,3:2:0:0:
112,187,114607,6,0,L|101:155,2,29.9999990844727,6|0|0,3:2|3:0|3:0,0:0:0:0:
278,145,114807,1,2,3:2:0:0:
227,298,115007,1,2,3:2:0:0:
201,155,115207,6,0,L|190:123,2,29.9999990844727,6|0|0,3:2|3:0|3:0,0:0:0:0:
367,113,115407,1,2,3:2:0:0:
316,266,115607,1,2,3:2:0:0:
282,112,115807,6,0,B|272:76|272:76|264:65|264:65|254:25,1,90,6|0,3:2|1:2,0:0:0:0:
357,19,116407,6,0,P|392:19|426:39,1,75,6|0,1:2|0:2,0:0:0:0:
493,109,116707,2,0,P|464:149|452:182,1,75,10|2,0:2|0:2,0:0:0:0:
489,277,117007,2,0,B|454:290|414:267|428:255|395:224|343:235,1,150,2|10,1:2|0:2,0:0:0:0:
274,280,117457,1,0,0:2:0:0:
136,193,117607,6,0,P|145:135|146:103,1,75,2|0,1:2|0:2,0:0:0:0:
227,136,117907,2,0,P|218:194|217:226,1,75,10|2,0:2|0:2,0:0:0:0:
157,335,118207,1,2,1:2:0:0:
157,335,118507,2,0,B|126:313|126:313|73:312,1,75,10|0,0:2|0:2,0:0:0:0:
17,223,118807,5,2,1:2:0:0:
64,154,118957,1,0,0:2:0:0:
12,88,119107,2,0,P|10:50|26:13,1,75,10|2,0:2|0:2,0:0:0:0:
159,49,119407,2,0,P|122:53|92:75,2,75,2|0|10,1:2|0:0|0:2,0:0:0:0:
243,97,119857,1,0,0:2:0:0:
390,73,120007,6,0,P|398:27|387:-12,1,75,2|0,1:2|0:2,0:0:0:0:
328,144,120307,2,0,P|322:180|330:217,1,75,10|2,0:2|0:2,0:0:0:0:
464,71,120607,2,0,P|427:65|390:73,1,75,2|0,1:2|0:0,0:0:0:0:
411,252,120907,2,0,P|447:257|484:249,1,75,10|0,0:2|0:2,0:0:0:0:
352,352,121207,5,6,1:2:0:0:
352,352,121357,1,0,0:2:0:0:
281,286,121507,2,0,P|241:276|207:271,1,75,10|2,0:2|0:2,0:0:0:0:
113,372,121807,2,0,B|128:355|131:330|131:330|101:279|119:222,1,150,2|10,1:2|0:2,0:0:0:0:
161,163,122257,1,0,0:2:0:0:
113,98,122407,6,0,L|30:107,1,75,2|0,1:2|0:2,0:0:0:0:
205,0,122707,2,0,L|279:8,1,75,10|2,0:2|0:2,0:0:0:0:
339,60,123007,2,0,B|409:50|409:50|426:54|426:54|492:44,1,150,2|10,1:2|0:2,0:0:0:0:
399,147,123457,1,0,0:2:0:0:
473,206,123607,6,0,P|489:230|494:241,3,37.5,2|0|0|0,1:2|1:2|1:2|1:2,0:0:0:0:
512,271,123907,2,0,P|488:305|478:338,1,75,10|2,1:2|1:2,0:0:0:0:
335,372,124207,6,0,P|312:354|290:343,3,37.5,2|0|2|0,1:2|1:2|1:2|1:2,0:0:0:0:
285,274,124507,2,0,P|257:284|241:302,3,37.5,10|0|2|0,1:2|1:2|1:2|1:2,0:0:0:0:
344,173,124807,6,0,P|339:191|331:208,1,37.5,2|0,1:2|1:2,0:0:0:0:
333,159,124957,2,0,P|342:138|346:120,1,37.5,2|0,1:2|1:2,0:0:0:0:
233,119,125107,6,0,P|242:140|246:158,1,37.5,10|0,1:2|1:2,0:0:0:0:
246,106,125257,2,0,P|241:87|233:70,1,37.5,2|0,1:2|1:2,0:0:0:0:
154,151,125407,5,2,1:2:0:0:
63,260,126007,6,0,B|91:221|91:221|56:78,1,191.250003647804,6|0,1:2|3:2,0:0:0:0:
121,26,126607,2,0,L|157:164,1,127.50000243187,10|0,0:2|0:0,0:0:0:0:
199,362,127207,2,0,L|123:349,1,63.7500012159348,2|2,1:2|0:2,0:0:0:0:
152,273,127507,2,0,L|228:286,1,63.7500012159348,2|2,3:2|0:2,0:0:0:0:
280,336,127807,2,0,B|381:349|381:349|408:335,1,127.50000243187,10|2,0:2|0:2,0:0:0:0:
363,267,128257,1,0,0:2:0:0:
468,157,128407,6,0,B|464:113|464:113|462:107|462:107|457:56,2,95.6250018239022,2|0|2,1:2|3:2|1:2,0:0:0:0:
388,187,129007,2,0,B|383:140|383:140|366:117|366:117|361:58,1,127.50000243187,10|2,0:2|0:2,0:0:0:0:
361,65,129607,2,0,L|289:68,1,63.7500012159348,0|2,1:2|0:2,0:0:0:0:
223,158,129907,2,0,L|295:155,1,63.7500012159348,2|2,3:2|0:2,0:0:0:0:
231,12,130207,2,0,B|147:13|147:13|105:38,1,127.50000243187,8|2,0:0|0:0,0:0:0:0:
20,235,130807,6,0,B|33:204|33:204|65:374,1,191.250003647804,6|0,1:2|3:2,0:0:0:0:
171,354,131407,2,0,B|136:339|136:339|119:244,1,127.50000243187,10|0,0:2|0:0,0:0:0:0:
259,373,132007,6,0,L|326:361,1,63.7500012159348,2|2,1:2|0:2,0:0:0:0:
400,344,132307,2,0,L|467:332,1,63.7500012159348,2|2,3:2|0:2,0:0:0:0:
462,332,132607,1,10,0:2:0:0:
433,181,132907,2,0,L|448:256,1,63.7500012159348,2|0,0:2|0:2,0:0:0:0:
353,147,133207,6,0,B|359:122|359:122|346:67|346:67|350:41,2,95.6250018239022,2|0|2,1:2|3:2|1:2,0:0:0:0:
280,120,133807,2,0,B|215:109|215:109|156:139,1,127.50000243187,10|2,0:2|0:2,0:0:0:0:
161,137,134407,2,0,B|167:191|167:191|164:198|164:198|173:271,2,127.50000243187,2|2|8,1:2|3:2|0:0,0:0:0:0:
146,12,135307,1,0,0:0:0:0:
76,107,135607,6,0,P|46:130|29:163,1,63.7500012159348,6|0,0:2|0:0,0:0:0:0:
115,186,135907,2,0,P|127:221|153:248,1,63.7500012159348,8|0,0:2|0:0,0:0:0:0:
55,291,136207,2,0,P|48:310|41:322,3,31.8750006079674,2|0|0|0,0:2|0:0|0:0|0:0,0:0:0:0:
110,355,136507,2,0,P|117:374|124:386,3,31.8750006079674,8|0|0|0,0:2|0:0|0:0|0:0,0:0:0:0:
190,330,136807,6,0,L|252:316,1,63.7500012159348,2|2,0:2|0:2,0:0:0:0:
383,384,137107,2,0,L|321:370,1,63.7500012159348,10|2,0:2|0:2,0:0:0:0:
210,245,137407,2,0,L|272:231,1,63.7500012159348,2|0,0:2|0:0,0:0:0:0:
395,213,137707,1,10,0:2:0:0:
338,292,137857,1,0,0:2:0:0:
258,149,138007,6,0,P|274:118|301:100,1,63.7500012159348,2|0,0:2|0:2,0:0:0:0:
340,33,138307,2,0,P|374:38|399:58,1,63.7500012159348,10|2,0:2|0:2,0:0:0:0:
512,78,138607,2,0,P|503:99|499:122,3,31.8750006079674,2|0|0|0,0:2|0:0|0:2|0:0,0:0:0:0:
460,171,138907,2,0,P|469:192|473:215,3,31.8750006079674,10|0|0|0,0:2|0:0|0:2|0:0,0:0:0:0:
439,277,139207,6,0,L|455:345,2,63.7500012159348,2|2|10,0:2|0:2|0:2,0:0:0:0:
322,328,139657,1,2,0:2:0:0:
322,328,139807,2,0,L|333:249,2,63.7500012159348,0|2|8,0:0|0:2|0:2,0:0:0:0:
246,373,140257,1,0,0:0:0:0:
161,235,140407,5,6,3:2:0:0:
107,300,140557,1,0,1:2:0:0:
76,218,140707,2,0,L|11:207,1,63.7500012159348,8|0,0:2|0:0,0:0:0:0:
56,76,141007,2,0,L|87:61,3,31.8750006079674,2|0|0|0,0:2|0:0|0:0|0:0,0:0:0:0:
145,20,141307,2,0,L|176:35,3,31.8750006079674,8|0|0|0,0:2|0:0|1:2|0:0,0:0:0:0:
244,67,141607,6,0,L|315:49,1,63.7500012159348,6|2,3:2|1:2,0:0:0:0:
397,10,141907,1,10,0:2:0:0:
397,10,142057,1,2,0:2:0:0:
478,121,142207,2,0,L|397:107,1,63.7500012159348,2|0,0:2|0:0,0:0:0:0:
364,217,142507,2,0,L|426:206,1,63.7500012159348,10|0,0:2|1:2,0:0:0:0:
276,113,142807,6,0,L|254:71,1,31.8750006079674,6|0,3:2|0:0,0:0:0:0:
198,142,142957,2,0,L|176:100,1,31.8750006079674,0|0,1:2|0:0,0:0:0:0:
120,171,143107,2,0,L|98:129,3,31.8750006079674,10|0|2|0,0:2|0:0|3:2|0:0,0:0:0:0:
39,258,143407,6,0,L|61:216,1,31.8750006079674,6|0,1:2|0:0,0:0:0:0:
117,287,143557,2,0,L|139:245,1,31.8750006079674,0|0,1:2|0:0,0:0:0:0:
195,316,143707,2,0,L|217:274,3,31.8750006079674,2|0|0|0,3:2|0:0|1:2|0:0,0:0:0:0:
279,324,144007,6,0,B|314:273|268:174|255:231|183:216|147:94|201:-13|323:11|443:51|388:196|316:199,1,525,6|0,1:2|0:0,0:0:0:0:
337,193,145207,1,6,0:2:0:0:
447,323,154807,6,0,P|414:288|339:277,1,112.500004291535,6|2,0:2|0:2,0:0:0:0:
353,275,155407,2,0,L|365:367,2,84.3750032186509,2|2|2,0:2|0:2|0:2,0:0:0:0:
199,202,156007,2,0,P|232:167|307:156,1,112.500004291535,2|2,0:2|0:2,0:0:0:0:
293,154,156607,2,0,L|283:244,2,84.3750032186509,2|2|2,0:2|0:2|0:2,0:0:0:0:
217,42,157207,6,0,L|84:22,1,112.500004291535,2|2,0:2|0:2,0:0:0:0:
105,25,157807,2,0,P|65:61|60:109,2,84.3750032186509,2|2|2,0:2|0:2|0:2,0:0:0:0:
161,114,158407,2,0,P|201:150|211:201,2,84.3750032186509,2|2|2,0:2|0:2|0:2,0:0:0:0:
111,208,159007,2,0,L|-12:194,1,112.500004291535,2|2,0:2|0:2,0:0:0:0:
208,336,159607,6,0,L|215:287,13,28.1250010728836,6|0|0|0|2|0|0|0|2|0|2|0|2|0,1:2|1:2|1:2|1:2|1:2|1:2|1:2|1:2|1:2|1:2|1:2|1:2|1:2|1:2,0:0:0:0:
227,362,160657,1,4,1:2:0:0:
325,296,160807,6,0,L|317:233,13,37.5,6|0|0|0|2|0|2|0|2|0|0|0|2|0,1:2|1:2|1:2|1:2|1:2|1:2|1:2|1:2|1:2|1:2|1:2|1:2|1:2|1:2,0:0:0:0:
311,327,161857,1,6,1:2:0:0:
382,211,162007,6,0,P|359:187|345:182,7,37.5,6|0|0|0|0|0|0|2,1:2|1:2|1:2|1:2|1:2|1:2|1:2|1:2,0:0:0:0:
290,121,162607,2,0,P|322:113|333:103,7,37.5,4|0|0|0|2|0|0|0,1:2|1:2|1:2|1:2|1:2|1:2|1:2|1:2,0:0:0:0:
413,86,163207,6,0,P|403:117|406:132,3,37.5,6|0|0|2,1:2|1:2|1:2|1:2,0:0:0:0:
362,213,163507,2,0,P|346:184|334:176,3,37.5,4|0|2|0,1:2|1:2|1:2|1:2,0:0:0:0:
297,103,163807,2,0,P|330:103|343:97,3,37.5,6|0|0|0,1:2|1:2|1:2|1:2,0:0:0:0:
425,101,164107,6,0,P|407:129|406:144,4,37.5,4|0|0|0|2,1:2|1:2|1:2|1:2|1:2,0:0:0:0:
241,38,164707,6,0,P|178:53|156:86,1,93.75,6|0,1:2|0:0,0:0:0:0:
129,182,165007,2,0,P|142:242|144:288,1,93.75,10|2,0:2|0:2,0:0:0:0:
214,379,165307,2,0,P|235:310|291:246,2,140.625,2|2|0,1:2|0:2|0:2,0:0:0:0:
87,324,165907,6,0,P|58:306|-8:293,1,93.75,2|0,1:2|0:2,0:0:0:0:
129,182,166207,1,10,0:2:0:0:
129,182,166357,1,2,0:2:0:0:
54,112,166507,2,0,P|104:99|161:34,1,140.625,2|2,1:2|0:2,0:0:0:0:
182,23,166807,2,0,P|206:66|253:88,1,93.75,8|0,0:2|0:2,0:0:0:0:
382,177,167107,6,0,P|388:134|394:76,1,93.75,2|0,1:2|0:2,0:0:0:0:
438,262,167407,1,10,0:2:0:0:
388,350,167557,1,2,0:2:0:0:
291,364,167707,2,0,P|235:305|154:273,1,140.625,2|2,1:2|0:2,0:0:0:0:
144,286,168007,2,0,P|86:271|43:239,1,93.75,8|2,0:0|0:2,0:0:0:0:
301,349,168307,6,0,P|282:269|227:201,1,140.625,2|0,1:2|0:0,0:0:0:0:
212,207,168607,2,0,P|169:165|148:115,1,93.75,8|2,0:2|0:2,0:0:0:0:
228,59,168907,6,0,B|229:47|229:47|222:28,2,31.25,2|0|0,3:2|3:0|3:2,0:0:0:0:
244,72,169107,5,0,3:2:0:0:
287,75,169207,5,2,3:2:0:0:
329,63,169307,5,0,3:2:0:0:
366,39,169407,5,0,3:2:0:0:
391,2,169507,6,0,P|414:52|400:113,1,93.75,6|0,1:2|0:2,0:0:0:0:
366,153,169807,1,10,0:2:0:0:
475,311,169957,2,0,P|498:261|484:200,1,93.75,0|2,0:2|1:2,0:0:0:0:
450,160,170257,1,2,0:2:0:0:
399,250,170407,2,0,L|297:236,1,93.75,10|0,0:2|0:2,0:0:0:0:
180,342,170707,6,0,P|138:300|99:294,2,93.75,2|0|10,1:2|0:2|0:2,0:0:0:0:
71,215,171157,2,0,P|18:241|0:277,2,93.75,2|2|0,0:2|1:2|0:2,0:0:0:0:
141,144,171607,1,10,0:2:0:0:
171,52,171757,1,0,0:2:0:0:
71,75,171907,5,2,1:2:0:0:
71,75,172057,2,0,B|123:60|187:73|144:93|217:118|272:87,2,187.5,2|2|2,0:2|0:2|0:2,0:0:0:0:
219,189,172807,2,0,P|237:244|235:289,1,93.75,10|2,0:2|0:2,0:0:0:0:
331,367,173107,6,0,B|359:335|359:335|470:362,2,140.625,6|2|2,1:2|3:2|1:2,0:0:0:0:
398,261,173707,2,0,P|411:204|411:163,1,93.75,6|0,1:2|3:2,0:0:0:0:
393,137,173932,1,0,3:2:0:0:
393,137,174007,2,0,P|346:135|300:123,1,93.75,8|0,0:2|1:2,0:0:0:0:
152,64,174307,6,0,B|131:105|131:105|151:156,1,93.75,6|0,1:2|0:2,0:0:0:0:
215,198,174607,2,0,B|236:157|236:157|216:106,1,93.75,10|2,0:2|0:2,0:0:0:0:
36,157,174907,2,0,P|54:96|56:4,2,140.625,2|2|0,1:2|0:2|0:2,0:0:0:0:
60,314,175507,5,2,1:2:0:0:
17,246,175657,1,0,0:2:0:0:
135,343,175807,2,0,P|190:311|230:306,1,93.75,10|2,0:2|0:2,0:0:0:0:
317,212,176107,2,0,P|322:283|385:350,1,140.625,2|2,1:2|0:2,0:0:0:0:
390,355,176407,2,0,P|410:306|445:275,1,93.75,8|0,0:2|0:2,0:0:0:0:
488,101,176707,5,2,1:2:0:0:
419,152,176857,1,0,0:2:0:0:
331,83,177007,2,0,P|280:58|215:41,1,93.75,10|2,0:2|0:2,0:0:0:0:
95,192,177307,2,0,P|131:134|137:41,1,140.625,2|2,1:2|0:2,0:0:0:0:
129,28,177607,2,0,P|67:31|22:55,1,93.75,8|2,0:0|0:2,0:0:0:0:
140,292,177907,6,0,P|200:259|251:182,1,140.625,2|2,1:2|0:2,0:0:0:0:
251,166,178207,2,0,P|195:137|144:135,1,93.75,8|2,0:0|0:2,0:0:0:0:
35,283,178507,6,0,B|23:271|23:271|5:269,2,31.25,2|0|0,3:2|3:0|3:2,0:0:0:0:
42,299,178707,5,0,3:2:0:0:
59,338,178807,5,2,3:2:0:0:
93,364,178907,5,0,3:2:0:0:
136,368,179007,5,0,3:2:0:0:
179,365,179107,6,0,P|222:341|290:334,1,93.75,6|0,1:2|0:2,0:0:0:0:
336,360,179407,1,10,0:2:0:0:
421,243,179557,2,0,P|378:219|310:212,1,93.75,0|2,0:2|1:2,0:0:0:0:
264,238,179857,1,2,0:2:0:0:
295,119,180007,2,0,L|312:25,1,93.75,10|0,0:2|0:2,0:0:0:0:
184,151,180307,6,0,L|77:157,2,93.75,2|0|10,1:2|0:2|0:2,0:0:0:0:
32,55,180757,2,0,L|139:61,2,93.75,2|2|0,0:2|1:2|0:2,0:0:0:0:
0,185,181207,2,0,P|22:237|35:285,1,93.75,10|2,0:2|0:2,0:0:0:0:
80,373,181507,6,0,B|115:324|194:328|174:369|220:386|284:363,1,187.5,2|8,1:2|0:2,0:0:0:0:
324,282,181957,2,0,P|272:269|235:291,1,93.75,2|0,0:2|0:0,0:0:0:0:
351,361,182257,1,0,0:0:0:0:
414,296,182407,2,0,L|515:305,1,93.75,10|0,0:2|0:0,0:0:0:0:
403,190,182707,6,0,B|391:145|391:145|425:52,2,140.625,6|2|2,1:2|3:2|1:2,0:0:0:0:
403,190,183232,1,0,0:0:0:0:
403,190,183307,1,6,1:2:0:0:
296,102,183457,1,0,1:2:0:0:
296,102,183532,1,0,1:2:0:0:
296,102,183607,2,0,L|183:86,1,93.75,0|0,1:2|1:2,0:0:0:0:
44,51,183907,6,0,P|92:36|138:33,1,75,6|0,1:2|0:0,0:0:0:0:
37,150,184199,2,0,P|44:172|50:203,3,37.5,10|2|2|2,0:2|0:0|0:2|0:0,0:0:0:0:
22,222,184492,2,0,P|3:279|1:304,1,75,2|0,1:2|0:0,0:0:0:0:
108,378,184785,2,0,P|104:358|94:341,1,37.5,10|0,0:2|0:0,0:0:0:0:
119,384,184931,2,0,P|115:364|105:347,1,37.5,2|0,0:2|0:0,0:0:0:0:
141,358,185077,6,0,P|184:336|227:333,1,75,2|0,1:2|0:0,0:0:0:0:
336,240,185370,2,0,P|344:212|345:197,3,37.5,10|2|2|2,0:2|0:0|0:2|0:0,0:0:0:0:
296,263,185663,2,0,P|242:243|201:241,1,75,2|2,1:2|0:2,0:0:0:0:
326,89,185955,2,0,P|362:82|396:66,1,75,10|2,0:2|0:2,0:0:0:0:
486,178,186248,6,0,L|505:261,1,75,2|0,1:2|0:0,0:0:0:0:
410,346,186541,2,0,L|421:294,3,37.5,10|0|2|0,0:2|0:0|0:2|0:0,0:0:0:0:
382,366,186833,2,0,L|302:353,1,75,2|0,1:2|0:0,0:0:0:0:
222,217,187126,2,0,L|233:262,1,37.5,10|2,0:2|0:0,0:0:0:0:
212,224,187272,2,0,L|223:269,1,37.5,2|2,0:2|0:0,0:0:0:0:
184,248,187419,6,0,P|133:228|96:228,1,75,2|0,1:2|0:0,0:0:0:0:
34,126,187711,2,0,L|28:81,1,37.5,10|0,0:2|0:0,0:0:0:0:
46,117,187858,2,0,L|40:72,1,37.5,2|0,0:2|0:0,0:0:0:0:
73,128,188004,5,2,3:2:0:0:
107,134,188102,5,2,3:2:0:0:
141,134,188199,5,2,3:2:0:0:
173,121,188297,6,0,L|168:84,3,25,0|0|0|0,3:2|3:2|3:2|3:2,0:0:0:0:
297,17,188589,6,0,P|281:57|278:108,1,75,6|0,1:2|0:0,0:0:0:0:
330,187,188874,2,0,P|355:174|367:162,1,37.5,10|2,0:2|0:0,0:0:0:0:
316,206,189017,2,0,P|291:193|279:181,1,37.5,2|2,0:2|0:0,0:0:0:0:
329,226,189160,2,0,P|340:284|339:317,1,75,2|0,1:2|0:0,0:0:0:0:
239,344,189446,2,0,P|211:336|199:335,3,37.5,10|0|2|0,0:2|0:0|0:2|0:0,0:0:0:0:
149,283,189731,6,0,P|110:296|59:300,1,75,2|0,1:2|0:0,0:0:0:0:
22,166,190017,2,0,P|19:150|8:126,1,37.5,10|2,0:2|0:0,0:0:0:0:
39,184,190160,2,0,P|42:200|53:224,1,37.5,2|2,0:2|0:0,0:0:0:0:
54,157,190303,2,0,P|117:131|146:127,1,75,2|2,1:2|0:2,0:0:0:0:
268,182,190589,1,10,0:2:0:0:
208,115,190731,1,2,0:2:0:0:
302,42,190874,5,6,3:2:0:0:
453,122,191065,1,2,3:2:0:0:
348,127,191255,1,2,3:2:0:0:
452,288,191446,6,0,B|461:299|461:299|457:314,2,25,6|0|0,3:2|3:0|3:0,0:0:0:0:
301,208,191637,1,2,3:2:0:0:
406,203,191827,1,2,3:2:0:0:
340,306,192017,5,6,1:2:0:0:
256,192,192160,12,2,193160,0:2:0:0:
71,328,193439,6,0,P|47:283|46:247,1,82.5000025177003,14|0,0:2|0:2,0:0:0:0:
56,170,193718,1,2,1:2:0:0:
121,119,193857,1,0,0:2:0:0:
202,132,193997,2,0,P|244:139|289:142,1,82.5000025177003,8|2,0:2|0:2,0:0:0:0:
433,30,194276,6,0,P|416:73|411:111,1,82.5000025177003,2|0,1:2|0:2,0:0:0:0:
456,240,194555,2,0,P|473:197|478:159,1,82.5000025177003,10|2,0:2|0:2,0:0:0:0:
416,311,194834,2,0,P|361:266|259:258,1,165.000005035401,2|10,1:2|0:2,0:0:0:0:
196,293,195253,1,0,0:0:0:0:
41,312,195392,6,0,P|114:263|108:183,1,165.000005035401,2|10,1:2|0:2,0:0:0:0:
63,126,195811,1,0,0:2:0:0:
90,48,195950,1,2,1:2:0:0:
166,15,196090,1,0,0:2:0:0:
243,41,196229,2,0,P|218:84|185:97,1,82.5000025177003,10|2,0:2|0:2,0:0:0:0:
156,199,196508,5,2,1:2:0:0:
237,182,196648,1,2,0:2:0:0:
286,247,196787,1,10,0:2:0:0:
364,219,196927,1,2,0:2:0:0:
422,280,197066,5,2,3:2:0:0:
458,240,197160,5,0,3:2:0:0:
489,200,197253,5,0,3:2:0:0:
505,147,197346,5,0,3:2:0:0:
501,92,197439,5,0,3:2:0:0:
471,46,197532,5,0,3:2:0:0:
422,31,197625,6,0,B|338:21|367:84|251:73,1,165.000005035401,6|10,1:2|0:2,0:0:0:0:
205,127,198043,1,0,0:2:0:0:
141,74,198183,2,0,P|89:56|46:65,1,82.5000025177003,2|0,1:2|0:2,0:0:0:0:
19,211,198462,2,0,P|59:212|97:195,1,82.5000025177003,10|2,0:2|0:2,0:0:0:0:
156,253,198741,5,2,1:2:0:0:
230,219,198880,1,0,0:2:0:0:
311,231,199020,1,10,0:2:0:0:
362,296,199160,1,2,0:2:0:0:
336,374,199299,2,0,P|293:350|278:301,1,82.5000025177003,2|0,1:2|0:0,0:0:0:0:
398,217,199578,2,0,P|441:193|456:144,1,82.5000025177003,10|0,0:2|3:2,0:0:0:0:
359,57,199857,5,6,1:2:0:0:
249,45,200043,1,2,0:2:0:0:
139,34,200229,1,2,0:2:0:0:
294,124,200415,6,0,B|301:140|301:140|299:160,2,27.5000008392334,6|0|0,3:2|3:0|3:0,0:0:0:0:
184,112,200601,1,2,3:2:0:0:
74,101,200787,1,2,3:2:0:0:
225,192,200973,6,0,B|232:208|232:208|230:228,2,27.5000008392334,6|0|0,3:2|3:0|3:0,0:0:0:0:
115,180,201159,1,2,3:2:0:0:
5,169,201345,1,2,3:2:0:0:
154,260,201532,5,6,3:2:0:0:
154,260,202090,6,0,B|193:267|221:245|221:245|286:253|316:322,1,179.999994506836,6|8,1:2|0:2,0:0:0:0:
386,348,202499,1,0,0:0:0:0:
463,302,202635,2,0,P|476:257|455:219,1,89.9999972534181,0|0,1:2|0:0,0:0:0:0:
377,177,202908,1,10,0:2:0:0:
347,92,203044,1,2,0:2:0:0:
396,17,203180,6,0,P|342:71|221:40,1,179.999994506836,2|8,1:2|0:2,0:0:0:0:
180,126,203590,1,0,0:0:0:0:
68,34,203726,2,0,P|121:86|120:191,1,179.999994506836,2|8,1:2|0:2,0:0:0:0:
73,263,204135,1,0,0:0:0:0:
147,343,204271,6,0,B|178:362|211:339|211:339|233:348|233:348|292:342|322:396,1,179.999994506836,2|8,1:2|0:2,0:0:0:0:
397,351,204680,1,0,0:0:0:0:
439,271,204817,2,0,P|421:226|427:180,1,89.9999972534181,0|0,1:2|0:0,0:0:0:0:
486,118,205090,1,10,0:2:0:0:
461,31,205226,1,2,0:2:0:0:
371,20,205362,6,0,P|306:31|266:56,1,89.9999972534181,2|0,1:2|0:0,0:0:0:0:
119,21,205635,2,0,P|184:32|224:57,1,89.9999972534181,10|0,0:2|0:0,0:0:0:0:
299,136,205908,5,2,3:2:0:0:
308,176,205999,5,0,0:0:0:0:
291,214,206090,5,0,0:0:0:0:
255,236,206180,5,2,3:2:0:0:
212,237,206271,5,2,3:2:0:0:
177,212,206362,5,2,3:2:0:0:
160,178,206453,6,0,P|111:142|16:220,1,172.500003290176,4|8,1:2|0:2,0:0:0:0:
3,273,206892,1,0,0:0:0:0:
51,344,207038,2,0,L|148:333,1,86.2500016450882,0|0,1:2|0:0,0:0:0:0:
255,236,207331,2,0,L|352:247,1,86.2500016450882,10|2,0:2|0:2,0:0:0:0:
399,308,207623,6,0,P|384:264|457:176,1,165.000005035401,2|8,1:2|0:2,0:0:0:0:
449,177,208096,1,0,0:0:0:0:
478,80,208254,2,0,B|442:65|392:83|405:96|367:124|314:109,1,165.000005035401,2|8,1:2|0:2,0:0:0:0:
257,58,208728,1,0,0:0:0:0:
179,111,208886,6,0,L|71:97,2,100,6|0|0,1:2|3:2|1:2,0:0:0:0:
178,202,209571,6,0,P|162:212|154:222,2,25,6|0|0,3:2|3:0|3:2,0:0:0:0:
156,304,209821,2,0,L|100:296,1,50,0|0,3:2|3:2,0:0:0:0:
173,338,210071,2,0,L|229:330,1,50,0|0,3:2|3:2,0:0:0:0:
321,273,210321,6,0,L|326:240,2,25,6|0|2,3:2|3:0|3:2,0:0:0:0:
382,330,210587,2,0,L|393:390,1,50,2|0,3:2|3:2,0:0:0:0:
412,314,210854,2,0,L|421:264,1,50,2|2,3:2|3:2,0:0:0:0:
486,361,211121,5,4,0:2:0:0:
