osu file format v14

[General]
AudioFilename: audio.mp3
AudioLeadIn: 0
PreviewTime: 164707
Countdown: 0
SampleSet: Normal
StackLeniency: 0.7
Mode: 1
LetterboxInBreaks: 0
WidescreenStoryboard: 1

[Editor]
DistanceSpacing: 1
BeatDivisor: 3
GridSize: 32
TimelineZoom: 0.9999998

[Metadata]
Title:Kakuzetsu Thanatos
TitleUnicode:隔絶≡タナトス
Artist:Rohi
ArtistUnicode:ろひ
Creator:Idealism
Version:Vulkin's Futsuu
Source:osu!
Tags:vocaloid kagamine rin 鏡音リン electronic japanese featured artist fa mappers guild mg mpg vulkin hivie
BeatmapID:2458328
BeatmapSetID:1175412

[Difficulty]
HPDrainRate:7
CircleSize:7
OverallDifficulty:4
ApproachRate:10
SliderMultiplier:1.4
SliderTickRate:1

[Events]
//Background and Video events
0,0,"isolation.jpg",0,0
//Break Periods
//Storyboard Layer 0 (Background)
//Storyboard Layer 1 (Fail)
//Storyboard Layer 2 (Pass)
//Storyboard Layer 3 (Foreground)
//Storyboard Layer 4 (Overlay)
//Storyboard Sound Samples

[TimingPoints]
7,300,4,1,0,50,1,0
7,-100,4,1,0,50,0,0
10769,-100,4,1,0,90,0,0
20069,-100,4,1,0,80,0,0
29969,-100,4,1,0,90,0,0
39269,-100,4,1,0,80,0,0
49169,-100,4,1,0,70,0,0
58732,-100,4,1,0,80,0,0
68407,-100,4,1,0,95,0,1
87438,-100,4,1,0,95,0,1
87607,-100,4,1,0,90,0,0
97507,-100,4,1,0,90,0,1
104407,-100,4,1,0,90,0,0
116369,-100,4,1,0,80,0,0
125969,-100,4,1,0,70,0,0
144869,-100,4,1,0,65,0,0
145019,-100,4,1,0,62,0,0
145169,-100,4,1,0,60,0,0
159532,-100,4,1,0,85,0,0
164407,300,4,1,0,50,1,8
164707,300,4,1,0,95,1,1
164707,-100,4,1,0,95,0,1
183907,292.682926829268,4,1,0,90,1,0
183907,-102.040816326531,4,1,0,90,0,0
188589,285.714285714286,4,1,0,90,1,0
188589,-105.263157894737,4,1,0,90,0,0
193160,279.06976744186,4,1,0,90,1,0
193160,-107.52688172043,4,1,0,90,0,0
193439,-107.52688172043,4,1,0,90,0,1
202090,272.727272727273,4,1,0,90,1,0
202090,-109.89010989011,4,1,0,90,0,0
206453,292.682926829268,4,1,0,90,1,0
206453,-102.040816326531,4,1,0,90,0,0
207623,315.789473684211,4,1,0,90,1,0
207623,-95.2380952380952,4,1,0,90,0,0
208886,342.857142857143,4,1,0,90,1,0
208886,-87.719298245614,4,1,0,90,0,0
209571,375,4,1,0,90,1,8
209571,-80,4,1,0,90,0,8
210321,400,4,1,0,90,1,0
210321,-75.187969924812,4,1,0,90,0,0

[HitObjects]
256,192,907,5,0,0:0:0:0:
256,192,1207,1,8,0:0:0:0:
256,192,1807,1,8,0:0:0:0:
256,192,2407,1,0,0:0:0:0:
256,192,3007,1,0,0:0:0:0:
256,192,3607,1,8,0:0:0:0:
256,192,4207,1,8,0:0:0:0:
256,192,4807,1,0,0:0:0:0:
256,192,6007,1,8,0:0:0:0:
256,192,7207,1,8,0:0:0:0:
256,192,8407,1,0,0:0:0:0:
256,192,8857,1,8,0:0:0:0:
256,192,9307,1,8,0:0:0:0:
256,192,9607,1,0,0:0:0:0:
256,192,10207,1,8,0:0:0:0:
256,192,10507,1,0,0:0:0:0:
256,192,10807,1,12,0:0:0:0:
256,192,11107,1,8,0:0:0:0:
256,192,11257,1,8,0:0:0:0:
256,192,11407,1,0,0:0:0:0:
256,192,12007,1,8,0:0:0:0:
256,192,12307,1,0,0:0:0:0:
256,192,12457,1,0,0:0:0:0:
256,192,12607,1,8,0:0:0:0:
256,192,12907,1,0,0:0:0:0:
256,192,13207,1,8,0:0:0:0:
256,192,13507,1,8,0:0:0:0:
256,192,13657,1,8,0:0:0:0:
256,192,13807,1,0,0:0:0:0:
256,192,14407,1,8,0:0:0:0:
256,192,14707,1,0,0:0:0:0:
256,192,14857,1,0,0:0:0:0:
256,192,15007,1,8,0:0:0:0:
256,192,15607,1,12,0:0:0:0:
256,192,15907,1,8,0:0:0:0:
256,192,16057,1,8,0:0:0:0:
256,192,16207,1,0,0:0:0:0:
256,192,16507,1,8,0:0:0:0:
256,192,16807,1,0,0:0:0:0:
256,192,17107,1,0,0:0:0:0:
256,192,17257,1,0,0:0:0:0:
256,192,17407,1,8,0:0:0:0:
256,192,18007,1,12,0:0:0:0:
256,192,18607,1,4,0:0:0:0:
256,192,19207,1,12,0:0:0:0:
256,192,19807,1,12,0:0:0:0:
256,192,20407,1,4,0:0:0:0:
256,192,20707,1,8,0:0:0:0:
256,192,21007,1,0,0:0:0:0:
256,192,21307,1,8,0:0:0:0:
256,192,21607,1,0,0:0:0:0:
256,192,22057,1,0,0:0:0:0:
256,192,22207,1,8,0:0:0:0:
256,192,22807,1,8,0:0:0:0:
256,192,23107,1,8,0:0:0:0:
256,192,23257,1,8,0:0:0:0:
256,192,23407,1,0,0:0:0:0:
256,192,23707,1,8,0:0:0:0:
256,192,24007,1,0,0:0:0:0:
256,192,24307,1,0,0:0:0:0:
256,192,24607,1,8,0:0:0:0:
256,192,25207,1,0,0:0:0:0:
256,192,25507,1,8,0:0:0:0:
256,192,25807,1,0,0:0:0:0:
256,192,26107,1,8,0:0:0:0:
256,192,26407,1,0,0:0:0:0:
256,192,26857,1,8,0:0:0:0:
256,192,27007,1,0,0:0:0:0:
256,192,27607,1,0,0:0:0:0:
256,192,27907,1,0,0:0:0:0:
256,192,28207,1,8,0:0:0:0:
256,192,28507,1,0,0:0:0:0:
256,192,28807,1,8,0:0:0:0:
256,192,28957,1,8,0:0:0:0:
256,192,29107,1,0,0:0:0:0:
256,192,29407,1,8,0:0:0:0:
256,192,30007,1,12,0:0:0:0:
256,192,30307,1,8,0:0:0:0:
256,192,30457,1,8,0:0:0:0:
256,192,30607,1,0,0:0:0:0:
256,192,31207,1,8,0:0:0:0:
256,192,31507,1,0,0:0:0:0:
256,192,31657,1,0,0:0:0:0:
256,192,31807,1,8,0:0:0:0:
256,192,32107,1,0,0:0:0:0:
256,192,32407,1,8,0:0:0:0:
256,192,32707,1,8,0:0:0:0:
256,192,32857,1,8,0:0:0:0:
256,192,33007,1,0,0:0:0:0:
256,192,33607,1,8,0:0:0:0:
256,192,33907,1,0,0:0:0:0:
256,192,34057,1,0,0:0:0:0:
256,192,34207,1,8,0:0:0:0:
256,192,34807,1,12,0:0:0:0:
256,192,35107,1,8,0:0:0:0:
256,192,35257,1,8,0:0:0:0:
256,192,35407,1,0,0:0:0:0:
256,192,35707,1,8,0:0:0:0:
256,192,36007,1,0,0:0:0:0:
256,192,36307,1,0,0:0:0:0:
256,192,36457,1,0,0:0:0:0:
256,192,36607,1,8,0:0:0:0:
256,192,37207,1,12,0:0:0:0:
256,192,37807,1,4,0:0:0:0:
256,192,38407,1,12,0:0:0:0:
256,192,39007,1,12,0:0:0:0:
256,192,39607,1,4,0:0:0:0:
256,192,40057,1,8,0:0:0:0:
256,192,40207,1,0,0:0:0:0:
256,192,40507,1,8,0:0:0:0:
256,192,40807,1,0,0:0:0:0:
256,192,41257,1,0,0:0:0:0:
256,192,41407,1,8,0:0:0:0:
256,192,41707,1,0,0:0:0:0:
256,192,41857,1,0,0:0:0:0:
256,192,42007,1,8,0:0:0:0:
256,192,42307,1,8,0:0:0:0:
256,192,42457,1,8,0:0:0:0:
256,192,42607,1,0,0:0:0:0:
256,192,42907,1,8,0:0:0:0:
256,192,43207,1,0,0:0:0:0:
256,192,43657,1,8,0:0:0:0:
256,192,43807,1,0,0:0:0:0:
256,192,44107,1,8,0:0:0:0:
256,192,44407,1,4,0:0:0:0:
256,192,44857,1,8,0:0:0:0:
256,192,45007,1,0,0:0:0:0:
256,192,45307,1,8,0:0:0:0:
256,192,45607,1,0,0:0:0:0:
256,192,45907,1,0,0:0:0:0:
256,192,46057,1,8,0:0:0:0:
256,192,46207,1,0,0:0:0:0:
256,192,46507,1,8,0:0:0:0:
256,192,46807,1,0,0:0:0:0:
256,192,47107,1,0,0:0:0:0:
256,192,47257,1,0,0:0:0:0:
256,192,47407,1,8,0:0:0:0:
256,192,47707,1,0,0:0:0:0:
256,192,48007,1,8,0:0:0:0:
256,192,48157,1,8,0:0:0:0:
256,192,48307,1,0,0:0:0:0:
256,192,48457,1,0,0:0:0:0:
256,192,48607,1,8,0:0:0:0:
256,192,49207,1,4,0:0:0:0:
256,192,49807,1,8,0:0:0:0:
256,192,50407,1,0,0:0:0:0:
256,192,50707,1,0,0:0:0:0:
256,192,51007,1,8,0:0:0:0:
256,192,51607,1,8,0:0:0:0:
256,192,52207,1,0,0:0:0:0:
256,192,52807,1,8,0:0:0:0:
256,192,53107,1,8,0:0:0:0:
256,192,53407,1,0,0:0:0:0:
256,192,54007,1,0,0:0:0:0:
256,192,54607,1,8,0:0:0:0:
256,192,55207,1,0,0:0:0:0:
256,192,55507,1,0,0:0:0:0:
256,192,55807,1,8,0:0:0:0:
256,192,56407,1,8,0:0:0:0:
256,192,57007,1,0,0:0:0:0:
256,192,57607,1,8,0:0:0:0:
256,192,57907,1,8,0:0:0:0:
256,192,58207,1,0,0:0:0:0:
256,192,58807,1,12,0:0:0:0:
256,192,59257,1,8,0:0:0:0:
256,192,59407,1,0,0:0:0:0:
256,192,60007,1,8,0:0:0:0:
256,192,60607,1,0,0:0:0:0:
256,192,61207,1,8,0:0:0:0:
256,192,61657,1,0,0:0:0:0:
256,192,61807,1,8,0:0:0:0:
256,192,62407,1,0,0:0:0:0:
256,192,63007,1,8,0:0:0:0:
256,192,63607,1,4,0:0:0:0:
256,192,64057,1,8,0:0:0:0:
256,192,64207,1,0,0:0:0:0:
256,192,64507,1,8,0:0:0:0:
256,192,64807,1,4,0:0:0:0:
256,192,65257,1,0,0:0:0:0:
256,192,65407,1,8,0:0:0:0:
256,192,65707,1,8,0:0:0:0:
256,192,66007,1,4,0:0:0:0:
256,192,66607,1,4,0:0:0:0:
256,192,67207,1,12,0:0:0:0:
256,192,68407,1,4,0:0:0:0:
256,192,68707,1,0,0:0:0:0:
256,192,68857,1,8,0:0:0:0:
256,192,69007,1,0,0:0:0:0:
256,192,69457,1,0,0:0:0:0:
256,192,69607,1,8,0:0:0:0:
256,192,69907,1,0,0:0:0:0:
256,192,70057,1,0,0:0:0:0:
256,192,70207,1,8,0:0:0:0:
256,192,70807,1,8,0:0:0:0:
256,192,71107,1,8,0:0:0:0:
256,192,71257,1,8,0:0:0:0:
256,192,71407,1,0,0:0:0:0:
256,192,71707,1,8,0:0:0:0:
256,192,72007,1,0,0:0:0:0:
256,192,72307,1,0,0:0:0:0:
256,192,72457,1,0,0:0:0:0:
256,192,72607,1,8,0:0:0:0:
256,192,73207,1,4,0:0:0:0:
256,192,73507,1,8,0:0:0:0:
256,192,73657,1,0,0:0:0:0:
256,192,73957,1,8,0:0:0:0:
256,192,74107,1,0,0:0:0:0:
256,192,74407,1,8,0:0:0:0:
256,192,74707,1,0,0:0:0:0:
256,192,74857,1,8,0:0:0:0:
256,192,75157,1,0,0:0:0:0:
256,192,75307,1,8,0:0:0:0:
256,192,75607,1,8,0:0:0:0:
256,192,75907,1,0,0:0:0:0:
256,192,76057,1,0,0:0:0:0:
256,192,76507,1,8,0:0:0:0:
256,192,76807,1,4,0:0:0:0:
256,192,77407,1,12,0:0:0:0:
256,192,78007,1,4,0:0:0:0:
256,192,78307,1,0,0:0:0:0:
256,192,78457,1,8,0:0:0:0:
256,192,78607,1,0,0:0:0:0:
256,192,79057,1,0,0:0:0:0:
256,192,79207,1,8,0:0:0:0:
256,192,79507,1,0,0:0:0:0:
256,192,79657,1,0,0:0:0:0:
256,192,79807,1,8,0:0:0:0:
256,192,80407,1,8,0:0:0:0:
256,192,80707,1,8,0:0:0:0:
256,192,80857,1,8,0:0:0:0:
256,192,81007,1,0,0:0:0:0:
256,192,81307,1,8,0:0:0:0:
256,192,81607,1,0,0:0:0:0:
256,192,81907,1,0,0:0:0:0:
256,192,82057,1,0,0:0:0:0:
256,192,82207,1,8,0:0:0:0:
256,192,82807,1,4,0:0:0:0:
256,192,83107,1,8,0:0:0:0:
256,192,83257,1,0,0:0:0:0:
256,192,83557,1,8,0:0:0:0:
256,192,83707,1,0,0:0:0:0:
256,192,84007,1,8,0:0:0:0:
256,192,84307,1,0,0:0:0:0:
256,192,84457,1,8,0:0:0:0:
256,192,84757,1,0,0:0:0:0:
256,192,84907,1,8,0:0:0:0:
256,192,85207,1,0,0:0:0:0:
256,192,85657,1,0,0:0:0:0:
256,192,86107,1,8,0:0:0:0:
256,192,86407,1,4,0:0:0:0:
256,192,87007,1,12,0:0:0:0:
256,192,87607,1,4,0:0:0:0:
256,192,88207,1,8,0:0:0:0:
256,192,88507,1,8,0:0:0:0:
256,192,88807,1,0,0:0:0:0:
256,192,89257,1,8,0:0:0:0:
256,192,89407,1,0,0:0:0:0:
256,192,90007,1,8,0:0:0:0:
256,192,90307,1,0,0:0:0:0:
256,192,90607,1,8,0:0:0:0:
256,192,90907,1,8,0:0:0:0:
256,192,91207,1,0,0:0:0:0:
256,192,91807,1,8,0:0:0:0:
256,192,92407,1,4,0:0:0:0:
256,192,92707,1,0,0:0:0:0:
256,192,92857,1,8,0:0:0:0:
256,192,93007,1,0,0:0:0:0:
256,192,93307,1,8,0:0:0:0:
256,192,93607,1,0,0:0:0:0:
256,192,93907,1,0,0:0:0:0:
256,192,94207,1,8,0:0:0:0:
256,192,94807,1,4,0:0:0:0:
256,192,95407,1,12,0:0:0:0:
256,192,96007,1,0,0:0:0:0:
256,192,97207,1,0,0:0:0:0:
256,192,97507,1,12,0:0:0:0:
256,192,98107,1,8,0:0:0:0:
256,192,98407,1,0,0:0:0:0:
256,192,98707,1,8,0:0:0:0:
256,192,98857,1,8,0:0:0:0:
256,192,99007,1,0,0:0:0:0:
256,192,99307,1,8,0:0:0:0:
256,192,99607,1,0,0:0:0:0:
256,192,100207,1,0,0:0:0:0:
256,192,100507,1,8,0:0:0:0:
256,192,100807,1,0,0:0:0:0:
256,192,101107,1,0,0:0:0:0:
256,192,101257,1,0,0:0:0:0:
256,192,101407,1,8,0:0:0:0:
256,192,102007,1,4,0:0:0:0:
256,192,102307,1,0,0:0:0:0:
256,192,102457,1,8,0:0:0:0:
256,192,102607,1,0,0:0:0:0:
256,192,102907,1,8,0:0:0:0:
256,192,103207,1,0,0:0:0:0:
256,192,103507,1,8,0:0:0:0:
256,192,103657,1,8,0:0:0:0:
256,192,103807,1,0,0:0:0:0:
256,192,104107,1,8,0:0:0:0:
256,192,104407,1,4,0:0:0:0:
256,192,105007,1,12,0:0:0:0:
256,192,105607,1,4,0:0:0:0:
256,192,106207,1,12,0:0:0:0:
256,192,106807,1,4,0:0:0:0:
256,192,107407,1,0,0:0:0:0:
256,192,107707,1,0,0:0:0:0:
256,192,107857,1,0,0:0:0:0:
256,192,108007,1,8,0:0:0:0:
256,192,108307,1,0,0:0:0:0:
256,192,108607,1,8,0:0:0:0:
256,192,109207,1,0,0:0:0:0:
256,192,109507,1,0,0:0:0:0:
256,192,109657,1,8,0:0:0:0:
256,192,109807,1,0,0:0:0:0:
256,192,110107,1,8,0:0:0:0:
256,192,110407,1,0,0:0:0:0:
256,192,110707,1,8,0:0:0:0:
256,192,111007,1,0,0:0:0:0:
256,192,111607,1,4,0:0:0:0:
256,192,111907,1,0,0:0:0:0:
256,192,112057,1,8,0:0:0:0:
256,192,112207,1,0,0:0:0:0:
256,192,112507,1,8,0:0:0:0:
256,192,112807,1,0,0:0:0:0:
256,192,113107,1,0,0:0:0:0:
256,192,113257,1,0,0:0:0:0:
256,192,113407,1,8,0:0:0:0:
256,192,113707,1,0,0:0:0:0:
256,192,114007,1,12,0:0:0:0:
256,192,114607,1,4,0:0:0:0:
256,192,115207,1,12,0:0:0:0:
256,192,115807,1,12,0:0:0:0:
256,192,116407,1,4,0:0:0:0:
256,192,116857,1,8,0:0:0:0:
256,192,117007,1,0,0:0:0:0:
256,192,117307,1,8,0:0:0:0:
256,192,117607,1,0,0:0:0:0:
256,192,118057,1,0,0:0:0:0:
256,192,118207,1,8,0:0:0:0:
256,192,118507,1,0,0:0:0:0:
256,192,118657,1,0,0:0:0:0:
256,192,118807,1,8,0:0:0:0:
256,192,119107,1,8,0:0:0:0:
256,192,119257,1,8,0:0:0:0:
256,192,119407,1,0,0:0:0:0:
256,192,119707,1,8,0:0:0:0:
256,192,120007,1,0,0:0:0:0:
256,192,120457,1,8,0:0:0:0:
256,192,120607,1,0,0:0:0:0:
256,192,120907,1,8,0:0:0:0:
256,192,121207,1,4,0:0:0:0:
256,192,121657,1,8,0:0:0:0:
256,192,121807,1,0,0:0:0:0:
256,192,122107,1,8,0:0:0:0:
256,192,122407,1,0,0:0:0:0:
256,192,122707,1,0,0:0:0:0:
256,192,122857,1,8,0:0:0:0:
256,192,123007,1,0,0:0:0:0:
256,192,123307,1,8,0:0:0:0:
256,192,123607,1,0,0:0:0:0:
256,192,123907,1,0,0:0:0:0:
256,192,124057,1,0,0:0:0:0:
256,192,124207,1,8,0:0:0:0:
256,192,124507,1,0,0:0:0:0:
256,192,124807,1,8,0:0:0:0:
256,192,124957,1,8,0:0:0:0:
256,192,125107,1,0,0:0:0:0:
256,192,125257,1,0,0:0:0:0:
256,192,125407,1,8,0:0:0:0:
256,192,126007,1,4,0:0:0:0:
256,192,126607,1,8,0:0:0:0:
256,192,127207,1,0,0:0:0:0:
256,192,127507,1,0,0:0:0:0:
256,192,127807,1,8,0:0:0:0:
256,192,128407,1,8,0:0:0:0:
256,192,129007,1,0,0:0:0:0:
256,192,129607,1,8,0:0:0:0:
256,192,129907,1,8,0:0:0:0:
256,192,130207,1,0,0:0:0:0:
256,192,130807,1,0,0:0:0:0:
256,192,131407,1,8,0:0:0:0:
256,192,132007,1,0,0:0:0:0:
256,192,132307,1,0,0:0:0:0:
256,192,132607,1,8,0:0:0:0:
256,192,133207,1,8,0:0:0:0:
256,192,133807,1,0,0:0:0:0:
256,192,134407,1,8,0:0:0:0:
256,192,134707,1,8,0:0:0:0:
256,192,135007,1,0,0:0:0:0:
256,192,135607,1,12,0:0:0:0:
256,192,136057,1,8,0:0:0:0:
256,192,136207,1,0,0:0:0:0:
256,192,136807,1,8,0:0:0:0:
256,192,137407,1,0,0:0:0:0:
256,192,138007,1,8,0:0:0:0:
256,192,138457,1,0,0:0:0:0:
256,192,138607,1,8,0:0:0:0:
256,192,139207,1,0,0:0:0:0:
256,192,139807,1,8,0:0:0:0:
256,192,140407,1,4,0:0:0:0:
256,192,140857,1,8,0:0:0:0:
256,192,141007,1,0,0:0:0:0:
256,192,141307,1,8,0:0:0:0:
256,192,141607,1,4,0:0:0:0:
256,192,142057,1,0,0:0:0:0:
256,192,142207,1,8,0:0:0:0:
256,192,142507,1,8,0:0:0:0:
256,192,142807,1,4,0:0:0:0:
256,192,143407,1,4,0:0:0:0:
256,192,144007,1,12,0:0:0:0:
256,192,145207,1,4,0:0:0:0:
256,192,146407,1,8,0:0:0:0:
256,192,147607,1,8,0:0:0:0:
256,192,148807,1,8,0:0:0:0:
256,192,150007,1,0,0:0:0:0:
256,192,150457,1,0,0:0:0:0:
256,192,151207,1,8,0:0:0:0:
256,192,151657,1,8,0:0:0:0:
256,192,152407,1,0,0:0:0:0:
256,192,152857,1,0,0:0:0:0:
256,192,153607,1,8,0:0:0:0:
256,192,154207,1,8,0:0:0:0:
256,192,154807,1,4,0:0:0:0:
256,192,156007,1,8,0:0:0:0:
256,192,157207,1,8,0:0:0:0:
256,192,158407,1,8,0:0:0:0:
256,192,159607,1,4,0:0:0:0:
256,192,160207,1,0,0:0:0:0:
256,192,160507,1,8,0:0:0:0:
256,192,160807,1,4,0:0:0:0:
256,192,161407,1,8,0:0:0:0:
256,192,161707,1,8,0:0:0:0:
256,192,162007,1,4,0:0:0:0:
256,192,162607,1,4,0:0:0:0:
256,192,163207,1,4,0:0:0:0:
256,192,163507,1,4,0:0:0:0:
256,192,163807,1,12,0:0:0:0:
256,192,164107,1,12,0:0:0:0:
256,192,164707,1,12,0:0:0:0:
256,192,165307,1,0,0:0:0:0:
256,192,165607,1,8,0:0:0:0:
256,192,165757,1,8,0:0:0:0:
256,192,165907,1,0,0:0:0:0:
256,192,166207,1,8,0:0:0:0:
256,192,166507,1,0,0:0:0:0:
256,192,166807,1,0,0:0:0:0:
256,192,166957,1,0,0:0:0:0:
256,192,167107,1,8,0:0:0:0:
256,192,167707,1,0,0:0:0:0:
256,192,168007,1,0,0:0:0:0:
256,192,168157,1,8,0:0:0:0:
256,192,168307,1,0,0:0:0:0:
256,192,168607,1,8,0:0:0:0:
256,192,168907,1,0,0:0:0:0:
256,192,169207,1,8,0:0:0:0:
256,192,169507,1,4,0:0:0:0:
256,192,169807,1,8,0:0:0:0:
256,192,169957,1,0,0:0:0:0:
256,192,170257,1,8,0:0:0:0:
256,192,170407,1,0,0:0:0:0:
256,192,170707,1,8,0:0:0:0:
256,192,171007,1,0,0:0:0:0:
256,192,171157,1,8,0:0:0:0:
256,192,171457,1,0,0:0:0:0:
256,192,171607,1,8,0:0:0:0:
256,192,171907,1,0,0:0:0:0:
256,192,172207,1,0,0:0:0:0:
256,192,172357,1,8,0:0:0:0:
256,192,172507,1,0,0:0:0:0:
256,192,172807,1,8,0:0:0:0:
256,192,173107,1,4,0:0:0:0:
256,192,173707,1,12,0:0:0:0:
256,192,174007,1,12,0:0:0:0:
256,192,174307,1,4,0:0:0:0:
256,192,174907,1,0,0:0:0:0:
256,192,175207,1,8,0:0:0:0:
256,192,175357,1,8,0:0:0:0:
256,192,175507,1,0,0:0:0:0:
256,192,175807,1,0,0:0:0:0:
256,192,176107,1,8,0:0:0:0:
256,192,176407,1,0,0:0:0:0:
256,192,176557,1,0,0:0:0:0:
256,192,176707,1,8,0:0:0:0:
256,192,177307,1,0,0:0:0:0:
256,192,177607,1,0,0:0:0:0:
256,192,177757,1,8,0:0:0:0:
256,192,177907,1,0,0:0:0:0:
256,192,178207,1,8,0:0:0:0:
256,192,178507,1,0,0:0:0:0:
256,192,178807,1,8,0:0:0:0:
256,192,179107,1,4,0:0:0:0:
256,192,179407,1,8,0:0:0:0:
256,192,179557,1,0,0:0:0:0:
256,192,179857,1,8,0:0:0:0:
256,192,180007,1,0,0:0:0:0:
256,192,180307,1,8,0:0:0:0:
256,192,180607,1,0,0:0:0:0:
256,192,180757,1,8,0:0:0:0:
256,192,181057,1,0,0:0:0:0:
256,192,181207,1,8,0:0:0:0:
256,192,181507,1,0,0:0:0:0:
256,192,181957,1,0,0:0:0:0:
256,192,182407,1,8,0:0:0:0:
256,192,182707,1,4,0:0:0:0:
256,192,183307,1,12,0:0:0:0:
256,192,183907,1,4,0:0:0:0:
256,192,184492,1,8,0:0:0:0:
256,192,185077,1,0,0:0:0:0:
256,192,185370,1,8,0:0:0:0:
256,192,185516,1,8,0:0:0:0:
256,192,185663,1,8,0:0:0:0:
256,192,185955,1,8,0:0:0:0:
256,192,186248,1,0,0:0:0:0:
256,192,186833,1,8,0:0:0:0:
256,192,187419,1,0,0:0:0:0:
256,192,187711,1,0,0:0:0:0:
256,192,187858,1,0,0:0:0:0:
256,192,188004,1,8,0:0:0:0:
256,192,188297,1,8,0:0:0:0:
256,192,188589,1,4,0:0:0:0:
256,192,189160,1,8,0:0:0:0:
256,192,189731,1,0,0:0:0:0:
256,192,190017,1,8,0:0:0:0:
256,192,190160,1,8,0:0:0:0:
256,192,190303,1,8,0:0:0:0:
256,192,190589,1,8,0:0:0:0:
256,192,190874,1,4,0:0:0:0:
256,192,191446,1,12,0:0:0:0:
256,192,192017,1,0,0:0:0:0:
256,192,192303,1,0,0:0:0:0:
256,192,192874,1,8,0:0:0:0:
256,192,193160,1,4,0:0:0:0:
256,192,193997,1,8,0:0:0:0:
256,192,194276,1,0,0:0:0:0:
256,192,194555,1,8,0:0:0:0:
256,192,194694,1,8,0:0:0:0:
256,192,194834,1,8,0:0:0:0:
256,192,195392,1,0,0:0:0:0:
256,192,195950,1,0,0:0:0:0:
256,192,196229,1,8,0:0:0:0:
256,192,196508,1,0,0:0:0:0:
256,192,196648,1,0,0:0:0:0:
256,192,196787,1,0,0:0:0:0:
256,192,197066,1,8,0:0:0:0:
256,192,197625,1,4,0:0:0:0:
256,192,198462,1,8,0:0:0:0:
256,192,198741,1,0,0:0:0:0:
256,192,199020,1,8,0:0:0:0:
256,192,199160,1,8,0:0:0:0:
256,192,199299,1,8,0:0:0:0:
256,192,199578,1,8,0:0:0:0:
256,192,199857,1,4,0:0:0:0:
256,192,200415,1,12,0:0:0:0:
256,192,200973,1,4,0:0:0:0:
256,192,201532,1,12,0:0:0:0:
256,192,202090,1,4,0:0:0:0:
256,192,202908,1,8,0:0:0:0:
256,192,203044,1,8,0:0:0:0:
256,192,203180,1,0,0:0:0:0:
256,192,203453,1,8,0:0:0:0:
256,192,203726,1,0,0:0:0:0:
256,192,204271,1,0,0:0:0:0:
256,192,205090,1,8,0:0:0:0:
256,192,205226,1,8,0:0:0:0:
256,192,205362,1,0,0:0:0:0:
256,192,205635,1,8,0:0:0:0:
256,192,205908,1,0,0:0:0:0:
256,192,206453,1,4,0:0:0:0:
256,192,207331,1,8,0:0:0:0:
256,192,207623,1,0,0:0:0:0:
256,192,208254,1,8,0:0:0:0:
256,192,208886,1,4,0:0:0:0:
256,192,209571,1,12,0:0:0:0:
256,192,210321,1,4,0:0:0:0:
256,192,211121,1,12,0:0:0:0:
