osu file format v14

[General]
AudioFilename: audio.mp3
AudioLeadIn: 0
PreviewTime: 164707
Countdown: 0
SampleSet: Normal
StackLeniency: 0.7
Mode: 1
LetterboxInBreaks: 0
WidescreenStoryboard: 0

[Editor]
DistanceSpacing: 1
BeatDivisor: 4
GridSize: 4
TimelineZoom: 2

[Metadata]
Title:Kakuzetsu Thanatos
TitleUnicode:隔絶≡タナトス
Artist:Rohi
ArtistUnicode:ろひ
Creator:Idealism
Version:Oni
Source:osu!
Tags:vocaloid kagamine rin 鏡音リン electronic japanese featured artist fa mappers guild mg mpg vulkin hivie
BeatmapID:2451624
BeatmapSetID:1175412

[Difficulty]
HPDrainRate:5.5
CircleSize:5
OverallDifficulty:6
ApproachRate:5.1
SliderMultiplier:1.4
SliderTickRate:1

[Events]
//Background and Video events
0,0,"isolation.jpg",0,0
//Break Periods
//Storyboard Layer 0 (Background)
//Storyboard Layer 1 (Fail)
//Storyboard Layer 2 (Pass)
//Storyboard Layer 3 (Foreground)
//Storyboard Layer 4 (Overlay)
//Storyboard Sound Samples

[TimingPoints]
7,300,4,1,0,50,1,0
7,-117.647058823529,4,1,0,50,0,0
8332,-116.279069767442,4,1,0,50,0,0
8482,-114.942528735632,4,1,0,50,0,0
8632,-113.636363636364,4,1,0,50,0,0
8782,-112.359550561798,4,1,0,50,0,0
9082,-111.111111111111,4,1,0,50,0,0
9232,-109.89010989011,4,1,0,50,0,0
9532,-108.695652173913,4,1,0,50,0,0
9682,-107.52688172043,4,1,0,50,0,0
9982,-106.382978723404,4,1,0,50,0,0
10132,-105.263157894737,4,1,0,50,0,0
10432,-104.166666666667,4,1,0,80,0,0
10544,-103.092783505155,4,1,0,80,0,0
10619,-102.040816326531,4,1,0,80,0,0
10694,-101.010101010101,4,1,0,80,0,0
10769,-100,4,1,0,90,0,0
20069,-105.263157894737,4,1,0,80,0,0
29669,-104.166666666667,4,1,0,80,0,0
29819,-102.040816326531,4,1,0,80,0,0
29969,-100,4,1,0,90,0,0
39269,-105.263157894737,4,1,0,80,0,0
48869,-108.695652173913,4,1,0,75,0,0
49019,-112.359550561798,4,1,0,72,0,0
49169,-117.647058823529,4,1,0,70,0,0
58732,-105.263157894737,4,1,0,80,0,0
68032,-100,4,1,0,70,0,0
68182,-95.2380952380952,4,1,0,70,0,0
68407,-90.9090909090909,4,1,0,95,0,1
87307,-93.4579439252336,4,1,0,95,0,1
87457,-96.1538461538461,4,1,0,95,0,1
87607,-100,4,1,0,90,0,0
96569,-99.009900990099,4,1,0,90,0,0
96644,-98.0392156862745,4,1,0,90,0,0
96719,-97.0873786407767,4,1,0,90,0,0
96794,-96.1538461538461,4,1,0,90,0,0
96869,-95.2380952380952,4,1,0,90,0,0
97019,-93.4579439252336,4,1,0,90,0,0
97169,-90.9090909090909,4,1,0,90,0,0
97507,-90.9090909090909,4,1,0,90,0,1
104407,-90.9090909090909,4,1,0,90,0,0
106757,-100,4,1,0,90,0,0
116069,-101.010101010101,4,1,0,90,0,0
116144,-102.040816326531,4,1,0,90,0,0
116219,-103.092783505155,4,1,0,90,0,0
116294,-104.166666666667,4,1,0,90,0,0
116369,-105.263157894737,4,1,0,80,0,0
125669,-108.695652173913,4,1,0,75,0,0
125819,-112.359550561798,4,1,0,72,0,0
125969,-117.647058823529,4,1,0,70,0,0
144869,-121.951219512195,4,1,0,65,0,0
145019,-126.582278481013,4,1,0,62,0,0
145169,-133.333333333333,4,1,0,60,0,0
159569,-125,4,1,0,60,0,0
160469,-123.456790123457,4,1,0,60,0,0
160544,-121.951219512195,4,1,0,60,0,0
160619,-120.481927710843,4,1,0,60,0,0
160769,-117.647058823529,4,1,0,70,0,0
161669,-116.279069767442,4,1,0,70,0,0
161744,-114.942528735632,4,1,0,70,0,0
161819,-113.636363636364,4,1,0,70,0,0
161957,-111.111111111111,4,1,0,70,0,0
162269,-109.89010989011,4,1,0,80,0,0
162344,-108.695652173913,4,1,0,80,0,0
162419,-107.52688172043,4,1,0,80,0,0
162569,-105.263157894737,4,1,0,85,0,0
162869,-104.166666666667,4,1,0,85,0,0
162944,-103.092783505155,4,1,0,85,0,0
163019,-102.040816326531,4,1,0,85,0,0
163169,-100,4,1,0,90,0,0
164407,300,4,1,0,90,1,8
164707,300,4,1,0,95,1,1
164707,-86.9565217391304,4,1,0,95,0,1
183719,-89.2857142857143,4,1,0,95,0,1
183832,-91.743119266055,4,1,0,95,0,1
183907,292.682926829268,4,1,0,90,1,0
183907,-97.0873786407767,4,1,0,90,0,0
188589,285.714285714286,4,1,0,90,1,0
188589,-100,4,1,0,90,0,0
193160,279.06976744186,4,1,0,90,1,0
193160,-103.092783505155,4,1,0,90,0,0
193439,-90.9090909090909,4,1,0,90,0,1
201532,-90.9090909090909,4,1,0,90,0,0
202090,272.727272727273,4,1,0,90,1,0
202090,-94.3396226415094,4,1,0,90,0,0
205953,-96.1538461538461,4,1,0,90,0,0
206044,-98.0392156862745,4,1,0,90,0,0
206135,-100,4,1,0,90,0,0
206453,292.682926829268,4,1,0,90,1,0
206453,-95.2380952380952,4,1,0,90,0,0
207623,315.789473684211,4,1,0,90,1,0
207623,-88.1057268722467,4,1,0,90,0,0
208886,342.857142857143,4,1,0,90,1,0
208886,-83.3333333333333,4,1,0,90,0,0
209057,-85.4700854700855,4,1,0,90,0,0
209286,-87.719298245614,4,1,0,90,0,0
209571,375,4,1,0,90,1,8
209571,-81.3008130081301,4,1,0,90,0,0
209633,-83.3333333333333,4,1,0,90,0,0
209758,-85.4700854700855,4,1,0,90,0,0
210008,-87.719298245614,4,1,0,90,0,0
210321,400,4,1,0,90,1,0
210321,-84.7457627118644,4,1,0,90,0,0
210387,-86.9565217391304,4,1,0,90,0,0
210521,-89.2857142857143,4,1,0,90,0,0
210654,-91.743119266055,4,1,0,90,0,0
210787,-94.3396226415094,4,1,0,90,0,0
211054,-97.0873786407767,4,1,0,90,0,0

[HitObjects]
248,179,907,5,0,0:0:0:0:
248,179,1057,1,0,0:0:0:0:
248,179,1207,1,8,0:0:0:0:
254,184,1807,1,8,0:0:0:0:
254,184,2032,1,8,0:0:0:0:
254,184,2257,1,8,0:0:0:0:
254,184,2407,1,0,0:0:0:0:
250,178,3007,1,0,0:0:0:0:
254,177,3232,1,0,0:0:0:0:
255,177,3457,1,0,0:0:0:0:
255,177,3607,1,8,0:0:0:0:
254,177,4207,1,0,0:0:0:0:
255,177,4432,1,8,0:0:0:0:
255,177,4657,1,8,0:0:0:0:
254,177,4807,1,0,0:0:0:0:
254,177,5032,1,8,0:0:0:0:
255,177,5257,1,8,0:0:0:0:
255,177,5407,1,0,0:0:0:0:
254,177,6007,1,8,0:0:0:0:
255,177,6157,1,8,0:0:0:0:
255,177,6307,1,0,0:0:0:0:
255,177,6457,1,8,0:0:0:0:
259,172,7207,1,0,0:0:0:0:
259,172,7357,1,0,0:0:0:0:
262,175,7507,1,8,0:0:0:0:
262,175,7657,1,8,0:0:0:0:
258,169,8407,1,8,0:0:0:0:
258,169,8857,1,8,0:0:0:0:
258,169,9307,1,8,0:0:0:0:
260,169,9607,1,0,0:0:0:0:
258,169,9832,1,8,0:0:0:0:
258,169,10057,1,0,0:0:0:0:
258,169,10207,1,8,0:0:0:0:
260,169,10507,1,0,0:0:0:0:
258,169,10657,1,0,0:0:0:0:
258,169,10807,1,12,0:0:0:0:
258,169,10957,1,0,0:0:0:0:
258,169,11107,1,8,0:0:0:0:
258,169,11182,1,8,0:0:0:0:
260,169,11257,1,0,0:0:0:0:
260,169,11407,1,8,0:0:0:0:
260,169,11557,1,0,0:0:0:0:
254,157,11707,1,0,0:0:0:0:
253,157,11782,1,8,0:0:0:0:
252,157,11857,1,0,0:0:0:0:
262,159,11932,1,0,0:0:0:0:
252,157,12007,1,8,0:0:0:0:
258,169,12157,1,0,0:0:0:0:
252,163,12307,1,8,0:0:0:0:
252,163,12382,1,8,0:0:0:0:
252,163,12457,1,0,0:0:0:0:
252,163,12607,1,8,0:0:0:0:
252,165,12757,1,0,0:0:0:0:
243,156,12907,1,8,0:0:0:0:
252,163,13207,1,8,0:0:0:0:
252,163,13357,1,0,0:0:0:0:
252,163,13507,1,8,0:0:0:0:
252,163,13582,1,8,0:0:0:0:
252,165,13657,1,0,0:0:0:0:
253,160,13807,1,8,0:0:0:0:
253,158,13957,1,0,0:0:0:0:
253,167,14107,1,0,0:0:0:0:
252,163,14182,1,8,0:0:0:0:
252,163,14257,1,0,0:0:0:0:
247,161,14332,1,0,0:0:0:0:
252,163,14407,1,8,0:0:0:0:
256,167,14557,1,0,0:0:0:0:
252,165,14707,1,8,0:0:0:0:
253,167,14857,1,0,0:0:0:0:
253,167,15007,1,8,0:0:0:0:
253,167,15107,1,8,0:0:0:0:
256,159,15207,1,8,0:0:0:0:
253,157,15307,1,8,0:0:0:0:
250,157,15607,1,12,0:0:0:0:
258,169,15907,1,8,0:0:0:0:
258,169,15982,1,8,0:0:0:0:
260,169,16057,1,0,0:0:0:0:
260,169,16207,1,8,0:0:0:0:
260,169,16357,1,0,0:0:0:0:
254,157,16507,1,8,0:0:0:0:
253,157,16582,1,0,0:0:0:0:
252,157,16657,1,8,0:0:0:0:
252,157,16732,1,8,0:0:0:0:
252,157,16807,1,0,0:0:0:0:
258,169,16957,1,0,0:0:0:0:
252,163,17107,1,8,0:0:0:0:
252,163,17182,1,8,0:0:0:0:
252,163,17257,1,0,0:0:0:0:
252,163,17407,1,8,0:0:0:0:
252,165,17557,1,0,0:0:0:0:
243,156,17707,1,8,0:0:0:0:
248,165,17857,1,0,0:0:0:0:
249,165,17932,1,0,0:0:0:0:
252,163,18007,1,12,0:0:0:0:
252,163,18207,1,12,0:0:0:0:
252,165,18407,1,4,0:0:0:0:
249,165,18607,1,12,0:0:0:0:
248,165,18807,1,12,0:0:0:0:
252,163,19007,5,4,0:0:0:0:
252,165,19207,1,12,0:0:0:0:
249,165,19407,1,12,0:0:0:0:
249,165,19607,1,4,0:0:0:0:
248,165,19807,1,12,0:0:0:0:
252,165,20107,1,8,0:0:0:0:
252,165,20257,1,0,0:0:0:0:
249,165,20407,1,8,0:0:0:0:
239,168,20557,1,8,0:0:0:0:
239,168,20632,1,0,0:0:0:0:
239,168,20707,1,8,0:0:0:0:
240,168,20857,1,0,0:0:0:0:
240,168,21007,1,8,0:0:0:0:
236,165,21307,1,0,0:0:0:0:
236,166,21457,1,0,0:0:0:0:
239,168,21607,1,8,0:0:0:0:
240,168,21757,1,8,0:0:0:0:
244,169,21832,1,8,0:0:0:0:
244,169,21907,1,8,0:0:0:0:
244,169,22057,1,0,0:0:0:0:
244,169,22207,1,0,0:0:0:0:
236,166,22507,1,8,0:0:0:0:
239,168,22657,1,0,0:0:0:0:
240,168,22807,1,8,0:0:0:0:
244,169,22957,1,8,0:0:0:0:
244,169,23032,1,8,0:0:0:0:
244,169,23107,1,0,0:0:0:0:
240,171,23257,1,0,0:0:0:0:
240,170,23407,1,8,0:0:0:0:
240,168,23707,1,8,0:0:0:0:
239,170,23857,1,0,0:0:0:0:
239,169,24007,1,8,0:0:0:0:
240,171,24157,1,8,0:0:0:0:
240,171,24232,1,0,0:0:0:0:
240,170,24307,1,8,0:0:0:0:
240,168,24457,1,0,0:0:0:0:
240,168,24607,1,0,0:0:0:0:
233,167,24907,1,8,0:0:0:0:
233,168,25057,1,8,0:0:0:0:
233,168,25207,1,0,0:0:0:0:
240,170,25357,1,8,0:0:0:0:
235,170,25432,1,8,0:0:0:0:
232,172,25507,1,0,0:0:0:0:
233,172,25657,1,0,0:0:0:0:
233,167,25807,1,8,0:0:0:0:
224,173,26107,1,8,0:0:0:0:
224,173,26257,1,8,0:0:0:0:
226,172,26407,1,0,0:0:0:0:
224,172,26557,1,8,0:0:0:0:
224,172,26632,1,0,0:0:0:0:
224,172,26707,1,8,0:0:0:0:
224,173,26857,1,8,0:0:0:0:
224,173,27007,1,0,0:0:0:0:
220,173,27307,1,8,0:0:0:0:
224,172,27457,1,0,0:0:0:0:
220,175,27607,1,8,0:0:0:0:
220,179,27757,1,0,0:0:0:0:
220,179,27832,1,0,0:0:0:0:
220,179,27907,1,8,0:0:0:0:
220,180,28057,1,8,0:0:0:0:
220,180,28207,1,0,0:0:0:0:
217,180,28357,1,8,0:0:0:0:
217,180,28432,1,8,0:0:0:0:
217,180,28507,1,0,0:0:0:0:
220,179,28657,1,8,0:0:0:0:
220,179,28807,1,0,0:0:0:0:
220,180,28957,1,8,0:0:0:0:
220,180,29032,1,0,0:0:0:0:
220,180,29107,1,8,0:0:0:0:
217,180,29257,1,8,0:0:0:0:
217,180,29407,1,0,0:0:0:0:
220,179,29707,1,0,0:0:0:0:
220,180,29857,1,8,0:0:0:0:
220,180,30007,1,12,0:0:0:0:
258,169,30157,1,0,0:0:0:0:
258,169,30307,1,8,0:0:0:0:
258,169,30382,1,8,0:0:0:0:
260,169,30457,1,0,0:0:0:0:
260,169,30607,1,8,0:0:0:0:
254,157,30907,1,8,0:0:0:0:
253,157,30982,1,0,0:0:0:0:
252,157,31057,1,8,0:0:0:0:
252,157,31132,1,8,0:0:0:0:
252,157,31207,1,0,0:0:0:0:
258,169,31357,1,0,0:0:0:0:
252,163,31507,1,8,0:0:0:0:
252,163,31582,1,8,0:0:0:0:
252,163,31657,1,0,0:0:0:0:
252,163,31807,1,0,0:0:0:0:
243,156,32107,1,8,0:0:0:0:
252,163,32407,1,8,0:0:0:0:
252,163,32557,1,0,0:0:0:0:
252,163,32707,1,8,0:0:0:0:
252,163,32782,1,8,0:0:0:0:
252,165,32857,1,0,0:0:0:0:
253,160,33007,1,8,0:0:0:0:
253,167,33307,1,0,0:0:0:0:
252,163,33382,1,8,0:0:0:0:
252,163,33457,1,0,0:0:0:0:
252,163,33532,1,0,0:0:0:0:
252,163,33607,1,8,0:0:0:0:
256,167,33757,1,0,0:0:0:0:
252,165,33907,1,8,0:0:0:0:
253,167,34057,1,0,0:0:0:0:
253,167,34207,1,8,0:0:0:0:
253,167,34307,1,8,0:0:0:0:
256,159,34407,1,8,0:0:0:0:
253,157,34507,1,8,0:0:0:0:
250,157,34807,1,12,0:0:0:0:
258,169,35107,1,8,0:0:0:0:
258,169,35182,1,8,0:0:0:0:
260,169,35257,1,0,0:0:0:0:
260,169,35407,1,8,0:0:0:0:
254,157,35707,1,8,0:0:0:0:
253,157,35782,1,0,0:0:0:0:
252,157,35857,1,8,0:0:0:0:
252,157,35932,1,8,0:0:0:0:
252,157,36007,1,0,0:0:0:0:
258,169,36157,1,0,0:0:0:0:
252,163,36307,1,8,0:0:0:0:
252,163,36382,1,8,0:0:0:0:
252,163,36457,1,0,0:0:0:0:
252,163,36607,1,8,0:0:0:0:
243,156,36907,1,8,0:0:0:0:
248,165,37057,1,0,0:0:0:0:
249,165,37132,1,0,0:0:0:0:
252,163,37207,1,12,0:0:0:0:
252,163,37407,1,12,0:0:0:0:
252,165,37607,1,4,0:0:0:0:
249,165,37807,1,12,0:0:0:0:
237,163,38007,1,12,0:0:0:0:
252,163,38207,5,4,0:0:0:0:
252,165,38407,1,12,0:0:0:0:
236,164,38607,1,12,0:0:0:0:
249,165,38807,1,4,0:0:0:0:
248,165,39007,1,12,0:0:0:0:
249,159,39307,1,8,0:0:0:0:
249,159,39457,1,0,0:0:0:0:
249,159,39607,1,8,0:0:0:0:
249,159,39757,1,8,0:0:0:0:
241,159,39832,1,8,0:0:0:0:
240,158,39907,1,0,0:0:0:0:
249,159,40057,1,0,0:0:0:0:
249,159,40207,1,8,0:0:0:0:
236,158,40507,1,0,0:0:0:0:
236,158,40657,1,0,0:0:0:0:
237,162,40807,1,8,0:0:0:0:
237,162,40957,1,8,0:0:0:0:
237,162,41032,1,0,0:0:0:0:
237,162,41107,1,8,0:0:0:0:
237,162,41182,1,8,0:0:0:0:
240,164,41257,1,0,0:0:0:0:
240,164,41407,1,0,0:0:0:0:
231,164,41707,1,0,0:0:0:0:
231,163,41857,1,0,0:0:0:0:
231,163,42007,1,8,0:0:0:0:
231,163,42157,1,8,0:0:0:0:
231,162,42232,1,0,0:0:0:0:
231,162,42307,1,8,0:0:0:0:
231,164,42457,1,8,0:0:0:0:
231,164,42607,1,0,0:0:0:0:
211,158,42907,1,8,0:0:0:0:
215,162,43057,1,0,0:0:0:0:
217,162,43207,1,8,0:0:0:0:
217,162,43357,1,8,0:0:0:0:
217,162,43432,1,8,0:0:0:0:
217,162,43507,1,0,0:0:0:0:
215,162,43657,1,0,0:0:0:0:
215,162,43807,1,0,0:0:0:0:
211,157,44107,1,8,0:0:0:0:
210,158,44257,1,0,0:0:0:0:
208,162,44407,1,12,0:0:0:0:
208,163,44557,1,0,0:0:0:0:
208,163,44632,1,0,0:0:0:0:
209,167,44707,1,8,0:0:0:0:
211,168,44782,1,8,0:0:0:0:
211,167,44857,1,0,0:0:0:0:
209,169,45007,1,8,0:0:0:0:
208,168,45307,1,8,0:0:0:0:
208,168,45457,1,8,0:0:0:0:
208,167,45607,1,0,0:0:0:0:
211,168,45757,1,8,0:0:0:0:
211,167,45832,1,0,0:0:0:0:
209,169,45907,1,8,0:0:0:0:
210,168,46057,1,0,0:0:0:0:
210,168,46207,1,0,0:0:0:0:
208,167,46507,1,8,0:0:0:0:
211,168,46657,1,0,0:0:0:0:
207,170,46807,1,8,0:0:0:0:
205,168,46957,1,0,0:0:0:0:
211,174,47032,1,0,0:0:0:0:
205,168,47107,1,8,0:0:0:0:
208,167,47257,1,8,0:0:0:0:
208,167,47407,1,0,0:0:0:0:
211,168,47557,1,8,0:0:0:0:
211,161,47632,1,8,0:0:0:0:
211,162,47707,1,0,0:0:0:0:
205,168,48007,1,8,0:0:0:0:
211,161,48157,1,8,0:0:0:0:
211,161,48232,1,0,0:0:0:0:
211,161,48307,1,8,0:0:0:0:
211,160,48457,1,0,0:0:0:0:
211,162,48607,1,8,0:0:0:0:
223,165,48907,1,0,0:0:0:0:
223,165,49057,1,0,0:0:0:0:
223,165,49207,1,12,0:0:0:0:
221,158,49657,1,0,0:0:0:0:
221,158,49807,1,8,0:0:0:0:
221,155,50107,1,0,0:0:0:0:
221,158,50407,1,8,0:0:0:0:
221,158,50557,1,8,0:0:0:0:
221,158,50707,1,0,0:0:0:0:
221,158,50857,1,0,0:0:0:0:
221,155,51007,1,8,0:0:0:0:
227,161,51307,1,8,0:0:0:0:
231,161,51457,1,0,0:0:0:0:
233,161,51607,1,8,0:0:0:0:
229,160,51832,1,0,0:0:0:0:
232,160,52057,1,0,0:0:0:0:
227,161,52207,1,8,0:0:0:0:
226,158,52507,1,8,0:0:0:0:
221,155,52807,1,0,0:0:0:0:
221,155,53107,1,8,0:0:0:0:
221,155,53257,1,0,0:0:0:0:
209,165,53557,1,0,0:0:0:0:
210,165,54007,1,8,0:0:0:0:
209,165,54457,1,0,0:0:0:0:
215,162,54607,1,8,0:0:0:0:
195,173,54907,1,0,0:0:0:0:
195,173,55207,1,8,0:0:0:0:
195,173,55357,1,8,0:0:0:0:
195,173,55507,1,0,0:0:0:0:
194,167,55657,1,0,0:0:0:0:
195,173,55807,1,8,0:0:0:0:
188,172,56107,1,0,0:0:0:0:
188,171,56257,1,8,0:0:0:0:
189,169,56407,1,8,0:0:0:0:
181,169,56632,1,8,0:0:0:0:
188,172,56857,1,8,0:0:0:0:
188,172,57007,1,0,0:0:0:0:
189,169,57307,1,8,0:0:0:0:
184,170,57607,1,8,0:0:0:0:
188,172,57907,1,0,0:0:0:0:
188,172,58057,1,8,0:0:0:0:
189,169,58357,1,8,0:0:0:0:
188,172,58807,1,8,0:0:0:0:
188,172,58882,1,0,0:0:0:0:
188,172,59032,1,8,0:0:0:0:
189,169,59107,1,0,0:0:0:0:
189,169,59257,1,0,0:0:0:0:
190,173,59407,1,8,0:0:0:0:
189,174,59482,1,0,0:0:0:0:
188,174,59557,1,8,0:0:0:0:
185,178,59707,1,8,0:0:0:0:
192,180,60007,1,8,0:0:0:0:
191,180,60157,1,8,0:0:0:0:
189,180,60232,1,0,0:0:0:0:
189,179,60307,1,8,0:0:0:0:
191,180,60457,1,0,0:0:0:0:
185,178,60607,1,8,0:0:0:0:
179,177,60907,1,8,0:0:0:0:
178,176,61057,1,0,0:0:0:0:
178,176,61132,1,0,0:0:0:0:
178,176,61207,1,8,0:0:0:0:
169,177,61357,1,0,0:0:0:0:
169,177,61507,1,8,0:0:0:0:
169,177,61657,1,0,0:0:0:0:
168,177,61807,1,8,0:0:0:0:
173,177,61957,1,8,0:0:0:0:
178,176,62107,1,0,0:0:0:0:
176,177,62257,1,0,0:0:0:0:
177,180,62407,1,8,0:0:0:0:
177,180,62557,1,8,0:0:0:0:
177,180,62632,1,0,0:0:0:0:
177,180,62707,1,8,0:0:0:0:
176,177,62857,1,8,0:0:0:0:
177,180,63157,1,0,0:0:0:0:
165,172,63607,1,4,0:0:0:0:
165,172,63757,1,4,0:0:0:0:
178,176,63907,1,0,0:0:0:0:
178,176,63982,1,0,0:0:0:0:
176,177,64057,1,8,0:0:0:0:
175,179,64207,1,8,0:0:0:0:
174,179,64282,1,0,0:0:0:0:
169,177,64357,1,0,0:0:0:0:
174,179,64507,1,0,0:0:0:0:
176,182,64807,1,4,0:0:0:0:
176,182,64957,1,4,0:0:0:0:
168,183,65107,1,8,0:0:0:0:
168,183,65182,1,8,0:0:0:0:
169,183,65257,1,0,0:0:0:0:
163,182,65407,1,0,0:0:0:0:
163,182,65482,1,8,0:0:0:0:
163,182,65557,1,0,0:0:0:0:
163,182,65707,1,8,0:0:0:0:
168,183,66007,1,4,0:0:0:0:
168,183,66157,1,4,0:0:0:0:
170,178,66307,5,8,0:0:0:0:
169,178,66382,1,8,0:0:0:0:
169,178,66457,1,0,0:0:0:0:
169,178,66607,1,4,0:0:0:0:
169,178,66757,1,4,0:0:0:0:
171,176,66907,1,8,0:0:0:0:
171,176,66982,1,0,0:0:0:0:
171,176,67057,1,8,0:0:0:0:
170,178,67207,1,4,0:0:0:0:
254,180,68107,5,0,0:0:0:0:
254,180,68257,1,0,0:0:0:0:
254,180,68407,1,12,0:0:0:0:
254,180,68557,1,8,0:0:0:0:
254,180,68632,1,8,0:0:0:0:
254,180,68707,1,0,0:0:0:0:
254,180,68857,1,0,0:0:0:0:
254,180,69007,1,0,0:0:0:0:
254,180,69082,1,8,0:0:0:0:
254,180,69232,1,0,0:0:0:0:
254,180,69307,1,8,0:0:0:0:
254,186,69607,1,8,0:0:0:0:
254,180,69757,1,8,0:0:0:0:
254,180,69832,1,0,0:0:0:0:
254,180,69907,1,8,0:0:0:0:
254,180,70057,1,0,0:0:0:0:
259,183,70207,1,8,0:0:0:0:
254,180,70282,1,0,0:0:0:0:
253,187,70432,1,0,0:0:0:0:
254,186,70507,1,0,0:0:0:0:
254,180,70807,1,8,0:0:0:0:
258,187,70957,1,0,0:0:0:0:
257,185,71032,1,8,0:0:0:0:
253,185,71107,1,0,0:0:0:0:
250,186,71257,1,8,0:0:0:0:
253,187,71407,1,8,0:0:0:0:
254,186,71482,1,0,0:0:0:0:
254,180,71632,1,0,0:0:0:0:
254,180,71707,1,8,0:0:0:0:
252,183,72007,1,8,0:0:0:0:
253,185,72082,1,8,0:0:0:0:
252,185,72232,1,0,0:0:0:0:
265,188,72307,1,8,0:0:0:0:
258,191,72457,1,0,0:0:0:0:
264,184,72607,1,8,0:0:0:0:
256,185,72707,1,8,0:0:0:0:
243,184,72807,1,8,0:0:0:0:
246,184,72907,1,8,0:0:0:0:
246,187,73207,1,12,0:0:0:0:
241,187,73357,1,0,0:0:0:0:
246,185,73432,1,0,0:0:0:0:
246,185,73507,1,8,0:0:0:0:
247,185,73657,1,8,0:0:0:0:
247,185,73732,1,0,0:0:0:0:
248,184,73807,1,8,0:0:0:0:
246,184,73882,1,8,0:0:0:0:
248,186,73957,1,0,0:0:0:0:
248,186,74107,1,8,0:0:0:0:
251,183,74407,1,8,0:0:0:0:
247,185,74557,1,8,0:0:0:0:
247,185,74632,1,8,0:0:0:0:
247,185,74707,1,0,0:0:0:0:
246,184,74857,1,8,0:0:0:0:
248,186,75007,1,0,0:0:0:0:
248,186,75082,1,8,0:0:0:0:
251,184,75157,1,0,0:0:0:0:
251,184,75232,1,0,0:0:0:0:
248,187,75307,1,8,0:0:0:0:
247,185,75607,1,8,0:0:0:0:
248,184,75757,1,0,0:0:0:0:
246,184,75832,1,0,0:0:0:0:
248,186,75907,1,8,0:0:0:0:
248,186,75982,1,8,0:0:0:0:
248,186,76057,1,0,0:0:0:0:
249,182,76357,1,0,0:0:0:0:
247,185,76432,1,8,0:0:0:0:
247,185,76507,1,0,0:0:0:0:
251,178,76657,1,8,0:0:0:0:
251,178,76807,1,12,0:0:0:0:
250,179,77032,1,12,0:0:0:0:
249,182,77257,1,12,0:0:0:0:
240,186,77407,1,12,0:0:0:0:
231,182,77557,1,0,0:0:0:0:
238,187,77632,1,8,0:0:0:0:
240,187,77707,1,8,0:0:0:0:
240,187,77782,1,0,0:0:0:0:
240,187,77857,1,8,0:0:0:0:
242,186,78007,1,12,0:0:0:0:
232,184,78157,1,0,0:0:0:0:
232,187,78232,1,0,0:0:0:0:
232,187,78307,1,8,0:0:0:0:
232,187,78457,1,0,0:0:0:0:
232,189,78607,1,0,0:0:0:0:
232,189,78682,1,8,0:0:0:0:
240,187,78832,1,8,0:0:0:0:
240,187,78907,1,0,0:0:0:0:
232,187,79207,1,8,0:0:0:0:
232,187,79357,1,0,0:0:0:0:
232,187,79432,1,8,0:0:0:0:
232,189,79507,1,0,0:0:0:0:
232,189,79657,1,0,0:0:0:0:
240,187,79807,1,0,0:0:0:0:
240,187,79882,1,8,0:0:0:0:
238,188,80032,1,8,0:0:0:0:
238,188,80107,1,8,0:0:0:0:
237,182,80407,1,8,0:0:0:0:
237,182,80557,1,8,0:0:0:0:
237,182,80632,1,8,0:0:0:0:
240,187,80707,1,0,0:0:0:0:
240,187,80857,1,0,0:0:0:0:
240,182,81007,1,8,0:0:0:0:
240,182,81082,1,8,0:0:0:0:
240,182,81232,1,8,0:0:0:0:
237,182,81307,1,0,0:0:0:0:
237,182,81607,1,0,0:0:0:0:
241,182,81682,1,0,0:0:0:0:
241,181,81832,1,8,0:0:0:0:
240,182,81907,1,0,0:0:0:0:
240,182,82057,1,0,0:0:0:0:
240,182,82207,1,8,0:0:0:0:
238,177,82307,1,8,0:0:0:0:
239,176,82407,1,8,0:0:0:0:
238,176,82507,1,8,0:0:0:0:
238,176,82807,1,12,0:0:0:0:
240,182,82957,1,0,0:0:0:0:
240,182,83032,1,0,0:0:0:0:
240,182,83107,1,8,0:0:0:0:
240,182,83257,1,8,0:0:0:0:
238,177,83332,1,0,0:0:0:0:
237,180,83407,1,8,0:0:0:0:
237,180,83482,1,8,0:0:0:0:
238,176,83557,1,0,0:0:0:0:
238,176,83707,1,8,0:0:0:0:
230,175,84007,1,8,0:0:0:0:
230,175,84157,1,8,0:0:0:0:
230,175,84232,1,8,0:0:0:0:
230,175,84307,1,0,0:0:0:0:
230,175,84457,1,0,0:0:0:0:
230,175,84532,1,8,0:0:0:0:
230,175,84607,1,0,0:0:0:0:
230,175,84682,1,0,0:0:0:0:
230,175,84757,1,8,0:0:0:0:
230,175,84907,1,8,0:0:0:0:
230,175,85207,1,8,0:0:0:0:
230,175,85357,1,0,0:0:0:0:
230,175,85432,1,0,0:0:0:0:
230,175,85507,1,8,0:0:0:0:
230,175,85657,1,8,0:0:0:0:
230,175,85732,1,8,0:0:0:0:
230,175,85807,1,0,0:0:0:0:
230,175,85882,1,0,0:0:0:0:
230,175,85957,1,8,0:0:0:0:
230,175,86107,1,8,0:0:0:0:
230,175,86407,1,12,0:0:0:0:
230,175,86632,1,12,0:0:0:0:
230,175,86857,1,12,0:0:0:0:
230,175,87007,1,12,0:0:0:0:
231,180,87307,1,0,0:0:0:0:
230,175,87457,1,0,0:0:0:0:
230,175,87607,1,12,0:0:0:0:
232,180,87757,1,0,0:0:0:0:
232,179,87832,1,8,0:0:0:0:
232,179,87982,1,0,0:0:0:0:
233,179,88057,1,8,0:0:0:0:
233,179,88357,1,8,0:0:0:0:
235,178,88507,1,8,0:0:0:0:
232,180,88657,1,8,0:0:0:0:
232,180,88732,1,8,0:0:0:0:
232,179,88807,1,0,0:0:0:0:
232,179,88957,1,8,0:0:0:0:
233,179,89032,1,0,0:0:0:0:
229,174,89182,1,8,0:0:0:0:
230,174,89257,1,0,0:0:0:0:
230,174,89407,1,0,0:0:0:0:
230,173,89707,1,0,0:0:0:0:
232,173,89857,1,0,0:0:0:0:
232,173,90007,1,8,0:0:0:0:
229,174,90157,1,0,0:0:0:0:
230,174,90232,1,8,0:0:0:0:
230,174,90382,1,0,0:0:0:0:
230,173,90457,1,8,0:0:0:0:
230,173,90607,1,8,0:0:0:0:
232,173,90757,1,8,0:0:0:0:
232,173,90832,1,8,0:0:0:0:
232,173,90982,1,8,0:0:0:0:
229,174,91057,1,0,0:0:0:0:
230,174,91207,1,8,0:0:0:0:
230,173,91507,1,8,0:0:0:0:
230,173,91657,1,0,0:0:0:0:
232,173,91807,1,8,0:0:0:0:
232,173,91907,1,8,0:0:0:0:
232,173,92007,1,8,0:0:0:0:
230,174,92107,1,8,0:0:0:0:
230,173,92407,1,12,0:0:0:0:
230,173,92557,1,0,0:0:0:0:
230,173,92632,1,8,0:0:0:0:
232,173,92782,1,0,0:0:0:0:
232,173,92857,1,8,0:0:0:0:
232,173,93007,1,0,0:0:0:0:
230,174,93157,1,8,0:0:0:0:
230,174,93232,1,0,0:0:0:0:
230,174,93307,1,8,0:0:0:0:
230,173,93607,1,8,0:0:0:0:
232,173,93757,1,8,0:0:0:0:
232,173,93832,1,0,0:0:0:0:
232,173,93982,1,8,0:0:0:0:
229,168,94057,1,0,0:0:0:0:
229,168,94207,1,0,0:0:0:0:
230,173,94507,1,0,0:0:0:0:
232,173,94657,1,0,0:0:0:0:
232,173,94807,1,12,0:0:0:0:
232,173,95007,1,12,0:0:0:0:
236,171,95207,1,4,0:0:0:0:
236,171,95407,1,12,0:0:0:0:
236,170,95607,1,12,0:0:0:0:
238,169,95807,1,4,0:0:0:0:
238,169,96007,1,8,0:0:0:0:
236,171,96157,1,8,0:0:0:0:
233,166,96232,1,8,0:0:0:0:
235,165,96307,1,0,0:0:0:0:
236,170,96457,1,0,0:0:0:0:
236,170,96607,1,8,0:0:0:0:
238,169,96682,1,8,0:0:0:0:
238,169,96757,1,0,0:0:0:0:
238,169,96832,1,0,0:0:0:0:
238,169,96907,1,8,0:0:0:0:
238,165,97057,1,8,0:0:0:0:
237,166,97207,1,8,0:0:0:0:
236,170,97507,1,12,0:0:0:0:
238,169,97657,1,0,0:0:0:0:
238,169,97732,1,0,0:0:0:0:
238,169,97807,1,8,0:0:0:0:
227,170,97957,1,8,0:0:0:0:
227,168,98032,1,0,0:0:0:0:
227,168,98107,1,8,0:0:0:0:
227,168,98407,1,0,0:0:0:0:
227,168,98557,1,0,0:0:0:0:
227,168,98632,1,8,0:0:0:0:
227,168,98707,1,0,0:0:0:0:
227,168,98782,1,0,0:0:0:0:
227,170,98857,1,8,0:0:0:0:
227,168,99007,1,8,0:0:0:0:
227,168,99307,1,0,0:0:0:0:
227,168,99607,1,8,0:0:0:0:
227,170,99907,1,8,0:0:0:0:
227,168,100057,1,0,0:0:0:0:
227,168,100132,1,0,0:0:0:0:
227,168,100207,1,8,0:0:0:0:
227,168,100357,1,8,0:0:0:0:
227,168,100432,1,8,0:0:0:0:
227,168,100507,1,0,0:0:0:0:
227,170,100807,1,8,0:0:0:0:
227,168,100957,1,8,0:0:0:0:
227,168,101032,1,8,0:0:0:0:
227,168,101107,1,0,0:0:0:0:
227,168,101257,1,8,0:0:0:0:
227,168,101407,1,8,0:0:0:0:
227,168,101507,1,8,0:0:0:0:
218,164,101607,1,8,0:0:0:0:
218,164,101707,1,8,0:0:0:0:
216,164,102007,1,12,0:0:0:0:
227,168,102307,1,8,0:0:0:0:
227,168,102457,1,0,0:0:0:0:
227,168,102532,1,0,0:0:0:0:
225,165,102607,1,8,0:0:0:0:
218,164,102757,1,0,0:0:0:0:
225,165,102832,1,8,0:0:0:0:
218,164,102907,1,0,0:0:0:0:
227,168,103207,1,8,0:0:0:0:
227,168,103357,1,8,0:0:0:0:
221,156,103432,1,8,0:0:0:0:
222,155,103507,1,0,0:0:0:0:
226,163,103657,1,0,0:0:0:0:
224,156,103807,1,8,0:0:0:0:
223,156,104107,1,0,0:0:0:0:
226,152,104407,1,12,0:0:0:0:
229,147,104607,1,12,0:0:0:0:
224,156,104807,1,4,0:0:0:0:
224,156,105007,1,12,0:0:0:0:
226,152,105207,1,12,0:0:0:0:
226,152,105407,1,4,0:0:0:0:
225,154,105607,1,12,0:0:0:0:
224,156,105807,1,4,0:0:0:0:
226,152,106007,1,12,0:0:0:0:
224,156,106207,1,4,0:0:0:0:
224,156,106807,1,12,0:0:0:0:
258,169,106957,1,0,0:0:0:0:
258,169,107107,1,8,0:0:0:0:
258,169,107182,1,8,0:0:0:0:
260,169,107257,1,0,0:0:0:0:
260,169,107407,1,8,0:0:0:0:
260,169,107557,1,0,0:0:0:0:
254,157,107707,1,8,0:0:0:0:
253,157,107782,1,0,0:0:0:0:
252,157,107857,1,8,0:0:0:0:
252,157,107932,1,8,0:0:0:0:
252,157,108007,1,0,0:0:0:0:
252,163,108307,1,8,0:0:0:0:
252,163,108382,1,8,0:0:0:0:
252,163,108457,1,0,0:0:0:0:
252,163,108607,1,0,0:0:0:0:
252,165,108757,1,0,0:0:0:0:
243,156,108907,1,8,0:0:0:0:
252,163,109207,1,8,0:0:0:0:
252,163,109357,1,0,0:0:0:0:
252,163,109507,1,8,0:0:0:0:
252,163,109582,1,8,0:0:0:0:
252,165,109657,1,0,0:0:0:0:
253,160,109807,1,8,0:0:0:0:
253,158,109957,1,0,0:0:0:0:
253,167,110107,1,0,0:0:0:0:
252,163,110182,1,8,0:0:0:0:
252,163,110257,1,0,0:0:0:0:
252,163,110332,1,0,0:0:0:0:
252,163,110407,1,8,0:0:0:0:
252,165,110707,1,8,0:0:0:0:
253,167,110857,1,0,0:0:0:0:
253,167,111007,1,8,0:0:0:0:
253,167,111107,1,8,0:0:0:0:
256,159,111207,1,8,0:0:0:0:
253,157,111307,1,8,0:0:0:0:
250,157,111607,1,12,0:0:0:0:
258,169,111907,1,8,0:0:0:0:
258,169,111982,1,8,0:0:0:0:
260,169,112057,1,0,0:0:0:0:
260,169,112207,1,8,0:0:0:0:
260,169,112357,1,0,0:0:0:0:
254,157,112507,1,8,0:0:0:0:
253,157,112582,1,0,0:0:0:0:
252,157,112657,1,8,0:0:0:0:
252,157,112732,1,8,0:0:0:0:
252,157,112807,1,0,0:0:0:0:
252,163,113107,1,8,0:0:0:0:
252,163,113182,1,8,0:0:0:0:
252,163,113257,1,0,0:0:0:0:
252,163,113407,1,0,0:0:0:0:
252,165,113557,1,0,0:0:0:0:
243,156,113707,1,8,0:0:0:0:
252,163,114007,1,12,0:0:0:0:
252,163,114207,1,12,0:0:0:0:
252,165,114407,1,4,0:0:0:0:
249,165,114607,1,12,0:0:0:0:
237,163,114807,1,12,0:0:0:0:
252,163,115007,5,4,0:0:0:0:
252,165,115207,1,12,0:0:0:0:
236,164,115407,1,12,0:0:0:0:
249,165,115607,1,4,0:0:0:0:
248,165,115807,1,12,0:0:0:0:
252,165,116107,1,8,0:0:0:0:
252,165,116182,1,8,0:0:0:0:
244,163,116257,1,8,0:0:0:0:
244,163,116332,1,8,0:0:0:0:
244,163,116407,1,0,0:0:0:0:
241,165,116557,1,0,0:0:0:0:
241,165,116707,1,8,0:0:0:0:
241,165,116857,1,8,0:0:0:0:
241,165,116932,1,8,0:0:0:0:
241,165,117007,1,0,0:0:0:0:
244,163,117307,1,0,0:0:0:0:
241,165,117457,1,0,0:0:0:0:
236,165,117607,1,8,0:0:0:0:
236,165,117757,1,8,0:0:0:0:
236,165,117832,1,0,0:0:0:0:
236,165,117907,1,8,0:0:0:0:
236,165,117982,1,8,0:0:0:0:
236,165,118057,1,0,0:0:0:0:
236,165,118207,1,0,0:0:0:0:
240,168,118507,1,0,0:0:0:0:
240,168,118657,1,0,0:0:0:0:
240,168,118807,1,8,0:0:0:0:
240,168,118957,1,8,0:0:0:0:
240,168,119032,1,8,0:0:0:0:
240,168,119107,1,0,0:0:0:0:
240,168,119257,1,8,0:0:0:0:
240,168,119407,1,0,0:0:0:0:
240,168,119707,1,0,0:0:0:0:
240,168,119857,1,0,0:0:0:0:
240,168,120007,1,8,0:0:0:0:
240,168,120157,1,8,0:0:0:0:
248,167,120232,1,8,0:0:0:0:
240,168,120307,1,0,0:0:0:0:
240,168,120382,1,8,0:0:0:0:
240,168,120457,1,0,0:0:0:0:
240,168,120607,1,0,0:0:0:0:
244,166,120907,1,8,0:0:0:0:
240,168,121057,1,0,0:0:0:0:
240,172,121207,1,12,0:0:0:0:
240,168,121357,1,8,0:0:0:0:
243,174,121432,1,8,0:0:0:0:
243,174,121507,1,0,0:0:0:0:
243,174,121657,1,0,0:0:0:0:
243,174,121807,1,8,0:0:0:0:
232,168,122107,1,0,0:0:0:0:
232,168,122257,1,0,0:0:0:0:
232,168,122407,1,8,0:0:0:0:
233,167,122557,1,0,0:0:0:0:
233,167,122632,1,8,0:0:0:0:
233,168,122707,1,8,0:0:0:0:
233,168,122782,1,0,0:0:0:0:
232,168,122857,1,8,0:0:0:0:
232,168,123007,1,8,0:0:0:0:
246,171,123307,1,8,0:0:0:0:
245,171,123457,1,0,0:0:0:0:
245,171,123532,1,0,0:0:0:0:
245,171,123607,1,8,0:0:0:0:
244,170,123757,1,0,0:0:0:0:
243,172,123907,1,8,0:0:0:0:
238,174,124057,1,0,0:0:0:0:
240,181,124132,1,0,0:0:0:0:
241,183,124207,1,8,0:0:0:0:
241,183,124282,1,0,0:0:0:0:
241,183,124357,1,8,0:0:0:0:
242,183,124507,1,8,0:0:0:0:
246,182,124657,1,0,0:0:0:0:
247,182,124732,1,0,0:0:0:0:
249,183,124807,1,8,0:0:0:0:
251,183,124957,1,8,0:0:0:0:
235,182,125107,1,0,0:0:0:0:
235,182,125257,1,0,0:0:0:0:
241,183,125407,1,8,0:0:0:0:
223,165,125707,1,0,0:0:0:0:
223,165,125857,1,0,0:0:0:0:
223,165,126007,1,12,0:0:0:0:
221,158,126457,1,0,0:0:0:0:
221,158,126607,1,8,0:0:0:0:
221,155,126907,1,0,0:0:0:0:
221,158,127207,1,8,0:0:0:0:
221,158,127357,1,8,0:0:0:0:
221,158,127507,1,0,0:0:0:0:
221,158,127657,1,0,0:0:0:0:
221,155,127807,1,8,0:0:0:0:
227,161,128107,1,8,0:0:0:0:
231,161,128257,1,0,0:0:0:0:
233,161,128407,1,8,0:0:0:0:
226,157,128632,1,0,0:0:0:0:
232,160,128857,1,0,0:0:0:0:
227,161,129007,1,8,0:0:0:0:
226,158,129307,1,8,0:0:0:0:
226,157,129607,1,0,0:0:0:0:
221,155,129907,1,8,0:0:0:0:
221,155,130057,1,0,0:0:0:0:
209,165,130357,1,0,0:0:0:0:
210,165,130807,1,8,0:0:0:0:
209,165,131257,1,0,0:0:0:0:
215,162,131407,1,8,0:0:0:0:
195,173,131707,1,0,0:0:0:0:
195,173,132007,1,8,0:0:0:0:
195,173,132157,1,8,0:0:0:0:
195,173,132307,1,0,0:0:0:0:
195,173,132457,1,0,0:0:0:0:
195,173,132607,1,8,0:0:0:0:
188,172,132907,1,0,0:0:0:0:
188,171,133057,1,8,0:0:0:0:
189,169,133207,1,8,0:0:0:0:
184,170,133432,1,8,0:0:0:0:
188,172,133657,1,8,0:0:0:0:
188,172,133807,1,0,0:0:0:0:
189,169,134107,1,8,0:0:0:0:
188,172,134407,1,8,0:0:0:0:
184,170,134707,1,0,0:0:0:0:
188,172,134857,1,8,0:0:0:0:
189,169,135157,1,8,0:0:0:0:
188,172,135607,1,8,0:0:0:0:
188,172,135682,1,0,0:0:0:0:
188,172,135832,1,8,0:0:0:0:
189,169,135907,1,0,0:0:0:0:
189,169,136057,1,0,0:0:0:0:
190,173,136207,1,8,0:0:0:0:
189,174,136282,1,0,0:0:0:0:
188,174,136357,1,8,0:0:0:0:
185,178,136507,1,8,0:0:0:0:
192,180,136807,1,8,0:0:0:0:
191,180,136957,1,0,0:0:0:0:
189,179,137107,1,8,0:0:0:0:
191,179,137257,1,8,0:0:0:0:
188,174,137332,1,0,0:0:0:0:
188,174,137407,1,8,0:0:0:0:
179,177,137707,1,8,0:0:0:0:
178,176,137857,1,0,0:0:0:0:
178,176,137932,1,0,0:0:0:0:
178,176,138007,1,8,0:0:0:0:
169,177,138157,1,0,0:0:0:0:
169,177,138307,1,8,0:0:0:0:
169,177,138457,1,0,0:0:0:0:
168,177,138607,1,8,0:0:0:0:
173,177,138757,1,8,0:0:0:0:
178,176,138907,1,0,0:0:0:0:
176,177,139057,1,0,0:0:0:0:
177,180,139207,1,8,0:0:0:0:
177,180,139357,1,8,0:0:0:0:
177,180,139432,1,0,0:0:0:0:
177,180,139507,1,8,0:0:0:0:
176,177,139657,1,8,0:0:0:0:
177,180,139957,1,0,0:0:0:0:
165,172,140407,1,4,0:0:0:0:
165,172,140557,1,4,0:0:0:0:
178,176,140707,1,0,0:0:0:0:
178,176,140782,1,0,0:0:0:0:
176,177,140857,1,8,0:0:0:0:
175,179,141007,1,8,0:0:0:0:
174,179,141082,1,0,0:0:0:0:
169,177,141157,1,0,0:0:0:0:
174,179,141307,1,0,0:0:0:0:
176,182,141607,1,4,0:0:0:0:
176,182,141757,1,4,0:0:0:0:
168,183,141907,1,8,0:0:0:0:
168,183,141982,1,8,0:0:0:0:
169,183,142057,1,0,0:0:0:0:
163,182,142207,1,0,0:0:0:0:
163,182,142282,1,8,0:0:0:0:
163,182,142357,1,0,0:0:0:0:
163,182,142507,1,8,0:0:0:0:
168,183,142807,1,4,0:0:0:0:
168,183,142957,1,4,0:0:0:0:
170,178,143107,5,8,0:0:0:0:
169,178,143182,1,8,0:0:0:0:
169,178,143257,1,0,0:0:0:0:
169,178,143407,1,4,0:0:0:0:
169,178,143557,1,4,0:0:0:0:
171,176,143707,1,8,0:0:0:0:
171,176,143782,1,0,0:0:0:0:
171,176,143857,1,8,0:0:0:0:
170,178,144007,1,4,0:0:0:0:
161,179,144907,5,0,0:0:0:0:
163,176,145057,1,0,0:0:0:0:
161,179,145207,1,12,0:0:0:0:
161,179,145507,1,0,0:0:0:0:
161,179,145807,1,0,0:0:0:0:
166,176,146257,1,8,0:0:0:0:
168,175,146407,1,8,0:0:0:0:
169,175,146707,1,0,0:0:0:0:
169,175,147007,1,0,0:0:0:0:
169,175,147457,1,0,0:0:0:0:
169,175,147607,1,8,0:0:0:0:
169,175,147907,1,0,0:0:0:0:
172,174,148207,1,0,0:0:0:0:
174,173,148432,1,8,0:0:0:0:
176,172,148657,1,8,0:0:0:0:
176,172,148807,1,0,0:0:0:0:
172,174,149032,1,0,0:0:0:0:
177,172,149257,1,8,0:0:0:0:
174,173,149407,1,0,0:0:0:0:
176,168,150007,1,0,0:0:0:0:
177,172,150157,1,0,0:0:0:0:
174,173,150307,1,8,0:0:0:0:
174,173,150457,1,8,0:0:0:0:
176,172,150607,1,0,0:0:0:0:
176,173,150757,1,8,0:0:0:0:
176,173,150907,1,8,0:0:0:0:
183,172,151207,1,8,0:0:0:0:
182,172,151357,1,0,0:0:0:0:
181,173,151507,1,8,0:0:0:0:
181,173,151657,1,8,0:0:0:0:
176,173,151807,1,0,0:0:0:0:
175,171,151957,1,8,0:0:0:0:
175,171,152107,1,8,0:0:0:0:
175,171,152407,1,8,0:0:0:0:
171,169,152707,1,8,0:0:0:0:
175,171,152857,1,0,0:0:0:0:
175,171,153307,1,8,0:0:0:0:
182,169,153607,1,0,0:0:0:0:
182,169,153832,1,8,0:0:0:0:
182,169,154057,1,8,0:0:0:0:
182,169,154207,1,0,0:0:0:0:
176,169,154807,1,12,0:0:0:0:
176,169,155107,1,0,0:0:0:0:
176,169,155407,1,0,0:0:0:0:
154,166,155857,1,0,0:0:0:0:
172,172,156007,1,0,0:0:0:0:
172,173,156307,1,0,0:0:0:0:
172,173,156607,1,0,0:0:0:0:
172,172,157057,1,0,0:0:0:0:
172,173,157207,1,8,0:0:0:0:
176,165,157507,1,0,0:0:0:0:
176,165,157807,1,0,0:0:0:0:
176,165,158032,1,8,0:0:0:0:
176,165,158257,1,8,0:0:0:0:
176,165,158407,1,0,0:0:0:0:
176,165,158632,1,8,0:0:0:0:
176,165,158857,1,0,0:0:0:0:
176,165,159007,1,8,0:0:0:0:
176,165,159307,1,0,0:0:0:0:
184,182,159607,1,12,0:0:0:0:
176,169,159757,1,0,0:0:0:0:
176,165,159832,1,8,0:0:0:0:
176,165,159907,1,0,0:0:0:0:
176,165,160057,1,8,0:0:0:0:
176,165,160207,1,8,0:0:0:0:
176,168,160357,1,0,0:0:0:0:
176,168,160432,1,8,0:0:0:0:
176,169,160507,1,0,0:0:0:0:
176,169,160582,1,0,0:0:0:0:
176,169,160657,1,8,0:0:0:0:
176,171,160807,1,12,0:0:0:0:
179,168,160957,1,0,0:0:0:0:
176,165,161032,1,8,0:0:0:0:
176,165,161107,1,0,0:0:0:0:
176,165,161257,1,8,0:0:0:0:
176,168,161407,1,8,0:0:0:0:
176,169,161557,1,0,0:0:0:0:
176,169,161632,1,8,0:0:0:0:
176,169,161707,1,0,0:0:0:0:
176,171,161782,1,0,0:0:0:0:
179,168,161857,1,8,0:0:0:0:
176,165,162007,1,12,0:0:0:0:
182,161,162157,1,0,0:0:0:0:
183,161,162232,1,8,0:0:0:0:
183,161,162307,1,0,0:0:0:0:
183,161,162382,1,0,0:0:0:0:
185,160,162457,1,8,0:0:0:0:
185,160,162607,1,12,0:0:0:0:
176,171,162757,1,8,0:0:0:0:
179,168,162832,1,0,0:0:0:0:
179,168,162907,1,8,0:0:0:0:
176,172,162982,1,8,0:0:0:0:
176,171,163057,1,0,0:0:0:0:
176,171,163207,1,12,0:0:0:0:
181,169,163357,1,0,0:0:0:0:
180,168,163507,1,12,0:0:0:0:
180,168,163657,1,0,0:0:0:0:
179,168,163807,1,8,0:0:0:0:
179,168,163882,1,8,0:0:0:0:
176,172,163957,1,8,0:0:0:0:
176,171,164032,1,8,0:0:0:0:
176,172,164107,1,0,0:0:0:0:
175,170,164257,1,0,0:0:0:0:
175,170,164407,1,8,0:0:0:0:
171,171,164707,1,12,0:0:0:0:
176,178,164857,1,8,0:0:0:0:
176,178,164932,1,8,0:0:0:0:
176,178,165007,1,0,0:0:0:0:
175,179,165082,1,8,0:0:0:0:
176,179,165157,1,0,0:0:0:0:
177,182,165307,1,8,0:0:0:0:
177,182,165382,1,0,0:0:0:0:
177,182,165532,1,8,0:0:0:0:
177,182,165607,1,0,0:0:0:0:
178,182,165907,1,8,0:0:0:0:
178,182,166057,1,0,0:0:0:0:
180,183,166132,1,8,0:0:0:0:
177,182,166207,1,0,0:0:0:0:
177,182,166282,1,0,0:0:0:0:
177,182,166357,1,8,0:0:0:0:
177,182,166507,1,0,0:0:0:0:
177,182,166582,1,8,0:0:0:0:
179,182,166732,1,0,0:0:0:0:
184,185,166807,1,8,0:0:0:0:
180,183,167107,1,8,0:0:0:0:
185,182,167257,1,8,0:0:0:0:
185,182,167332,1,8,0:0:0:0:
186,182,167407,1,0,0:0:0:0:
187,178,167482,1,0,0:0:0:0:
185,179,167557,1,8,0:0:0:0:
185,179,167707,1,8,0:0:0:0:
185,179,167782,1,8,0:0:0:0:
192,177,167932,1,0,0:0:0:0:
191,178,168007,1,8,0:0:0:0:
191,178,168307,1,8,0:0:0:0:
191,178,168382,1,8,0:0:0:0:
196,177,168532,1,8,0:0:0:0:
196,177,168607,1,0,0:0:0:0:
195,177,168757,1,8,0:0:0:0:
194,171,168907,1,8,0:0:0:0:
194,171,169007,1,8,0:0:0:0:
196,175,169107,1,8,0:0:0:0:
197,171,169207,1,8,0:0:0:0:
196,177,169507,1,12,0:0:0:0:
199,177,169807,1,8,0:0:0:0:
201,177,169957,1,8,0:0:0:0:
201,177,170032,1,0,0:0:0:0:
202,177,170107,1,8,0:0:0:0:
204,177,170182,1,8,0:0:0:0:
206,178,170257,1,0,0:0:0:0:
208,179,170407,1,8,0:0:0:0:
208,179,170482,1,8,0:0:0:0:
208,179,170557,1,0,0:0:0:0:
207,178,170707,1,8,0:0:0:0:
211,186,171007,1,8,0:0:0:0:
211,185,171157,1,8,0:0:0:0:
212,184,171232,1,8,0:0:0:0:
213,184,171307,1,0,0:0:0:0:
214,184,171382,1,8,0:0:0:0:
214,184,171457,1,0,0:0:0:0:
218,186,171607,1,8,0:0:0:0:
220,186,171682,1,8,0:0:0:0:
220,186,171757,1,0,0:0:0:0:
220,185,171907,1,8,0:0:0:0:
220,185,172057,1,8,0:0:0:0:
220,185,172132,1,8,0:0:0:0:
220,185,172207,1,0,0:0:0:0:
220,185,172357,1,0,0:0:0:0:
220,186,172657,1,8,0:0:0:0:
220,186,172732,1,0,0:0:0:0:
220,185,172807,1,8,0:0:0:0:
220,185,172882,1,8,0:0:0:0:
220,185,172957,1,0,0:0:0:0:
220,185,173107,1,12,0:0:0:0:
220,185,173332,1,12,0:0:0:0:
224,183,173557,1,12,0:0:0:0:
224,184,173707,1,12,0:0:0:0:
220,185,173857,1,0,0:0:0:0:
227,185,173932,1,8,0:0:0:0:
227,184,174007,1,0,0:0:0:0:
227,185,174082,1,0,0:0:0:0:
227,185,174157,1,8,0:0:0:0:
230,185,174307,1,12,0:0:0:0:
234,191,174457,1,8,0:0:0:0:
233,191,174532,1,0,0:0:0:0:
233,191,174607,1,8,0:0:0:0:
234,191,174682,1,8,0:0:0:0:
233,190,174757,1,0,0:0:0:0:
230,190,174907,1,0,0:0:0:0:
231,187,174982,1,0,0:0:0:0:
226,189,175132,1,0,0:0:0:0:
223,187,175207,1,8,0:0:0:0:
224,187,175507,1,8,0:0:0:0:
225,187,175657,1,8,0:0:0:0:
225,187,175732,1,8,0:0:0:0:
225,187,175807,1,0,0:0:0:0:
225,187,175882,1,8,0:0:0:0:
231,187,175957,1,0,0:0:0:0:
226,189,176107,1,8,0:0:0:0:
227,187,176182,1,0,0:0:0:0:
224,186,176332,1,8,0:0:0:0:
224,187,176407,1,0,0:0:0:0:
225,187,176707,1,8,0:0:0:0:
217,189,176857,1,0,0:0:0:0:
217,189,176932,1,8,0:0:0:0:
219,190,177007,1,0,0:0:0:0:
219,192,177082,1,0,0:0:0:0:
219,193,177157,1,8,0:0:0:0:
221,195,177307,1,8,0:0:0:0:
222,194,177382,1,8,0:0:0:0:
222,195,177532,1,8,0:0:0:0:
222,195,177607,1,0,0:0:0:0:
222,193,177907,1,0,0:0:0:0:
219,190,177982,1,0,0:0:0:0:
224,194,178132,1,8,0:0:0:0:
220,195,178207,1,8,0:0:0:0:
222,194,178357,1,8,0:0:0:0:
222,195,178507,1,8,0:0:0:0:
222,195,178607,1,8,0:0:0:0:
224,192,178707,1,8,0:0:0:0:
222,193,178807,1,8,0:0:0:0:
221,197,179107,1,12,0:0:0:0:
222,195,179407,1,8,0:0:0:0:
222,195,179557,1,8,0:0:0:0:
222,195,179632,1,0,0:0:0:0:
224,192,179707,1,8,0:0:0:0:
222,193,179782,1,8,0:0:0:0:
222,193,179857,1,0,0:0:0:0:
222,196,180007,1,8,0:0:0:0:
221,197,180082,1,0,0:0:0:0:
221,197,180157,1,8,0:0:0:0:
222,194,180307,1,0,0:0:0:0:
214,193,180607,1,0,0:0:0:0:
214,193,180757,1,8,0:0:0:0:
212,195,180832,1,8,0:0:0:0:
212,195,180907,1,0,0:0:0:0:
212,195,180982,1,0,0:0:0:0:
211,196,181057,1,8,0:0:0:0:
211,196,181207,1,8,0:0:0:0:
211,196,181282,1,8,0:0:0:0:
214,193,181357,1,0,0:0:0:0:
214,193,181507,1,0,0:0:0:0:
214,193,181657,1,0,0:0:0:0:
214,193,181732,1,0,0:0:0:0:
212,195,181807,1,8,0:0:0:0:
212,195,181957,1,8,0:0:0:0:
210,202,182257,1,8,0:0:0:0:
209,203,182332,1,0,0:0:0:0:
209,202,182407,1,8,0:0:0:0:
209,202,182557,1,0,0:0:0:0:
221,199,182707,1,12,0:0:0:0:
221,198,182932,1,12,0:0:0:0:
221,198,183157,1,12,0:0:0:0:
219,200,183307,1,12,0:0:0:0:
216,202,183457,1,0,0:0:0:0:
218,199,183532,1,0,0:0:0:0:
221,199,183607,1,0,0:0:0:0:
221,199,183757,1,0,0:0:0:0:
221,199,183832,1,0,0:0:0:0:
221,198,183907,1,12,0:0:0:0:
225,194,184053,1,0,0:0:0:0:
227,193,184199,1,8,0:0:0:0:
228,193,184272,1,8,0:0:0:0:
228,193,184346,1,8,0:0:0:0:
229,193,184419,1,0,0:0:0:0:
229,193,184492,1,8,0:0:0:0:
226,198,184785,1,8,0:0:0:0:
226,198,184858,1,8,0:0:0:0:
227,200,184931,1,0,0:0:0:0:
231,202,185077,1,8,0:0:0:0:
230,205,185224,1,0,0:0:0:0:
230,206,185370,1,8,0:0:0:0:
230,206,185443,1,0,0:0:0:0:
230,206,185516,1,8,0:0:0:0:
230,206,185589,1,8,0:0:0:0:
230,206,185663,1,0,0:0:0:0:
232,205,185809,1,0,0:0:0:0:
232,204,185955,1,8,0:0:0:0:
230,205,186248,1,8,0:0:0:0:
230,206,186394,1,0,0:0:0:0:
230,206,186541,1,8,0:0:0:0:
230,206,186614,1,8,0:0:0:0:
230,206,186687,1,8,0:0:0:0:
232,205,186760,1,0,0:0:0:0:
232,205,186833,1,8,0:0:0:0:
231,202,187126,1,0,0:0:0:0:
230,205,187199,1,8,0:0:0:0:
230,205,187272,1,0,0:0:0:0:
230,206,187419,1,8,0:0:0:0:
223,204,187565,1,0,0:0:0:0:
223,204,187711,1,8,0:0:0:0:
232,205,187785,1,8,0:0:0:0:
223,204,187858,1,0,0:0:0:0:
225,217,188004,1,8,0:0:0:0:
222,206,188102,1,8,0:0:0:0:
223,203,188199,1,0,0:0:0:0:
222,203,188297,1,8,0:0:0:0:
225,202,188370,1,8,0:0:0:0:
225,202,188443,1,8,0:0:0:0:
223,204,188516,1,8,0:0:0:0:
223,204,188589,1,4,0:0:0:0:
230,202,188874,1,8,0:0:0:0:
231,203,188946,1,8,0:0:0:0:
234,201,189017,1,0,0:0:0:0:
231,203,189160,1,8,0:0:0:0:
230,203,189303,1,0,0:0:0:0:
230,200,189446,1,0,0:0:0:0:
230,200,189517,1,8,0:0:0:0:
230,200,189589,1,0,0:0:0:0:
230,202,189660,1,0,0:0:0:0:
229,202,189731,1,8,0:0:0:0:
234,201,190017,1,8,0:0:0:0:
231,203,190089,1,0,0:0:0:0:
231,203,190160,1,8,0:0:0:0:
236,202,190231,1,8,0:0:0:0:
237,202,190303,1,0,0:0:0:0:
230,200,190446,1,0,0:0:0:0:
237,199,190589,1,8,0:0:0:0:
240,198,190731,1,0,0:0:0:0:
239,202,190803,1,0,0:0:0:0:
241,201,190874,1,12,0:0:0:0:
241,201,191065,1,12,0:0:0:0:
237,202,191255,1,4,0:0:0:0:
237,199,191446,1,12,0:0:0:0:
240,198,191636,1,12,0:0:0:0:
241,201,191827,1,4,0:0:0:0:
246,200,192017,1,0,0:0:0:0:
242,199,192089,1,0,0:0:0:0:
242,201,192160,1,8,0:0:0:0:
244,193,192303,1,8,0:0:0:0:
246,196,192446,1,0,0:0:0:0:
242,203,192589,1,8,0:0:0:0:
241,201,192660,1,8,0:0:0:0:
235,197,192731,1,0,0:0:0:0:
233,198,192874,1,8,0:0:0:0:
236,198,193017,1,0,0:0:0:0:
242,201,193160,1,8,0:0:0:0:
221,197,193439,1,12,0:0:0:0:
237,196,193578,1,8,0:0:0:0:
236,196,193648,1,0,0:0:0:0:
238,196,193718,1,8,0:0:0:0:
241,193,193787,1,8,0:0:0:0:
235,202,193857,1,0,0:0:0:0:
236,203,193997,1,0,0:0:0:0:
242,199,194276,1,0,0:0:0:0:
242,199,194415,1,0,0:0:0:0:
242,199,194485,1,0,0:0:0:0:
245,203,194555,1,8,0:0:0:0:
246,205,194694,1,8,0:0:0:0:
246,205,194764,1,0,0:0:0:0:
246,205,194834,1,8,0:0:0:0:
244,205,194904,1,8,0:0:0:0:
242,205,194973,1,8,0:0:0:0:
242,201,195113,1,0,0:0:0:0:
251,201,195392,1,8,0:0:0:0:
252,201,195671,1,8,0:0:0:0:
252,201,195811,1,8,0:0:0:0:
252,200,195880,1,8,0:0:0:0:
252,200,195950,1,0,0:0:0:0:
242,201,196020,1,0,0:0:0:0:
242,201,196090,1,8,0:0:0:0:
255,200,196229,1,0,0:0:0:0:
252,201,196508,1,8,0:0:0:0:
252,201,196648,1,0,0:0:0:0:
257,204,196718,1,0,0:0:0:0:
252,201,196787,1,8,0:0:0:0:
247,202,196927,1,8,0:0:0:0:
261,199,197066,1,8,0:0:0:0:
261,199,197160,1,8,0:0:0:0:
261,199,197253,1,8,0:0:0:0:
261,199,197346,1,8,0:0:0:0:
262,198,197625,1,12,0:0:0:0:
257,200,197904,1,0,0:0:0:0:
261,199,198043,1,0,0:0:0:0:
261,199,198113,1,0,0:0:0:0:
261,199,198183,1,8,0:0:0:0:
258,202,198253,1,8,0:0:0:0:
255,199,198322,1,0,0:0:0:0:
261,199,198462,1,0,0:0:0:0:
257,200,198741,1,8,0:0:0:0:
257,200,198880,1,0,0:0:0:0:
262,198,198950,1,0,0:0:0:0:
253,195,199020,1,8,0:0:0:0:
255,195,199160,1,8,0:0:0:0:
254,196,199229,1,0,0:0:0:0:
254,196,199299,1,8,0:0:0:0:
255,192,199369,1,8,0:0:0:0:
255,193,199439,1,0,0:0:0:0:
256,195,199578,1,8,0:0:0:0:
250,206,199857,1,12,0:0:0:0:
253,195,200043,1,12,0:0:0:0:
254,196,200229,1,4,0:0:0:0:
255,193,200415,1,12,0:0:0:0:
257,193,200601,1,12,0:0:0:0:
256,192,200787,1,4,0:0:0:0:
253,195,200973,1,12,0:0:0:0:
254,191,201160,1,4,0:0:0:0:
255,193,201346,1,12,0:0:0:0:
256,195,201532,1,4,0:0:0:0:
253,195,202090,1,12,0:0:0:0:
255,193,202362,1,8,0:0:0:0:
256,195,202499,1,8,0:0:0:0:
253,200,202567,1,0,0:0:0:0:
253,200,202635,1,8,0:0:0:0:
253,195,202771,1,0,0:0:0:0:
253,195,202840,1,8,0:0:0:0:
253,195,202908,1,0,0:0:0:0:
253,195,202976,1,0,0:0:0:0:
253,195,203044,1,8,0:0:0:0:
256,197,203180,1,8,0:0:0:0:
256,195,203453,1,8,0:0:0:0:
253,195,203590,1,8,0:0:0:0:
253,200,203726,1,0,0:0:0:0:
258,194,203862,1,0,0:0:0:0:
258,194,203930,1,0,0:0:0:0:
257,195,203999,1,8,0:0:0:0:
255,193,204271,1,2,0:0:0:0:
245,198,204544,1,8,0:0:0:0:
245,198,204680,1,0,0:0:0:0:
244,200,204749,1,0,0:0:0:0:
244,200,204817,1,8,0:0:0:0:
244,200,204953,1,0,0:0:0:0:
244,200,205021,1,8,0:0:0:0:
244,200,205090,1,0,0:0:0:0:
244,200,205158,1,0,0:0:0:0:
242,201,205226,1,8,0:0:0:0:
245,198,205362,1,8,0:0:0:0:
241,202,205635,1,8,0:0:0:0:
244,200,205771,1,0,0:0:0:0:
240,205,205908,1,8,0:0:0:0:
231,204,205999,1,8,0:0:0:0:
235,202,206090,1,8,0:0:0:0:
235,202,206180,1,8,0:0:0:0:
231,201,206453,1,12,0:0:0:0:
235,201,206745,1,8,0:0:0:0:
236,201,206892,1,8,0:0:0:0:
236,201,206965,1,0,0:0:0:0:
236,201,207038,1,8,0:0:0:0:
235,202,207184,1,0,0:0:0:0:
236,201,207331,1,8,0:0:0:0:
236,201,207477,1,0,0:0:0:0:
241,202,207550,1,0,0:0:0:0:
241,202,207623,1,8,0:0:0:0:
243,201,207938,1,0,0:0:0:0:
242,198,208096,1,0,0:0:0:0:
241,202,208254,1,8,0:0:0:0:
236,201,208412,1,8,0:0:0:0:
236,201,208491,1,0,0:0:0:0:
241,202,208570,1,8,0:0:0:0:
241,202,208649,1,8,0:0:0:0:
243,201,208728,1,0,0:0:0:0:
243,201,208886,1,8,0:0:0:0:
235,202,209114,1,0,0:0:0:0:
236,201,209343,1,0,0:0:0:0:
237,197,209571,1,8,0:0:0:0:
237,197,209696,1,8,0:0:0:0:
237,197,209821,1,0,0:0:0:0:
241,195,210071,1,0,0:0:0:0:
240,195,210321,1,8,0:0:0:0:
237,197,210454,1,8,0:0:0:0:
237,197,210587,1,0,0:0:0:0:
237,197,210721,1,0,0:0:0:0:
241,195,210854,1,8,0:0:0:0:
241,195,211121,1,12,0:0:0:0:
