osu file format v14

[General]
AudioFilename: audio.mp3
AudioLeadIn: 0
PreviewTime: 45060
Countdown: 0
SampleSet: Normal
StackLeniency: 0.7
Mode: 0
LetterboxInBreaks: 0
WidescreenStoryboard: 0

[Editor]
Bookmarks: 34365
DistanceSpacing: 1.5
BeatDivisor: 4
GridSize: 32
TimelineZoom: 1

[Metadata]
Title:Unity
TitleUnicode:Unity
Artist:Rogue x Stonebank x Slips & Slurs
ArtistUnicode:Rogue x Stonebank x Slips & Slurs
Creator:Dogerinoo
Version:Light Insane
Source:
Tags:happyrocket88 monstercat edm dance
BeatmapID:1428351
BeatmapSetID:675152

[Difficulty]
HPDrainRate:5
CircleSize:3.7
OverallDifficulty:6
ApproachRate:9
SliderMultiplier:1.4
SliderTickRate:1

[Events]
//Background and Video events
0,0,"redbigeye___monstercat_v_by_redbigeye-db69o02.jpg",0,0
//Break Periods
2,23138,33676
//Storyboard Layer 0 (Background)
//Storyboard Layer 1 (Fail)
//Storyboard Layer 2 (Pass)
//Storyboard Layer 3 (Foreground)
//Storyboard Sound Samples

[TimingPoints]
80,357.142857142857,4,1,0,100,1,0
80,357.142857142857,4,1,0,100,1,0
45794,-100,4,1,0,100,0,1
54298,-100,4,1,0,100,0,0
57222,-100,4,1,0,100,0,1
65772,-100,4,1,0,100,0,0

[HitObjects]
132,98,80,5,4,1:3:0:0:
192,288,438,2,0,P|224:288|263:258,1,70,0|0,1:3|1:3,1:3:0:0:
384,96,794,1,8,1:3:0:0:
256,160,1152,1,8,1:3:0:0:
318,126,1509,1,8,1:3:0:0:
190,190,1866,1,8,1:3:0:0:
256,160,2223,1,8,1:3:0:0:
128,224,2580,1,8,1:3:0:0:
384,320,2938,5,4,1:3:0:0:
320,96,3295,2,0,P|288:96|244:102,1,70,0|0,1:3|1:3,1:3:0:0:
288,224,3652,1,8,1:3:0:0:
160,128,4009,1,8,1:3:0:0:
232,176,4366,1,8,1:3:0:0:
104,80,4723,1,8,1:3:0:0:
160,128,5080,1,8,1:3:0:0:
224,64,5438,5,4,1:3:0:0:
288,96,5616,2,12,P|320:128|320:160,1,70,12|12,1:3|1:3,1:3:0:0:
320,256,6152,1,8,1:3:0:0:
192,352,6509,1,8,1:3:0:0:
384,210,6866,1,8,1:3:0:0:
256,306,7223,1,8,1:3:0:0:
448,160,7580,1,8,1:3:0:0:
320,256,7938,1,8,1:3:0:0:
129,215,8295,5,12,1:3:0:0:
64,192,8473,2,12,P|32:160|32:128,1,70,12|12,1:3|1:3,1:3:0:0:
192,32,9009,1,8,1:3:0:0:
256,192,9366,1,8,1:3:0:0:
224,114,9723,1,8,1:3:0:0:
288,274,10080,1,8,1:3:0:0:
256,192,10438,1,0,1:3:0:0:
320,352,10794,1,0,1:3:0:0:
170,169,11151,5,4,1:3:0:0:
194,142,11240,1,4,1:3:0:0:
220,124,11329,1,4,1:3:0:0:
249,107,11419,1,4,1:3:0:0:
288,96,11509,6,8,P|320:96|352:128,1,70,8|8,1:3|1:3,1:3:0:0:
384,160,11866,2,0,B|416:192|416:224|416:224|416:224,1,70,0|0,1:3|1:3,1:3:0:0:
256,320,12223,2,0,P|224:320|192:288,1,70,0|0,1:3|1:3,1:3:0:0:
96,224,12580,2,0,P|96:192|128:160,1,70,0|0,1:3|1:3,1:3:0:0:
224,128,12938,2,0,P|256:128|288:160,1,70,0|0,1:3|1:3,1:3:0:0:
224,224,13295,2,0,P|192:224|160:192,1,70,0|0,1:3|1:3,1:3:0:0:
296,50,13652,2,0,P|328:50|360:82,1,70,0|0,1:3|1:3,1:3:0:0:
192,96,14009,2,0,P|224:128|256:128,1,70,0|0,1:3|1:3,1:3:0:0:
352,128,14366,5,12,1:3:0:0:
352,128,14544,1,4,1:3:0:0:
384,192,14723,2,0,P|375:238|343:251,1,70,0|0,1:3|1:3,1:3:0:0:
288,288,15080,2,0,P|256:288|224:256,1,70,0|0,1:3|1:3,1:3:0:0:
160,192,15438,2,0,P|160:160|192:128,1,70,0|0,1:3|1:3,1:3:0:0:
320,64,15795,2,0,P|352:64|384:96,1,70,0|0,1:3|1:3,1:3:0:0:
384,128,16152,1,4,1:3:0:0:
256,192,16330,1,8,1:3:0:0:
128,192,16509,6,0,P|113:158|115:133,2,52.5,0|0|0,1:3|1:3|1:3,1:3:0:0:
26,190,16865,2,0,L|66:199,1,35
112,64,17044,2,0,L|157:72,1,35
224,64,17223,6,0,P|256:64|288:96,1,70,0|0,1:3|1:3,1:3:0:0:
320,128,17580,1,8,1:3:0:0:
320,128,17759,1,8,1:3:0:0:
128,288,17938,2,0,P|160:320|192:320,1,70,0|0,1:3|1:3,1:3:0:0:
224,320,18295,1,8,1:3:0:0:
224,320,18473,1,8,1:3:0:0:
416,192,18652,2,0,P|416:224|384:256,1,70,0|0,1:3|1:3,1:3:0:0:
352,288,19009,1,8,1:3:0:0:
352,288,19188,1,8,1:3:0:0:
128,192,19365,6,0,P|110:160|116:132,2,52.5,0|0|0,1:3|1:3|1:3,1:3:0:0:
26,190,19722,2,0,L|66:199,1,35
112,64,19901,2,0,L|157:72,1,35
270,31,20080,6,0,P|302:31|334:63,1,70,0|0,1:3|1:3,1:3:0:0:
364,122,20438,1,8,1:3:0:0:
224,224,20616,1,8,1:3:0:0:
384,256,20795,2,0,P|384:288|352:320,1,70,0|0,1:3|1:3,1:3:0:0:
320,320,21152,1,8,1:3:0:0:
224,224,21330,1,8,1:3:0:0:
128,352,21509,2,0,P|96:352|64:320,1,70,0|0,1:3|1:3,1:3:0:0:
64,288,21866,1,8,1:3:0:0:
214,201,22045,1,8,1:3:0:0:
128,192,22222,6,0,P|110:167|117:135,2,52.5,0|0|0,1:3|1:3|1:3,1:3:0:0:
97,278,22579,2,0,L|137:287,1,35
183,152,22758,2,0,L|228:160,1,35
269,270,22938,5,14,1:3:0:0:
64,96,34366,6,8,P|96:64|160:64,1,105,8|8,1:3|1:3,1:3:0:0:
352,96,34902,1,4,1:3:0:0:
416,160,35080,2,0,P|448:192|448:224,1,70,0|0,1:3|1:3,1:3:0:0:
384,288,35438,1,4,1:3:0:0:
355,303,35527,1,4,1:3:0:0:
325,312,35616,1,4,1:3:0:0:
294,319,35705,1,4,1:3:0:0:
241,315,35795,6,8,P|177:315|145:283,1,105,8|8,1:3|1:3,1:3:0:0:
160,96,36330,1,4,1:3:0:0:
256,64,36509,2,0,P|288:64|320:96,1,70,0|0,1:3|1:3,1:3:0:0:
421,236,36866,1,4,1:3:0:0:
394,254,36955,1,4,1:3:0:0:
364,267,37045,1,4,1:3:0:0:
334,281,37134,1,4,1:3:0:0:
301,291,37223,6,8,B|257:303|229:287|201:272,1,105,8|8,1:3|1:3,1:3:0:0:
64,192,37758,1,4,1:3:0:0:
96,96,37937,2,0,P|128:64|160:64,1,70,0|0,1:3|1:3,1:3:0:0:
185,130,38295,1,4,1:3:0:0:
202,157,38384,1,4,1:3:0:0:
220,183,38473,1,4,1:3:0:0:
239,207,38563,1,4,1:3:0:0:
262,236,38652,6,8,B|294:268|326:300|361:299,1,105,8|8,1:3|1:3,1:3:0:0:
386,136,39188,1,4,1:3:0:0:
400,263,39366,2,0,P|368:295|336:295,1,70,0|0,1:3|1:3,1:3:0:0:
253,175,39723,1,4,1:3:0:0:
238,147,39813,1,4,1:3:0:0:
225,118,39902,1,4,1:3:0:0:
211,92,39991,1,4,1:3:0:0:
192,64,40080,6,10,P|160:64|128:96,1,70,10|10,1:3|1:3,1:3:0:0:
55,161,40438,2,10,P|30:194|33:229,1,70,10|10,1:3|1:3,1:3:0:0:
49,324,40795,2,10,P|81:356|113:356,1,70,10|10,1:3|1:3,1:3:0:0:
209,360,41152,2,10,L|280:336,1,70,10|10,1:3|1:3,1:3:0:0:
368,287,41509,2,10,P|400:255|400:223,1,70,10|10,1:3|1:3,1:3:0:0:
423,129,41866,2,10,P|423:97|391:65,1,70,10|10,1:3|1:3,1:3:0:0:
299,36,42223,2,10,L|235:68,1,70,10|10,1:3|1:3,1:3:0:0:
148,124,42580,2,10,P|116:156|116:188,1,70,10|10,1:3|1:3,1:3:0:0:
152,300,42938,5,8,1:3:0:0:
183,326,43027,1,8,1:3:0:0:
216,345,43116,1,8,1:3:0:0:
251,355,43205,1,8,1:3:0:0:
288,356,43295,1,8,1:3:0:0:
324,349,43384,1,8,1:3:0:0:
405,255,43473,2,8,L|446:271,3,35,8|8|8|8,1:3|1:3|1:3|1:3,1:3:0:0:
304,147,43829,2,8,L|263:131,3,35,8|8|8|8,1:3|1:3|1:3|1:3,1:3:0:0:
164,78,44187,5,0,0:0:0:0:
130,87,44276,1,0,0:0:0:0:
100,106,44365,1,0,0:0:0:0:
76,131,44454,1,0,0:0:0:0:
60,162,44544,1,0,0:0:0:0:
52,196,44633,5,0,0:0:0:0:
53,230,44722,1,0,0:0:0:0:
64,264,44812,1,0,0:0:0:0:
83,293,44901,1,0,0:0:0:0:
108,317,44990,1,0,0:0:0:0:
139,332,45079,1,0,0:0:0:0:
128,128,45795,5,4,1:3:0:0:
288,32,46152,2,0,P|320:64|320:96,1,70,0|0,1:3|1:3,1:3:0:0:
173,317,46509,5,8,1:3:0:0:
320,128,46866,1,4,1:3:0:0:
384,288,47045,1,12,1:3:0:0:
224,256,47223,1,12,1:3:0:0:
320,128,47402,1,4,1:3:0:0:
384,288,47580,2,0,P|352:320|320:320,1,70,0|0,1:3|1:3,1:3:0:0:
192,288,47938,1,4,1:3:0:0:
192,96,48295,6,8,L|96:192,1,105,8|8,1:3|1:3,1:3:0:0:
117,170,48652,1,4,1:3:0:0:
160,288,49009,2,0,P|192:320|224:320,1,70,0|0,1:3|1:3,1:3:0:0:
288,320,49366,1,8,1:3:0:0:
162,196,49545,1,4,1:3:0:0:
361,128,49723,1,12,1:3:0:0:
243,318,49902,1,12,1:3:0:0:
232,87,50080,1,4,1:3:0:0:
379,266,50259,1,4,1:3:0:0:
158,246,50438,6,0,P|131:238|106:205,1,70,0|0,1:3|1:3,1:3:0:0:
64,128,50795,1,2,1:3:0:0:
256,32,51152,2,0,P|288:32|330:90,1,105,0|0,1:3|1:3,1:3:0:0:
329,85,51509,1,12,1:3:0:0:
128,192,51866,6,0,P|160:224|192:224,1,70,0|0,1:3|1:3,1:3:0:0:
305,223,52223,1,8,1:3:0:0:
305,223,52402,1,4,1:3:0:0:
512,167,52580,1,12,1:3:0:0:
369,335,52759,1,12,1:3:0:0:
384,118,52938,1,4,1:3:0:0:
512,304,53116,1,4,1:3:0:0:
320,224,53295,2,0,P|320:192|320:128,1,70,0|0,1:3|1:3,1:3:0:0:
320,96,53652,1,0,1:3:0:0:
138,142,53830,5,0,1:3:0:0:
200,78,54009,2,2,P|231:55|266:51,1,70,2|2,1:3|1:3,1:3:0:0:
412,93,54366,5,0,1:3:0:0:
437,166,54634,1,8,1:3:0:0:
359,149,54902,1,12,1:3:0:0:
118,238,55080,5,0,1:3:0:0:
143,311,55348,1,8,1:3:0:0:
65,294,55616,1,12,1:3:0:0:
246,56,55795,5,0,1:3:0:0:
271,129,56063,1,8,1:3:0:0:
193,112,56329,1,12,1:3:0:0:
268,79,56509,5,2,1:3:0:0:
319,288,56777,1,10,1:3:0:0:
124,238,57045,1,14,1:3:0:0:
95,113,57223,5,4,1:3:0:0:
212,83,57580,2,0,P|234:122|232:151,1,70,0|0,1:3|1:3,1:3:0:0:
153,270,57938,1,8,1:3:0:0:
384,160,58295,5,4,1:3:0:0:
288,320,58473,1,12,1:3:0:0:
416,128,58652,1,12,1:3:0:0:
320,288,58830,1,4,1:3:0:0:
448,96,59009,2,0,P|480:128|480:160,1,70,0|0,1:3|1:3,1:3:0:0:
480,224,59366,1,4,1:3:0:0:
128,256,59723,6,0,L|224:320,1,105,0|0,1:3|1:3,1:3:0:0:
215,314,60080,1,4,1:3:0:0:
352,224,60438,2,0,P|384:192|352:160,1,70,0|0,1:3|1:3,1:3:0:0:
167,124,60795,1,8,1:3:0:0:
167,124,60973,1,4,1:3:0:0:
96,224,61152,1,12,1:3:0:0:
288,256,61330,1,12,1:3:0:0:
32,288,61509,1,4,1:3:0:0:
224,320,61688,1,4,1:3:0:0:
32,352,61866,2,0,P|0:320|0:288,1,70,0|0,1:3|1:3,1:3:0:0:
224,96,62223,5,4,1:3:0:0:
441,93,62580,2,0,P|448:128|435:170,1,70,0|0,1:3|1:3,1:3:0:0:
384,256,62938,1,12,1:3:0:0:
128,288,63295,2,0,P|96:288|64:256,1,70,0|0,1:3|1:3,1:3:0:0:
64,224,63652,1,8,1:3:0:0:
160,160,63830,5,4,1:3:0:0:
384,192,64009,1,12,1:3:0:0:
192,96,64188,1,12,1:3:0:0:
352,256,64366,1,4,1:3:0:0:
160,160,64545,1,4,1:3:0:0:
320,352,64723,2,2,P|288:352|256:320,1,70,2|2,1:3|1:3,1:3:0:0:
192,224,65080,1,4,1:3:0:0:
63,98,65259,1,12,1:3:0:0:
160,64,65438,2,8,P|192:64|224:96,1,70,8|8,1:3|1:3,1:3:0:0:
412,93,65795,5,0,1:3:0:0:
437,166,66063,1,4,1:3:0:0:
359,149,66329,1,12,1:3:0:0:
320,256,66509,5,0,1:3:0:0:
345,329,66777,1,4,1:3:0:0:
267,312,67045,1,12,1:3:0:0:
128,160,67223,5,0,1:3:0:0:
153,233,67491,1,4,1:3:0:0:
75,216,67759,1,12,1:3:0:0:
288,64,67938,5,0,1:3:0:0:
352,288,68204,1,4,1:3:0:0:
128,224,68472,1,4,1:3:0:0:
256,192,68652,1,14,1:3:0:0:
