osu file format v14

[General]
AudioFilename: audio.mp3
AudioLeadIn: 0
PreviewTime: 45060
Countdown: 0
SampleSet: Normal
StackLeniency: 0.7
Mode: 0
LetterboxInBreaks: 0
WidescreenStoryboard: 0

[Editor]
Bookmarks: 34346,45775
DistanceSpacing: 1.7
BeatDivisor: 4
GridSize: 32
TimelineZoom: 1

[Metadata]
Title:Unity
TitleUnicode:Unity
Artist:Rogue x Stonebank x Slips & Slurs
ArtistUnicode:Rogue x Stonebank x Slips & Slurs
Creator:Dogerinoo
Version:Hard
Source:
Tags:unity stonebank slip&slurs slip & slurs stonebank monstercat edm electronic dance yo
BeatmapID:1429336
BeatmapSetID:675152

[Difficulty]
HPDrainRate:4.5
CircleSize:4
OverallDifficulty:5.5
ApproachRate:7.5
SliderMultiplier:1.4
SliderTickRate:1

[Events]
//Background and Video events
0,0,"redbigeye___monstercat_v_by_redbigeye-db69o02.jpg",0,0
//Break Periods
2,23138,33541
//Storyboard Layer 0 (Background)
//Storyboard Layer 1 (Fail)
//Storyboard Layer 2 (Pass)
//Storyboard Layer 3 (Foreground)
//Storyboard Sound Samples

[TimingPoints]
80,357.142857142857,4,1,0,100,1,0
45794,-100,4,1,0,100,0,1
54298,-100,4,1,0,100,0,0
57222,-100,4,1,0,100,0,1
65794,-100,4,1,0,100,0,0

[HitObjects]
96,96,80,5,2,1:3:0:0:
192,64,438,2,4,P|224:64|256:96,1,70,4|4,1:3|1:3,1:3:0:0:
291,203,794,2,4,P|226:174|158:235,1,140,4|4,1:3|1:3,1:3:0:0:
176,369,1508,2,4,L|233:237,2,140,4|4|4,1:3|1:3|1:3,1:3:0:0:
288,287,2579,1,8,1:3:0:0:
405,231,2758,5,8,1:3:0:0:
405,231,2938,1,8,1:3:0:0:
352,128,3295,2,4,P|320:96|288:96,1,70,4|4,1:3|1:3,1:3:0:0:
169,117,3651,2,4,P|235:150|256:214,1,140,4|4,1:3|1:3,1:3:0:0:
181,241,4365,2,4,L|247:371,2,140,4|4|4,1:3|1:3|1:3,1:3:0:0:
83,211,5437,1,8,1:3:0:0:
118,321,5615,5,8,1:3:0:0:
118,321,5795,1,8,1:3:0:0:
224,320,6152,2,4,P|256:320|288:288,1,70,4|4,1:3|1:3,1:3:0:0:
342,163,6508,2,4,P|260:188|231:247,1,140,4|4,1:3|1:3,1:3:0:0:
189,168,7222,2,4,L|132:30,2,140,4|4|4,1:3|1:3|1:3,1:3:0:0:
211,45,8294,1,8,1:3:0:0:
102,130,8473,5,8,1:3:0:0:
102,130,8652,1,8,1:3:0:0:
224,26,9009,2,4,P|189:31|160:58,1,70,4|4,1:3|1:3,1:3:0:0:
232,110,9365,2,0,P|242:199|196:259,1,140
164,168,10079,2,4,L|32:116,2,140,4|4|4,1:3|1:3|1:3,1:3:0:0:
280,188,11152,6,0,L|329:148,3,35,0|0|0|0,1:3|1:3|1:3|1:3,1:3:0:0:
358,134,11509,5,4,1:3:0:0:
410,232,11866,2,0,P|412:273|396:308,1,70,0|0,1:3|1:3,1:3:0:0:
357,362,12223,1,4,1:3:0:0:
308,282,12579,6,0,L|233:256,1,70,0|0,1:3|1:3,1:3:0:0:
345,239,12937,2,0,L|270:213,1,70,0|0,1:3|1:3,1:3:0:0:
384,197,13294,2,0,L|309:171,1,70,0|0,1:3|1:3,1:3:0:0:
424,156,13651,2,4,L|349:130,1,70,4|4,1:3|1:3,1:3:0:0:
229,97,14009,5,8,1:3:0:0:
256,22,14188,1,8,1:3:0:0:
256,22,14366,2,8,P|285:33|304:74,1,70,8|8,1:3|1:3,1:3:0:0:
301,138,14723,2,0,P|345:127|362:100,1,70,0|0,1:3|1:3,1:3:0:0:
402,36,15080,1,0,1:3:0:0:
441,113,15437,6,0,L|511:150,1,70,0|0,1:3|1:3,1:3:0:0:
400,161,15795,2,8,L|466:204,1,70,8|8,1:3|1:3,1:3:0:0:
351,201,16152,2,0,L|414:250,1,70,0|0,1:3|1:3,1:3:0:0:
297,231,16509,2,4,L|355:284,1,70,4|4,1:3|1:3,1:3:0:0:
435,330,16866,6,8,L|377:296,3,35,8|8|8|8,1:3|1:3|1:3|1:3,1:3:0:0:
370,255,17223,2,4,P|338:287|338:319,1,70,4|4,1:3|1:3,1:3:0:0:
242,314,17580,2,0,P|269:349|297:361,1,70,0|0,1:3|1:3,1:3:0:0:
363,361,17938,1,4,1:3:0:0:
313,291,18295,6,0,P|357:271|377:227,1,70,0|0,1:3|1:3,1:3:0:0:
445,256,18652,2,0,P|445:219|423:182,1,70,0|0,1:3|1:3,1:3:0:0:
470,130,19009,2,0,P|435:113|393:116,1,70,0|0,1:3|1:3,1:3:0:0:
300,131,19366,1,4,1:3:0:0:
336,204,19723,2,8,L|304:241,3,35,8|8|8|8,1:3|1:3|1:3|1:3,1:3:0:0:
407,168,20080,6,0,P|375:136|343:123,1,70,0|0,1:3|1:3,1:3:0:0:
353,54,20438,2,0,P|321:54|285:85,1,70,0|0,1:3|1:3,1:3:0:0:
232,154,20795,1,4,1:3:0:0:
166,233,21152,6,0,P|134:182|127:146,1,70,0|0,1:3|1:3,1:3:0:0:
54,159,21509,2,0,P|66:128|97:99,1,70,0|0,1:3|1:3,1:3:0:0:
54,36,21866,2,0,P|109:24|150:32,1,70,0|0,1:3|1:3,1:3:0:0:
199,61,22223,1,4,1:3:0:0:
110,106,22580,6,0,L|126:155,3,35,0|0|0|0,1:3|1:3|1:3|1:3,1:3:0:0:
131,173,22938,1,12,1:3:0:0:
116,138,34366,6,0,P|156:105|183:98,1,70,0|0,1:3|1:3,1:3:0:0:
189,175,34902,1,4,1:3:0:0:
189,175,35080,2,4,L|238:228,1,70,4|4,1:3|1:3,1:3:0:0:
309,223,35438,2,0,L|291:176,3,35,0|0|0|0,1:3|1:3|1:3|1:3,1:3:0:0:
247,254,35795,6,0,P|240:299|248:329,1,70,0|0,1:3|1:3,1:3:0:0:
316,293,36330,1,4,1:3:0:0:
316,293,36509,2,4,L|379:326,1,70,4|4,1:3|1:3,1:3:0:0:
421,272,36866,2,0,L|453:304,3,35,0|0|0|0,1:3|1:3|1:3|1:3,1:3:0:0:
347,214,37223,6,0,P|382:210|411:182,1,70,0|0,1:3|1:3,1:3:0:0:
351,143,37759,1,4,1:3:0:0:
351,143,37938,2,4,L|267:105,1,70,4|4,1:3|1:3,1:3:0:0:
263,44,38295,2,0,L|229:64,3,35,0|0|0|0,1:3|1:3|1:3|1:3,1:3:0:0:
174,95,38652,6,0,P|140:135|133:171,1,70,0|0,1:3|1:3,1:3:0:0:
212,162,39188,1,4,1:3:0:0:
212,162,39366,2,4,L|296:191,1,70,4|4,1:3|1:3,1:3:0:0:
303,263,39723,2,0,L|334:242,3,35,0|0|0|0,1:3|1:3|1:3|1:3,1:3:0:0:
372,303,40080,6,2,P|411:279|432:249,1,70,2|2,1:3|1:3,1:3:0:0:
512,209,40437,2,2,P|487:170|457:149,1,70,2|2,1:3|1:3,1:3:0:0:
420,64,40794,2,2,P|381:88|360:118,1,70,2|2,1:3|1:3,1:3:0:0:
397,251,41151,2,2,P|372:212|342:191,1,70,2|2,1:3|1:3,1:3:0:0:
242,156,41508,2,2,P|273:115|306:97,1,70,2|2,1:3|1:3,1:3:0:0:
399,130,41865,2,2,P|368:171|335:189,1,70,2|2,1:3|1:3,1:3:0:0:
276,257,42222,2,2,P|235:226|217:193,1,70,2|2,1:3|1:3,1:3:0:0:
152,237,42579,2,2,P|144:186|155:150,1,70,2|2,1:3|1:3,1:3:0:0:
279,106,42938,6,12,L|247:74,3,35,12|12|12|12,1:3|1:3|1:3|1:3,1:3:0:0:
247,138,43295,2,12,L|213:109,3,35,12|12|12|12,1:3|1:3|1:3|1:3,1:3:0:0:
215,170,43652,2,12,L|179:148,3,35,12|12|12|12,1:3|1:3|1:3|1:3,1:3:0:0:
183,202,44009,2,12,L|139:189,3,35,12|12|12|12,1:3|1:3|1:3|1:3,1:3:0:0:
152,236,44366,2,12,L|107:230,3,35,12|12|12|12,1:3|1:3|1:3|1:3,1:3:0:0:
119,266,44723,2,12,L|72:276,3,35,12|12|12|12,1:3|1:3|1:3|1:3,1:3:0:0:
160,96,45795,5,8,1:3:0:0:
282,121,46152,2,0,B|319:134|319:134|319:176,1,70,0|0,1:3|1:3,1:3:0:0:
318,283,46509,1,4,1:3:0:0:
160,256,46866,1,4,1:3:0:0:
255,184,47045,1,4,1:3:0:0:
291,296,47222,5,4,1:3:0:0:
386,224,47401,1,4,1:3:0:0:
390,138,47580,2,0,P|423:144|450:166,1,70,0|0,1:3|1:3,1:3:0:0:
450,166,47938,1,0,1:3:0:0:
464,66,48295,1,8,1:3:0:0:
343,33,48652,5,8,1:3:0:0:
235,40,49009,2,0,B|199:43|199:43|179:71,1,70,0|0,1:3|1:3,1:3:0:0:
180,164,49366,2,4,P|213:155|239:132,1,70,4|4,1:3|1:3,1:3:0:0:
266,36,49723,1,4,1:3:0:0:
354,116,49902,1,4,1:3:0:0:
233,187,50079,5,4,1:3:0:0:
321,267,50258,1,4,1:3:0:0:
301,163,50438,2,0,P|341:157|376:173,1,70,0|0,1:3|1:3,1:3:0:0:
368,167,50795,1,0,1:3:0:0:
434,279,51152,1,8,1:3:0:0:
308,277,51509,5,8,1:3:0:0:
365,188,51866,2,0,B|383:156|383:156|375:122,1,70,0|0,1:3|1:3,1:3:0:0:
301,53,52222,2,0,P|286:84|291:119,1,70,0|0,1:3|1:3,1:3:0:0:
167,149,52580,1,4,1:3:0:0:
276,207,52759,1,4,1:3:0:0:
183,269,52937,5,4,1:3:0:0:
292,327,53116,1,4,1:3:0:0:
371,314,53295,2,0,P|353:269|310:245,1,70,0|0,1:3|1:3,1:3:0:0:
337,255,53652,1,0,1:3:0:0:
240,214,54009,1,0,1:3:0:0:
224,114,54365,6,8,L|320:178,2,105
135,116,55079,2,8,L|194:29,2,105
141,207,55794,2,8,L|45:143,2,105
230,205,56508,2,12,L|171:292,2,105
123,206,57222,5,0,0:0:0:0:
172,111,57579,2,0,B|180:71|180:71|168:39,1,70,0|0,1:3|1:3,1:3:0:0:
92,10,57937,2,4,P|85:50|95:81,1,70,4|4,1:3|1:3,1:3:0:0:
160,158,58295,1,4,1:3:0:0:
169,43,58472,1,4,1:3:0:0:
104,96,58651,5,4,1:3:0:0:
219,105,58828,1,4,1:3:0:0:
303,104,59008,2,0,P|294:61|268:36,1,70,0|0,1:3|1:3,1:3:0:0:
277,42,59365,1,0,1:3:0:0:
212,159,59722,1,0,1:3:0:0:
336,165,60079,5,8,1:3:0:0:
412,112,60437,2,0,P|444:98|475:111,1,70,0|0,1:3|1:3,1:3:0:0:
474,110,60794,1,4,1:3:0:0:
336,165,61151,1,4,1:3:0:0:
343,50,61330,1,4,1:3:0:0:
226,207,61508,5,4,1:3:0:0:
233,92,61687,1,4,1:3:0:0:
125,98,61865,2,0,P|135:136|156:162,1,70,0|0,1:3|1:3,1:3:0:0:
153,159,62223,1,0,1:3:0:0:
233,92,62580,1,0,1:3:0:0:
313,163,62938,5,8,1:3:0:0:
384,109,63295,2,0,B|356:85|356:85|323:80,1,70,0|0,1:3|1:3,1:3:0:0:
252,134,63651,2,0,B|280:158|280:158|313:163,1,70,0|0,1:3|1:3,1:3:0:0:
420,172,64008,1,4,1:3:0:0:
292,171,64187,1,4,1:3:0:0:
430,285,64365,5,4,1:3:0:0:
328,365,64544,1,4,1:3:0:0:
254,311,64723,2,0,P|292:272|333:263,1,70,0|0,1:3|1:3,1:3:0:0:
389,248,65080,1,0,1:3:0:0:
299,185,65438,1,0,1:3:0:0:
305,90,65794,6,8,L|417:167,2,105
305,218,66508,2,8,L|215:312,2,105
177,218,67223,2,8,L|66:148,2,105
177,90,67937,2,12,L|250:-21,2,105
293,88,68651,1,0,0:0:0:0:
