osu file format v14

[General]
AudioFilename: audio.mp3
AudioLeadIn: 0
PreviewTime: 45060
Countdown: 0
SampleSet: Normal
StackLeniency: 0.7
Mode: 0
LetterboxInBreaks: 0
WidescreenStoryboard: 1

[Editor]
Bookmarks: 34365
DistanceSpacing: 1.5
BeatDivisor: 4
GridSize: 32
TimelineZoom: 1.5

[Metadata]
Title:Unity
TitleUnicode:Unity
Artist:Rogue x Stonebank x Slips & Slurs
ArtistUnicode:Rogue x Stonebank x Slips & Slurs
Creator:Dogerinoo
Version:Extra
Source:
Tags:happyrocket88 monstercat edm dance
BeatmapID:1473483
BeatmapSetID:675152

[Difficulty]
HPDrainRate:6.2
CircleSize:4.4
OverallDifficulty:6.8
ApproachRate:9.3
SliderMultiplier:1.4
SliderTickRate:1

[Events]
//Background and Video events
0,0,"redbigeye___monstercat_v_by_redbigeye-db69o02.jpg",0,0
//Break Periods
//Storyboard Layer 0 (Background)
//Storyboard Layer 1 (Fail)
//Storyboard Layer 2 (Pass)
//Storyboard Layer 3 (Foreground)
//Storyboard Sound Samples

[TimingPoints]
80,357.142857142857,4,1,0,100,1,0
16687,357.142857142857,4,1,0,100,1,0
16687,-83.3333333333333,4,1,0,100,0,0
20347,357.142857142857,4,1,0,100,1,0
20347,-74.0740740740741,4,1,0,100,0,0
21061,357.142857142857,4,1,0,100,1,0
21061,-66.6666666666667,4,1,0,100,0,0
21775,357.142857142857,4,1,0,100,1,0
21775,-60.6060606060606,4,1,0,100,0,0
22221,357.142857142857,4,1,0,100,1,0
22221,-58.8235294117647,4,1,0,100,0,0
22578,357.142857142857,4,1,0,100,1,0
22578,-54.054054054054,4,1,0,100,0,0
22935,357.142857142857,4,1,0,100,1,0
22935,-133.333333333333,4,1,0,100,0,0
34274,357.142857142857,4,1,0,100,1,0
34274,357.142857142857,4,1,0,100,1,0
34274,-100,4,1,0,100,0,0
36684,357.142857142857,4,1,0,100,1,0
36684,-83.3333333333333,4,1,0,100,0,0
38201,357.142857142857,4,1,0,100,1,0
38201,-74.0740740740741,4,1,0,100,0,0
39629,357.142857142857,4,1,0,100,1,0
39629,-66.6666666666667,4,1,0,100,0,0
45789,-100,4,1,0,100,0,1
54271,-100,4,1,0,100,0,0
57218,-100,4,1,0,100,0,1
65700,-100,4,1,0,100,0,0

[HitObjects]
245,209,80,5,4,1:3:0:0:
333,312,437,1,8,1:3:0:0:
379,160,615,1,8,1:3:0:0:
275,121,794,1,0,1:3:0:0:
235,238,972,1,0,1:3:0:0:
209,114,1151,1,0,1:3:0:0:
302,243,1329,1,0,1:3:0:0:
257,64,1508,5,8,1:3:0:0:
103,95,1687,1,8,1:3:0:0:
207,251,1865,1,8,1:3:0:0:
213,52,2044,1,8,1:3:0:0:
162,201,2222,2,0,L|224:177,2,46.6666666666667,0|0|0,1:3|1:3|1:3,1:3:0:0:
213,52,2579,6,0,L|268:73,1,35,0|0,1:3|1:3,1:3:0:0:
314,128,2758,2,0,L|373:116,1,35,0|0,1:3|1:3,1:3:0:0:
314,35,2937,5,4,1:3:0:0:
406,158,3294,1,8,1:3:0:0:
269,252,3472,1,8,1:3:0:0:
340,136,3651,1,0,1:3:0:0:
334,285,3829,1,0,1:3:0:0:
252,109,4008,1,0,1:3:0:0:
269,252,4187,1,0,1:3:0:0:
127,274,4365,5,8,1:3:0:0:
261,174,4544,1,8,1:3:0:0:
35,224,4722,1,8,1:3:0:0:
212,117,4901,1,8,1:3:0:0:
129,185,5079,2,0,L|192:208,2,46.6666666666667,0|0|0,1:3|1:3|1:3,1:3:0:0:
140,92,5437,6,0,L|195:113,1,35,0|0,1:3|1:3,1:3:0:0:
319,143,5616,2,0,L|263:164,1,35,0|0,1:3|1:3,1:3:0:0:
176,199,5794,5,4,1:3:0:0:
169,318,6151,1,8,1:3:0:0:
291,227,6329,1,8,1:3:0:0:
234,350,6508,1,0,1:3:0:0:
229,204,6686,1,0,1:3:0:0:
328,337,6865,1,0,1:3:0:0:
354,149,7044,1,0,1:3:0:0:
229,204,7222,5,8,1:3:0:0:
328,337,7401,1,8,1:3:0:0:
311,121,7579,1,8,1:3:0:0:
196,269,7758,1,8,1:3:0:0:
374,205,7937,2,0,L|316:232,2,46.6666666666667,0|0|0,1:3|1:3|1:3,1:3:0:0:
228,185,8294,6,0,L|168:213,1,35,0|0,1:3|1:3,1:3:0:0:
238,288,8473,2,0,L|195:332,1,35,0|0,1:3|1:3,1:3:0:0:
157,236,8651,5,4,1:3:0:0:
203,77,9008,1,0,1:3:0:0:
331,214,9187,1,0,1:3:0:0:
276,66,9365,1,0,1:3:0:0:
267,234,9544,1,0,1:3:0:0:
378,78,9722,1,0,1:3:0:0:
203,77,9901,1,0,1:3:0:0:
313,178,10079,6,0,P|276:126|224:120,1,105,0|0,1:3|1:3,1:3:0:0:
238,117,10437,2,0,P|193:175|138:184,1,105,0|0,1:3|1:3,1:3:0:0:
165,184,10794,2,0,P|112:217|94:273,1,105,0|0,1:3|1:3,1:3:0:0:
142,293,11151,5,0,0:0:0:0:
195,259,11240,1,0,0:0:0:0:
249,225,11329,1,8,0:0:0:0:
304,190,11419,1,8,0:0:0:0:
358,154,11508,1,12,0:0:0:0:
462,191,11865,5,8,1:3:0:0:
311,97,12044,1,8,1:3:0:0:
319,267,12222,1,0,1:3:0:0:
396,250,12579,6,0,P|378:315|328:350,1,105,0|0,1:3|1:3,1:3:0:0:
218,329,12937,5,8,1:3:0:0:
290,200,13115,1,8,1:3:0:0:
283,348,13294,1,8,1:3:0:0:
223,184,13472,1,8,1:3:0:0:
396,250,13651,2,0,L|362:281,2,46.6666666666667,0|0|0,1:3|1:3|1:3,1:3:0:0:
277,288,14008,6,0,L|252:312,1,35,0|0,1:3|1:3,1:3:0:0:
197,207,14187,2,0,L|230:177,1,35,0|0,1:3|1:3,1:3:0:0:
280,125,14365,5,4,1:3:0:0:
411,227,14722,1,8,1:3:0:0:
264,284,14901,1,8,1:3:0:0:
280,125,15079,1,0,1:3:0:0:
304,200,15437,6,0,P|349:156|358:90,1,105,0|0,1:3|1:3,1:3:0:0:
337,50,15794,5,8,1:3:0:0:
215,132,15972,1,8,1:3:0:0:
276,15,16151,1,8,1:3:0:0:
281,174,16329,1,8,1:3:0:0:
350,15,16508,2,0,L|394:40,2,46.6666666666667,0|0|0,1:3|1:3|1:3,1:3:0:0:
208,123,16865,6,0,L|260:158,1,41.9999987182618,0|0,1:3|1:3,1:3:0:0:
459,155,17044,2,0,L|398:168,1,41.9999987182618,0|0,1:3|1:3,1:3:0:0:
290,188,17222,5,4,1:3:0:0:
290,188,17401,5,8,1:3:0:0:
372,270,17579,1,8,1:3:0:0:
333,42,17758,1,8,1:3:0:0:
408,107,17937,1,0,1:3:0:0:
408,107,18115,5,8,1:3:0:0:
251,60,18294,6,0,L|343:39,1,83.9999974365235,0|0,1:3|1:3,1:3:0:0:
249,206,18651,2,8,L|343:182,1,83.9999974365235,8|8,1:3|1:3,1:3:0:0:
450,161,19008,1,8,1:3:0:0:
420,289,19187,1,8,1:3:0:0:
464,221,19365,2,0,P|402:217|349:250,1,125.999996154785,0|0,1:3|1:3,1:3:0:0:
182,297,19722,6,0,L|230:295,1,41.9999987182618,0|0,1:3|1:3,1:3:0:0:
382,220,19901,2,0,L|338:260,1,41.9999987182618,0|0,1:3|1:3,1:3:0:0:
241,318,20079,5,4,1:3:0:0:
296,116,20258,1,0,1:3:0:0:
294,310,20437,6,8,L|330:269,1,47.2500001802444,8|8,1:3|1:3,1:3:0:0:
380,114,20614,2,8,L|380:166,1,47.2500001802444,8|8,1:3|1:3,1:3:0:0:
390,313,20794,5,0,1:3:0:0:
207,227,20972,1,0,1:3:0:0:
407,111,21151,6,8,L|350:112,1,52.5000020027161,8|8,1:3|1:3,1:3:0:0:
207,192,21328,2,8,L|243:152,1,52.5000020027161,8|8,1:3|1:3,1:3:0:0:
344,40,21508,5,0,1:3:0:0:
135,52,21687,1,0,1:3:0:0:
273,195,21865,6,8,L|329:205,1,57.7500005507469,8|8,1:3|1:3,1:3:0:0:
448,160,22042,2,8,L|399:192,1,57.7500005507469,8|8,1:3|1:3,1:3:0:0:
267,272,22221,2,8,L|344:291,1,59.5000011348725,8|8,1:3|1:3,1:3:0:0:
477,238,22399,2,8,L|419:279,1,59.5000011348725,8|8,1:3|1:3,1:3:0:0:
257,356,22579,2,4,L|331:373,1,64.7499997529984,4|4,1:3|1:3,1:3:0:0:
512,310,22756,2,4,L|448:354,1,64.7499997529984,4|4,1:3|1:3,1:3:0:0:
321,215,22935,6,0,B|233:290|233:290|234:223|159:177|159:177|64:212|4:124|4:124|143:37|143:37|236:147|236:147|236:147,1,735.000028038026,0|0,1:3|1:3,1:3:0:0:
259,172,25792,2,0,B|173:97|173:97|122:186|122:186|169:202|169:202|126:273|126:273|198:259|198:259|215:341|311:355|311:355|339:204,1,735.000028038026,0|0,1:3|1:3,1:3:0:0:
117,102,28649,5,8,1:3:0:0:
117,102,28738,1,8,1:3:0:0:
117,102,28827,1,8,1:3:0:0:
206,181,29006,2,0,P|263:160|311:162,1,105.000004005432,0|0,1:3|1:3,1:3:0:0:
205,145,29542,6,0,P|265:144|310:163,1,105.000004005432,0|0,1:3|1:3,1:3:0:0:
403,205,30077,1,8,1:3:0:0:
295,250,30256,1,8,1:3:0:0:
335,94,30434,1,8,1:3:0:0:
372,262,30613,1,8,1:3:0:0:
228,133,30792,1,8,1:3:0:0:
441,124,30970,1,8,1:3:0:0:
305,235,31149,5,4,1:3:0:0:
305,235,31327,5,12,1:3:0:0:
265,159,31506,5,8,1:3:0:0:
265,159,31595,1,8,1:3:0:0:
265,159,31684,1,8,1:3:0:0:
284,255,31863,2,0,P|320:226|354:175,1,105.000004005432,0|0,1:3|1:3,1:3:0:0:
261,226,32399,6,0,P|304:211|354:174,1,105.000004005432,0|0,1:3|1:3,1:3:0:0:
354,69,32935,1,8,1:3:0:0:
351,176,33113,1,8,1:3:0:0:
247,67,33292,1,8,1:3:0:0:
400,131,33470,1,8,1:3:0:0:
236,201,33649,1,8,1:3:0:0:
306,34,33827,1,8,1:3:0:0:
408,210,34006,5,4,1:3:0:0:
408,210,34184,5,12,1:3:0:0:
89,187,34363,5,8,1:3:0:0:
175,111,34541,1,8,1:3:0:0:
162,291,34720,1,8,1:3:0:0:
51,139,34899,1,8,1:3:0:0:
225,152,35077,1,8,1:3:0:0:
60,266,35256,1,12,1:3:0:0:
178,143,35434,6,0,L|154:187,1,35,0|0,1:3|1:3,1:3:0:0:
209,268,35612,2,0,L|226:238,1,35,0|0,1:3|1:3,1:3:0:0:
167,363,35791,5,8,1:3:0:0:
287,251,35969,1,8,1:3:0:0:
114,247,36148,1,8,1:3:0:0:
167,363,36326,1,8,1:3:0:0:
234,176,36505,1,8,1:3:0:0:
114,247,36684,1,12,1:3:0:0:
216,128,36861,6,0,L|236:174,1,41.9999987182618,0|0,1:3|1:3,1:3:0:0:
350,240,37040,2,0,L|334:202,1,41.9999987182618,0|0,1:3|1:3,1:3:0:0:
395,344,37218,5,8,1:3:0:0:
445,201,37397,1,8,1:3:0:0:
303,305,37575,1,8,1:3:0:0:
474,289,37754,1,8,1:3:0:0:
332,184,37933,1,8,1:3:0:0:
303,305,38111,1,12,1:3:0:0:
195,258,38290,6,0,L|249:280,1,47.2500001802444,0|0,1:3|1:3,1:3:0:0:
267,168,38468,2,0,L|311:184,1,47.2500001802444,0|0,1:3|1:3,1:3:0:0:
430,218,38647,5,8,1:3:0:0:
334,96,38825,1,8,1:3:0:0:
330,267,39004,1,8,1:3:0:0:
428,149,39183,1,8,1:3:0:0:
236,174,39361,1,8,1:3:0:0:
430,218,39540,1,12,1:3:0:0:
337,221,39718,6,0,L|297:265,1,52.5000020027161,0|0,1:3|1:3,1:3:0:0:
256,157,39896,2,0,L|215:198,1,52.5000020027161,0|0,1:3|1:3,1:3:0:0:
136,276,40074,5,0,1:3:0:0:
175,168,40253,1,0,1:3:0:0:
234,261,40432,1,0,1:3:0:0:
92,198,40610,1,0,1:3:0:0:
256,157,40789,1,0,1:3:0:0:
154,293,40967,1,0,1:3:0:0:
174,82,41146,1,0,1:3:0:0:
287,298,41324,1,0,1:3:0:0:
324,170,41503,5,8,1:3:0:0:
182,181,41682,1,8,1:3:0:0:
363,228,41860,1,8,1:3:0:0:
189,95,42039,1,8,1:3:0:0:
232,320,42217,1,8,1:3:0:0:
305,66,42396,1,8,1:3:0:0:
232,320,42575,1,8,1:3:0:0:
126,53,42754,1,8,1:3:0:0:
95,170,42933,5,8,1:3:0:0:
96,210,43022,1,8,1:3:0:0:
106,250,43111,1,8,1:3:0:0:
128,287,43200,1,8,1:3:0:0:
156,318,43290,1,8,1:3:0:0:
195,332,43379,1,8,1:3:0:0:
236,338,43468,1,8,1:3:0:0:
275,331,43558,1,8,1:3:0:0:
307,306,43647,1,8,1:3:0:0:
280,272,43736,5,4,1:3:0:0:
249,242,43825,1,4,1:3:0:0:
211,219,43915,1,4,1:3:0:0:
170,205,44004,1,4,1:3:0:0:
127,193,44093,1,4,1:3:0:0:
82,185,44183,1,4,1:3:0:0:
40,179,44272,1,4,1:3:0:0:
73,140,44361,5,12,1:3:0:0:
116,112,44450,1,12,1:3:0:0:
160,83,44540,1,12,1:3:0:0:
207,66,44629,1,12,1:3:0:0:
258,70,44718,1,12,1:3:0:0:
307,82,44808,1,12,1:3:0:0:
353,103,44897,1,12,1:3:0:0:
394,133,44986,1,12,1:3:0:0:
433,160,45075,6,0,P|436:227|404:257,1,105.000004005432,0|0,1:3|1:3,1:3:0:0:
370,270,45343,2,0,P|306:234|261:245,1,105.000004005432,0|0,1:3|1:3,1:3:0:0:
196,252,45611,1,0,1:3:0:0:
144,150,45789,6,0,P|184:102|229:88,1,105,0|0,1:3|1:3,1:3:0:0:
310,130,46146,1,0,1:3:0:0:
154,52,46324,1,0,1:3:0:0:
237,176,46503,1,0,1:3:0:0:
301,53,46682,1,4,1:3:0:0:
125,216,46860,5,8,1:3:0:0:
290,115,47039,1,8,1:3:0:0:
40,131,47217,1,8,1:3:0:0:
238,299,47396,1,8,1:3:0:0:
226,117,47574,1,8,1:3:0:0:
66,305,47753,1,8,1:3:0:0:
111,45,47932,5,4,1:3:0:0:
260,77,48110,1,8,1:3:0:0:
211,74,48199,1,8,1:3:0:0:
161,81,48289,2,8,P|109:103|82:134,1,70,8|8,1:3|1:3,1:3:0:0:
244,111,48646,6,0,P|180:139|193:186,1,105,0|0,1:3|1:3,1:3:0:0:
210,258,49004,1,0,1:3:0:0:
121,132,49182,1,0,1:3:0:0:
262,197,49360,1,0,1:3:0:0:
133,230,49539,1,4,1:3:0:0:
180,44,49717,5,8,1:3:0:0:
18,94,49896,1,8,1:3:0:0:
249,156,50074,1,8,1:3:0:0:
88,23,50253,1,8,1:3:0:0:
123,256,50432,1,8,1:3:0:0:
224,4,50610,1,8,1:3:0:0:
52,126,50789,5,4,1:3:0:0:
240,153,50967,1,8,1:3:0:0:
191,143,51057,1,8,1:3:0:0:
147,119,51146,2,8,P|105:96|81:52,1,70,8|8,1:3|1:3,1:3:0:0:
395,47,51503,6,0,P|355:86|383:112,1,105,0|0,1:3|1:3,1:3:0:0:
485,136,51860,1,0,1:3:0:0:
311,103,52039,1,0,1:3:0:0:
380,32,52217,1,0,1:3:0:0:
322,182,52396,1,4,1:3:0:0:
196,32,52574,5,8,1:3:0:0:
402,145,52753,1,8,1:3:0:0:
137,173,52932,1,8,1:3:0:0:
286,25,53110,1,8,1:3:0:0:
302,296,53289,1,8,1:3:0:0:
148,81,53467,1,8,1:3:0:0:
340,32,53646,5,4,1:3:0:0:
478,141,53824,1,8,1:3:0:0:
445,179,53914,1,8,1:3:0:0:
396,192,54003,2,8,P|342:182|316:150,1,70,8|8,1:3|1:3,1:3:0:0:
170,71,54360,5,0,1:3:0:0:
110,152,54539,1,8,1:3:0:0:
110,152,54628,1,8,1:3:0:0:
184,269,54896,1,4,1:3:0:0:
287,32,55074,5,0,1:3:0:0:
221,163,55253,1,8,1:3:0:0:
221,163,55342,1,8,1:3:0:0:
290,308,55610,1,4,1:3:0:0:
396,27,55789,5,0,1:3:0:0:
314,150,55967,1,8,1:3:0:0:
314,150,56057,1,8,1:3:0:0:
385,331,56324,1,4,1:3:0:0:
103,111,56503,6,4,L|151:123,1,35,4|4,1:3|1:3,1:3:0:0:
221,237,56771,2,4,L|186:245,1,35,4|4,1:3|1:3,1:3:0:0:
377,178,57039,1,12,1:3:0:0:
280,20,57218,6,0,P|325:69|310:127,1,105,0|0,1:3|1:3,1:3:0:0:
227,222,57574,1,0,1:3:0:0:
371,147,57753,1,0,1:3:0:0:
271,266,57932,1,0,1:3:0:0:
300,116,58110,1,4,1:3:0:0:
322,18,58289,5,8,1:3:0:0:
246,236,58467,1,8,1:3:0:0:
184,0,58646,1,8,1:3:0:0:
399,118,58824,1,8,1:3:0:0:
149,219,59003,1,8,1:3:0:0:
344,43,59182,1,8,1:3:0:0:
227,211,59360,5,4,1:3:0:0:
428,253,59539,1,8,1:3:0:0:
381,271,59628,1,8,1:3:0:0:
332,281,59717,2,8,P|267:275|248:263,1,70,8|8,1:3|1:3,1:3:0:0:
111,211,60075,6,0,P|146:232|94:273,1,105,0|0,1:3|1:3,1:3:0:0:
9,291,60432,1,0,1:3:0:0:
172,247,60610,1,0,1:3:0:0:
69,332,60789,1,0,1:3:0:0:
141,194,60967,1,4,1:3:0:0:
296,363,61146,5,8,1:3:0:0:
342,57,61324,1,8,1:3:0:0:
227,267,61503,1,8,1:3:0:0:
440,111,61682,1,8,1:3:0:0:
202,95,61860,1,8,1:3:0:0:
420,269,62039,1,8,1:3:0:0:
189,214,62217,5,4,1:3:0:0:
302,137,62396,1,8,1:3:0:0:
308,187,62485,1,8,1:3:0:0:
306,237,62574,2,8,P|282:287|246:313,1,70,8|8,1:3|1:3,1:3:0:0:
239,88,62932,6,0,P|280:49|336:83,1,105,0|0,1:3|1:3,1:3:0:0:
371,173,63289,1,0,1:3:0:0:
239,88,63467,1,0,1:3:0:0:
292,164,63646,1,0,1:3:0:0:
393,77,63824,1,4,1:3:0:0:
355,308,64003,5,8,1:3:0:0:
245,139,64182,1,8,1:3:0:0:
458,214,64360,1,8,1:3:0:0:
232,315,64539,1,8,1:3:0:0:
340,104,64717,1,8,1:3:0:0:
430,286,64896,1,8,1:3:0:0:
423,109,65074,5,4,1:3:0:0:
251,178,65253,1,8,1:3:0:0:
324,109,65432,2,8,P|366:88|398:89,1,70,8|8,1:3|1:3,1:3:0:0:
192,160,65789,5,8,1:3:0:0:
320,128,66057,1,8,1:3:0:0:
288,256,66324,1,8,1:3:0:0:
191,92,66503,5,8,1:3:0:0:
381,146,66771,1,8,1:3:0:0:
243,288,67038,1,8,1:3:0:0:
246,13,67217,5,8,1:3:0:0:
452,227,67485,1,8,1:3:0:0:
167,308,67752,1,8,1:3:0:0:
193,157,67932,5,4,1:3:0:0:
383,146,68199,1,4,1:3:0:0:
167,308,68467,1,4,1:3:0:0:
339,61,68646,5,12,1:3:0:0:
