osu file format v14

[General]
AudioFilename: audio.mp3
AudioLeadIn: 0
PreviewTime: -1
Countdown: 0
SampleSet: Soft
StackLeniency: 0.7
Mode: 0
LetterboxInBreaks: 0
WidescreenStoryboard: 1

[Editor]
Bookmarks: 12140,24140,36140,48140,57140,58640,60140,84140
DistanceSpacing: 1
BeatDivisor: 4
GridSize: 4
TimelineZoom: 1

[Metadata]
Title:No Doubt
TitleUnicode:No Doubt
Artist:Rogers & Dean
ArtistUnicode:Rogers & Dean
Creator:kKrAsAv4iKk
Version:Hard
Source:
Tags:electronic
BeatmapID:1758494
BeatmapSetID:840050

[Difficulty]
HPDrainRate:6
CircleSize:4
OverallDifficulty:7
ApproachRate:8
SliderMultiplier:1
SliderTickRate:1

[Events]
//Background and Video events
0,0,"sjwhNZ.jpg",0,0
//Break Periods
//Storyboard Layer 0 (Background)
//Storyboard Layer 1 (Fail)
//Storyboard Layer 2 (Pass)
//Storyboard Layer 3 (Foreground)
//Storyboard Sound Samples

[TimingPoints]
140.171001699396,375,4,2,1,100,1,0
24140,-166.666666666667,4,2,1,100,0,0
36140,-100,4,2,1,100,0,0
60140,-50,4,2,1,100,0,1
84140,-100,4,2,1,100,0,0

[Colours]
Combo1 : 26,116,242
Combo2 : 164,32,240
Combo3 : 37,185,239
Combo4 : 23,209,116
Combo5 : 226,45,124

[HitObjects]
121,282,140,6,0,L|110:338,7,50
112,153,1640,2,0,L|123:213,7,50
126,25,3140,2,0,L|113:84,7,50
269,37,4640,2,0,L|282:92,2,50
217,204,5202,2,0,L|259:172,2,50
388,183,5765,2,0,L|344:160,1,50
204,105,6140,6,0,L|138:117,7,50
51,232,7640,2,0,L|99:242,7,50
258,337,9140,2,0,L|208:343,7,50
131,231,10640,2,0,L|176:205,1,50
262,158,11015,1,0,0:0:0:0:
348,108,11202,2,0,P|387:164|382:254,1,150
150,325,12140,5,0,0:0:0:0:
116,310,12327,2,0,L|100:262,1,50
338,318,13077,2,0,L|387:297,1,50
336,55,13640,1,0,0:0:0:0:
298,58,13827,2,0,L|287:111,1,50
248,299,14577,2,0,L|197:319,1,50
54,120,15140,1,0,0:0:0:0:
78,149,15327,2,0,L|125:127,1,50
261,235,16077,2,0,L|313:246,1,50
464,90,16640,1,0,0:0:0:0:
437,116,16827,2,0,L|391:90,1,50
173,93,17577,2,0,L|145:148,1,50
59,327,18140,5,0,0:0:0:0:
83,283,18327,2,0,L|146:302,1,50
308,320,19077,2,0,L|334:277,1,50
442,85,19640,1,0,0:0:0:0:
415,127,19827,2,0,L|350:108,1,50
125,52,20577,2,0,L|140:104,1,50
212,318,21140,1,0,0:0:0:0:
197,271,21327,2,0,L|246:234,1,50
466,264,22077,2,0,L|417:218,1,50
264,53,22640,1,0,0:0:0:0:
292,94,22827,2,0,L|256:143,1,50
141,309,23577,2,0,L|202:290,1,50
399,270,24140,6,0,L|285:128,1,179.999994506836
222,231,25640,2,0,L|408:272,1,179.999994506836
327,172,27140,2,0,L|217:236,1,119.999996337891
124,300,28265,2,0,L|99:240,1,59.9999981689454
180,216,28827,2,0,L|206:159,1,59.9999981689454
129,131,29390,2,0,L|104:71,1,59.9999981689454
208,47,30140,6,0,L|377:114,1,179.999994506836
296,203,31640,2,0,L|206:44,1,179.999994506836
321,85,33140,2,0,L|296:205,1,119.999996337891
269,319,34265,2,0,L|224:275,1,59.9999981689454
135,299,34827,2,0,L|105:240,1,59.9999981689454
22,243,35390,2,0,L|12:178,1,59.9999981689454
84,86,36140,6,0,L|89:144,1,50
186,115,36515,2,0,L|221:162,1,50
132,210,36890,2,0,L|142:267,1,50
236,230,37265,2,0,L|296:253,1,50
298,346,37640,2,0,L|361:324,1,50
360,230,38015,2,0,L|404:199,1,50
340,122,38390,2,0,L|365:61,1,50
462,114,38765,2,0,L|464:185,1,50
455,302,39140,6,0,L|395:315,1,50
379,215,39515,2,0,L|329:197,1,50
283,285,39890,2,0,L|226:300,2,50
379,260,40452,1,0,0:0:0:0:
466,211,40640,2,0,L|426:171,1,50
386,85,41015,2,0,L|324:96,1,50
242,61,41390,2,0,L|216:109,1,50
147,176,41765,2,0,L|174:222,1,50
188,323,42140,6,0,L|232:299,1,50
332,297,42515,2,0,L|382:305,2,50
231,292,43077,1,0,0:0:0:0:
131,291,43265,2,0,L|146:224,1,50
132,142,43640,2,0,L|187:137,1,50
276,104,44015,2,0,L|311:146,1,50
392,195,44390,2,0,L|372:258,1,50
300,307,44765,2,0,L|285:255,1,50
265,160,45140,6,0,L|214:126,1,50
192,227,45515,2,0,L|142:252,1,50
85,170,45890,2,0,L|47:139,2,50
165,233,46452,1,0,0:0:0:0:
242,291,46640,2,0,L|304:273,1,50
394,294,47015,2,0,L|413:231,1,50
479,175,47390,2,0,L|441:133,1,50
407,45,47765,2,0,L|349:52,1,50
232,60,48140,5,0,0:0:0:0:
76,185,48515,1,0,0:0:0:0:
272,147,48890,1,0,0:0:0:0:
123,281,49265,1,0,0:0:0:0:
320,310,49640,5,0,0:0:0:0:
425,139,50015,1,0,0:0:0:0:
236,206,50390,1,0,0:0:0:0:
427,264,50765,1,0,0:0:0:0:
328,90,51140,5,0,0:0:0:0:
128,90,51515,1,0,0:0:0:0:
79,284,51890,1,0,0:0:0:0:
269,345,52265,1,0,0:0:0:0:
350,162,52640,5,0,0:0:0:0:
462,327,53015,1,0,0:0:0:0:
273,260,53390,1,0,0:0:0:0:
462,194,53765,1,0,0:0:0:0:
330,344,54140,5,0,0:0:0:0:
339,144,54515,1,0,0:0:0:0:
205,293,54890,1,0,0:0:0:0:
212,93,55265,1,0,0:0:0:0:
62,246,55640,5,0,0:0:0:0:
127,57,56015,1,0,0:0:0:0:
326,61,56390,1,0,0:0:0:0:
423,235,56765,1,0,0:0:0:0:
241,150,57140,5,0,0:0:0:0:
210,218,57327,1,0,0:0:0:0:
231,290,57515,1,0,0:0:0:0:
294,328,57702,1,0,0:0:0:0:
369,328,57890,1,0,0:0:0:0:
427,281,58077,1,0,0:0:0:0:
446,208,58265,1,0,0:0:0:0:
417,138,58452,1,0,0:0:0:0:
345,115,58640,1,0,0:0:0:0:
104,117,60140,5,0,0:0:0:0:
118,228,60327,1,0,0:0:0:0:
202,302,60515,1,0,0:0:0:0:
313,316,60702,1,0,0:0:0:0:
417,272,60890,2,0,P|392:231|344:209,1,100
46,225,61452,5,0,0:0:0:0:
120,292,61640,1,0,0:0:0:0:
218,304,61827,1,0,0:0:0:0:
309,263,62015,1,0,0:0:0:0:
360,177,62202,1,0,0:0:0:0:
343,78,62390,2,0,P|285:85|248:109,1,100
172,45,62765,2,0,P|140:93|133:137,1,100
134,234,63140,5,0,0:0:0:0:
192,314,63327,1,0,0:0:0:0:
290,330,63515,1,0,0:0:0:0:
380,287,63702,1,0,0:0:0:0:
422,196,63890,2,0,P|426:144|417:97,2,100
380,287,64452,1,0,0:0:0:0:
279,287,64640,6,0,P|232:296|187:323,2,100
380,287,65202,1,0,0:0:0:0:
459,225,65390,2,0,P|411:191|368:183,1,100
357,84,65765,2,0,P|300:97|266:125,1,100
212,206,66140,5,0,0:0:0:0:
252,297,66327,1,0,0:0:0:0:
351,308,66515,1,0,0:0:0:0:
426,243,66702,1,0,0:0:0:0:
421,142,66890,2,0,P|384:104|326:92,1,100
143,130,67452,5,0,0:0:0:0:
229,79,67640,1,0,0:0:0:0:
328,75,67827,1,0,0:0:0:0:
405,138,68015,1,0,0:0:0:0:
437,232,68202,1,0,0:0:0:0:
411,328,68390,2,0,L|305:283,1,100
231,337,68765,2,0,L|134:292,1,100
51,248,69140,5,0,0:0:0:0:
80,152,69327,1,0,0:0:0:0:
179,138,69515,1,0,0:0:0:0:
257,200,69702,1,0,0:0:0:0:
252,300,69890,2,0,L|345:256,1,100
418,322,70265,2,0,L|511:278,1,100
477,183,70640,6,0,L|379:228,1,100
304,166,71015,2,0,L|207:202,1,100
112,178,71390,2,0,L|151:281,1,100
128,370,71765,2,0,L|226:331,1,100
313,293,72140,5,0,0:0:0:0:
378,217,72327,1,0,0:0:0:0:
370,117,72515,1,0,0:0:0:0:
296,50,72702,1,0,0:0:0:0:
195,55,72890,2,0,P|211:107|254:143,1,100
436,190,73452,5,0,0:0:0:0:
366,262,73640,1,0,0:0:0:0:
270,290,73827,1,0,0:0:0:0:
172,264,74015,1,0,0:0:0:0:
103,191,74202,1,0,0:0:0:0:
91,91,74390,2,0,B|143:80|143:80|189:95,1,100
283,125,74765,2,0,B|336:142|336:142|382:126,1,100
466,80,75140,5,0,0:0:0:0:
490,176,75327,1,0,0:0:0:0:
454,269,75515,1,0,0:0:0:0:
364,313,75702,1,0,0:0:0:0:
264,298,75890,2,0,B|221:265|221:265|205:215,2,100
364,313,76452,1,0,0:0:0:0:
405,221,76640,2,0,B|428:175|428:175|475:154,2,100
364,313,77202,1,0,0:0:0:0:
297,238,77390,2,0,B|262:202|262:202|209:193,1,100
145,268,77765,2,0,B|96:255|96:255|49:271,1,100
96,359,78140,5,0,0:0:0:0:
194,340,78327,1,0,0:0:0:0:
270,274,78515,1,0,0:0:0:0:
308,181,78702,1,0,0:0:0:0:
292,81,78890,2,0,B|240:96|240:96|206:136,1,100
161,216,79265,5,0,0:0:0:0:
229,288,79452,1,0,0:0:0:0:
327,270,79640,1,0,0:0:0:0:
365,177,79827,1,0,0:0:0:0:
328,83,80015,2,0,B|279:62|279:62|232:68,1,100
134,87,80390,1,0,0:0:0:0:
68,275,80765,5,0,0:0:0:0:
148,216,80952,1,0,0:0:0:0:
247,208,81140,1,0,0:0:0:0:
340,242,81327,1,0,0:0:0:0:
400,322,81515,2,0,B|441:287|441:287|459:236,1,100
361,210,81890,2,0,B|379:158|379:158|419:126,1,100
499,77,82265,2,0,B|459:41|459:41|405:40,1,100
313,54,82640,1,0,0:0:0:0:
436,211,83015,1,0,0:0:0:0:
204,146,83390,1,0,0:0:0:0:
385,332,83765,1,0,0:0:0:0:
74,236,84140,5,0,0:0:0:0:
