osu file format v14

[General]
AudioFilename: audio.mp3
AudioLeadIn: 0
PreviewTime: 14416
Countdown: 0
SampleSet: Soft
StackLeniency: 0.7
Mode: 0
LetterboxInBreaks: 0
WidescreenStoryboard: 1

[Editor]
DistanceSpacing: 0.7
BeatDivisor: 8
GridSize: 4
TimelineZoom: 1

[Metadata]
Title:Pas de panique a bord (TV Size)
TitleUnicode:Pas de panique à bord (TV Size)
Artist:Roddy Julienne
ArtistUnicode:Roddy Julienne
Creator:Xahlt
Version:Insane
Source:Ratz
Tags:rapido razmo François Francois Marc du Pontavice Reczulski à fond les bananes! france3 fr3 fr france 3 gulli french eric éric et & ramzy xilam monsieur z francais français rap pop opening op générique generique anime Kuon- shunao shogunmoon
BeatmapID:3349633
BeatmapSetID:1641157

[Difficulty]
HPDrainRate:5
CircleSize:4
OverallDifficulty:8.2
ApproachRate:8.8
SliderMultiplier:3.2
SliderTickRate:1

[Events]
//Background and Video events
0,0,"Ratz.jpg",0,0
Video,-840,"video.avi"
//Break Periods
//Storyboard Layer 0 (Background)
//Storyboard Layer 1 (Fail)
//Storyboard Layer 2 (Pass)
//Storyboard Layer 3 (Foreground)
//Storyboard Layer 4 (Overlay)
//Storyboard Sound Samples

[TimingPoints]
-3745,588.235294117649,4,2,1,60,1,0
5079,-125,4,2,1,60,0,0
5299,-125,4,2,1,5,0,0
5373,-125,4,2,1,60,0,0
6476,-125,4,2,1,5,0,0
6549,-125,4,2,1,60,0,0
7652,-125,4,2,1,5,0,0
7726,-125,4,2,1,60,0,0
8006,-125,4,2,1,60,0,0
9417,-125,4,2,1,5,0,0
9490,-125,4,2,1,60,0,0
10299,-125,4,2,1,5,0,0
10373,-125,4,2,1,60,0,0
15079,-100,4,2,1,70,0,0
17064,-100,4,2,1,5,0,0
17137,-100,4,2,1,70,0,0
18387,-100,4,2,1,5,0,0
18461,-100,4,2,1,70,0,0
21770,-100,4,2,1,5,0,0
21843,-100,4,2,1,70,0,0
23314,-166.666666666667,4,2,1,70,0,0
24417,-166.666666666667,4,2,1,5,0,0
24490,-111.111111111111,4,2,1,65,0,0
27652,-111.111111111111,4,2,1,5,0,0
27726,-111.111111111111,4,2,1,65,0,0
28387,-111.111111111111,4,2,1,5,0,0
28461,-111.111111111111,4,2,1,70,0,0
31402,-55.5555555555556,4,2,1,65,0,0
31623,-55.5555555555556,4,2,1,5,0,0
31696,-250,4,2,1,65,0,0
31990,-250,4,2,1,5,0,0
32137,-111.111111111111,4,2,1,65,0,0
32358,-111.111111111111,4,2,1,5,0,0
32431,-111.111111111111,4,2,1,65,0,0
33313,-90.9090909090908,4,2,1,65,0,0
33902,-90.9090909090908,4,2,1,75,0,1
37652,-90.9090909090908,4,2,1,5,0,1
37726,-90.9090909090908,4,2,1,75,0,1
40960,-142.857142857143,4,2,1,65,0,0
43019,-1000,4,2,1,65,0,0

[Colours]
Combo1 : 19,120,196
Combo2 : 255,179,64
Combo3 : 180,21,3

[HitObjects]
10,116,5078,6,0,P|67:103|118:132,1,120,2|0,0:0|0:0,0:0:0:0:
127,143,5372,2,0,P|121:174|117:206,1,64,2|0,0:0|0:0,0:0:0:0:
243,130,5666,2,0,P|232:83|211:-1,1,128,2|0,3:2|0:0,0:0:0:0:
482,131,6255,6,0,P|434:143|368:159,1,96,10|0,0:0|0:0,0:0:0:0:
375,158,6549,2,0,P|369:189|382:218,1,64,2|0,0:0|0:0,0:0:0:0:
473,367,6843,2,0,P|440:323|359:339,1,128,2|0,3:2|0:0,0:0:0:0:
47,371,7431,6,0,P|64:333|84:257,1,96,10|0,0:0|0:0,0:0:0:0:
71,263,7726,2,0,P|65:229|56:171,1,64,2|0,3:2|0:0,0:0:0:0:
8,109,8020,5,2,3:2:0:0:
125,60,8314,1,2,0:0:0:0:
245,201,8608,1,10,0:0:0:0:
259,191,8755,1,2,0:0:0:0:
300,70,9049,2,0,B|351:88|400:63|400:63|371:91|377:131,1,160,2|0,3:2|0:0,0:0:0:0:
378,124,9490,6,0,P|411:130|460:139,1,64,2|0,0:0|0:0,0:0:0:0:
512,228,9784,2,0,P|479:234|430:243,1,64,10|0,0:0|0:0,0:0:0:0:
311,320,10079,2,0,P|333:279|321:234,1,96,2|0,3:2|0:0,0:0:0:0:
308,223,10373,6,0,B|212:176|293:123|192:59,1,192,2|0,3:2|0:0,0:0:0:0:
93,14,10961,2,0,P|106:44|115:82,1,64,10|0,0:0|0:0,0:0:0:0:
46,137,11255,1,2,0:0:0:0:
46,137,11402,1,0,3:2:0:0:
109,192,11549,2,0,P|140:199|170:210,1,64,0|2,3:2|0:0,0:0:0:0:
61,267,11843,2,0,P|29:274|0:285,1,64,2|2,3:2|0:0,0:0:0:0:
128,331,12137,6,0,P|173:357|265:330,1,128,10|2,0:0|3:2,0:0:0:0:
311,288,12579,1,2,3:2:0:0:
409,368,12726,5,2,3:2:0:0:
239,139,13314,5,0,3:2:0:0:
510,22,13902,5,0,3:2:0:0:
66,0,14490,5,2,0:0:0:0:
74,13,14784,1,2,0:0:0:0:
4,97,15079,6,0,P|83:106|161:121,1,160,6|0,3:2|0:0,0:0:0:0:
255,77,15520,1,2,0:0:0:0:
321,159,15667,2,0,P|336:195|326:233,1,80,10|0,0:0|0:0,0:0:0:0:
205,279,15961,2,0,P|199:240|219:205,1,80,2|0,3:2|0:0,0:0:0:0:
319,355,16255,1,2,3:2:0:0:
2,384,16549,6,0,P|9:345|18:291,1,80,2|0,3:2|0:0,0:0:0:0:
86,236,16843,2,0,P|46:197|65:122,1,120,10|0,0:0|0:0,0:0:0:0:
63,124,17137,2,0,P|102:130|141:136,1,80,2|0,3:2|0:0,0:0:0:0:
210,57,17431,5,2,3:2:0:0:
225,66,17579,2,0,P|264:59|303:53,1,80,2|0,0:0|0:0,0:0:0:0:
413,0,17873,2,0,P|393:33|406:69,1,80,2|8,0:0|0:0,0:0:0:0:
512,189,18167,2,0,P|493:155|455:148,1,80,2|0,0:0|0:0,0:0:0:0:
330,298,18461,2,0,P|345:219|355:140,1,160,2|0,3:0|0:0,0:0:0:0:
451,319,18902,1,0,3:2:0:0:
184,259,19196,5,10,0:0:0:0:
193,246,19490,1,2,3:2:0:0:
278,140,19784,6,0,P|198:148|118:155,1,160,6|0,3:2|3:2,0:0:0:0:
9,114,20226,2,0,P|31:146|38:185,1,80,2|8,0:0|0:0,0:0:0:0:
0,274,20520,1,2,0:0:0:0:
102,327,20667,2,0,P|140:336|206:355,1,80,2|0,3:2|0:0,0:0:0:0:
328,380,20961,6,0,B|350:352|376:340|376:340|354:299|328:216,1,160,0|0,3:2|3:2,0:0:0:0:
270,186,21402,1,0,0:0:0:0:
352,68,21549,2,0,P|407:57|441:103,1,120,8|0,0:0|0:0,0:0:0:0:
435,115,21843,5,2,3:2:0:0:
498,184,21990,1,2,3:2:0:0:
442,265,22137,1,2,3:2:0:0:
427,259,22431,5,2,3:2:0:0:
332,237,22579,1,2,3:2:0:0:
278,316,22726,1,8,0:0:0:0:
266,307,23020,5,2,3:2:0:0:
180,262,23167,1,2,3:2:0:0:
120,366,23314,6,0,B|205:281|129:191|56:255|-7:101|128:65,1,359.999989013672,2|0,3:2|0:0,0:0:0:0:
122,65,24490,6,0,P|157:73|191:82,1,71.9999978027344,6|0,3:2|0:0,0:0:0:0:
267,185,24784,2,0,P|302:176|336:167,1,71.9999978027344,2|0,3:2|0:0,0:0:0:0:
90,201,25079,6,0,P|125:192|159:183,1,71.9999978027344,10|0,0:0|0:0,0:0:0:0:
295,54,25373,2,0,P|330:62|364:71,1,71.9999978027344,2|0,0:0|3:2,0:0:0:0:
485,18,25667,1,2,3:2:0:0:
510,161,25814,6,0,P|501:197|489:258,1,71.9999978027344,2|0,0:0|3:2,0:0:0:0:
415,290,26108,1,2,0:0:0:0:
507,378,26255,1,8,0:0:0:0:
501,364,26549,5,0,3:2:0:0:
415,308,26696,1,2,3:2:0:0:
327,374,26843,2,0,P|318:338|304:284,1,71.9999978027344,2|0,3:2|0:0,0:0:0:0:
202,232,27137,2,0,P|193:266|184:301,1,71.9999978027344,2|0,3:2|0:0,0:0:0:0:
348,172,27431,6,0,P|305:172|279:109,1,107.999996704102,10|0,0:0|0:0,0:0:0:0:
283,105,27726,2,0,P|274:69|260:15,1,71.9999978027344,2|0,3:2|3:2,0:0:0:0:
161,9,28020,1,2,3:2:0:0:
76,88,28167,6,0,P|131:101|188:124,1,107.999996704102,10|0,0:0|0:0,0:0:0:0:
191,128,28461,1,10,0:0:0:0:
98,197,28608,1,2,3:2:0:0:
107,191,28902,5,0,3:2:0:0:
163,256,29049,1,0,3:2:0:0:
88,327,29196,6,0,P|52:334|17:342,1,71.9999978027344,6|0,3:2|0:0,0:0:0:0:
163,256,29490,2,0,P|198:263|233:271,1,71.9999978027344,2|0,3:2|0:0,0:0:0:0:
344,358,29784,6,0,P|332:328|344:288,1,71.9999978027344,10|0,0:0|0:0,0:0:0:0:
439,150,30079,2,0,P|451:180|439:220,1,71.9999978027344,2|0,0:0|3:2,0:0:0:0:
321,170,30373,1,2,3:2:0:0:
474,57,30520,6,0,P|438:51|403:46,1,71.9999978027344,2|0,0:0|3:2,0:0:0:0:
313,1,30814,1,2,0:0:0:0:
248,108,30961,1,8,0:0:0:0:
121,18,31108,6,0,L|110:54,3,35.9999989013672,2|2|2|2,0:0|0:0|0:0|0:0,0:0:0:0:
49,128,31402,2,0,B|43:114|24:101|24:101|122:133|122:133|134:175|81:219,1,215.999993408203,2|0,3:2|0:0,0:0:0:0:
89,211,31696,2,0,P|55:214|20:218,1,64,2|0,0:0|0:0,0:0:0:0:
155,282,32137,6,0,P|208:289|261:298,1,107.999996704102,10|0,0:0|0:0,0:0:0:0:
272,291,32431,2,0,P|306:286|364:278,1,71.9999978027344,2|0,3:2|0:0,0:0:0:0:
427,214,32726,1,2,3:2:0:0:
504,311,32873,1,2,0:0:0:0:
401,357,33020,5,2,3:2:0:0:
401,357,33167,1,2,3:2:0:0:
447,127,33313,5,10,0:0:0:0:
512,230,33460,1,8,0:0:0:0:
302,153,33607,5,2,3:2:0:0:
256,291,33755,1,8,0:0:0:0:
26,30,33902,6,0,B|112:82|45:135|159:184,1,176.000005371094,6|0,3:2|3:2,0:0:0:0:
217,227,34343,1,0,0:0:0:0:
322,179,34490,2,0,P|331:140|303:89,1,88.000002685547,10|0,0:0|0:0,0:0:0:0:
217,227,34784,2,0,P|205:265|231:317,1,88.000002685547,2|0,0:0|0:0,0:0:0:0:
402,384,35079,2,0,P|415:306|435:194,1,176.000005371094,2|0,3:2|0:0,0:0:0:0:
506,3,35667,6,0,P|464:7|401:15,1,88.000002685547,10|0,0:0|0:0,0:0:0:0:
312,97,35961,2,0,P|270:93|207:85,1,88.000002685547,2|0,3:2|0:0,0:0:0:0:
31,42,36255,6,0,P|57:76|61:119,1,88.000002685547,2|0,3:2|0:0,0:0:0:0:
167,265,36549,2,0,P|171:221|197:187,1,88.000002685547,2|0,0:0|0:0,0:0:0:0:
8,259,36843,5,10,0:0:0:0:
86,377,36990,2,0,P|131:375|179:368,1,88.000002685547,2|0,0:0|0:0,0:0:0:0:
336,275,37284,6,0,P|297:294|250:153,1,220.000006713867,2|0,3:2|0:0,0:0:0:0:
238,171,37726,1,2,3:2:0:0:
510,3,38020,6,0,P|500:45|491:89,1,88.000002685547,10|0,0:0|0:0,0:0:0:0:
389,164,38314,2,0,P|380:120|370:77,1,88.000002685547,2|0,3:2|0:0,0:0:0:0:
508,215,38608,6,0,B|438:122|272:209|389:333|201:332,1,352.000010742188,6|10,3:2|0:0,0:0:0:0:
231,330,39490,1,10,0:0:0:0:
153,288,39637,1,8,0:0:0:0:
52,371,39784,6,0,P|45:328|33:273,1,88.000002685547,0|0,3:2|0:0,0:0:0:0:
6,138,40079,2,0,P|46:153|100:170,1,88.000002685547,8|0,0:0|0:0,0:0:0:0:
220,231,40373,2,0,P|186:258|144:296,1,88.000002685547,0|0,3:2|0:0,0:0:0:0:
203,101,40667,5,8,0:0:0:0:
347,213,40814,1,8,0:0:0:0:
472,30,40960,5,2,3:2:0:0:
86,45,41255,5,2,0:0:0:0:
457,315,41549,5,2,0:0:0:0:
315,31,41843,5,2,0:0:0:0:
34,319,42137,5,2,0:0:0:0:
221,73,42431,5,2,0:0:0:0:
351,372,42726,5,2,0:0:0:0:
501,103,43019,6,0,P|472:113|455:120,1,48,2|2,0:0|0:0,0:0:0:0:
