osu file format v14

[General]
AudioFilename: audio.mp3
AudioLeadIn: 0
PreviewTime: 65332
Countdown: 1
SampleSet: Normal
StackLeniency: 0.7
Mode: 0
LetterboxInBreaks: 0
WidescreenStoryboard: 0

[Editor]
Bookmarks: 71629
DistanceSpacing: 0.3
BeatDivisor: 4
GridSize: 8
TimelineZoom: 2.1

[Metadata]
Title:Young Turks
TitleUnicode:Young Turks
Artist:Rod Stewart
ArtistUnicode:Rod Stewart
Creator:Spare
Version:nostalgia
Source:
Tags:GTA
BeatmapID:1841021
BeatmapSetID:880390

[Difficulty]
HPDrainRate:5
CircleSize:4.3
OverallDifficulty:8
ApproachRate:8
SliderMultiplier:1.9
SliderTickRate:1

[Events]
//Background and Video events
0,0,"original.jpg",0,0
//Break Periods
//Storyboard Layer 0 (Background)
//Storyboard Layer 1 (Fail)
//Storyboard Layer 2 (Pass)
//Storyboard Layer 3 (Foreground)
//Storyboard Sound Samples

[TimingPoints]
518,370.37037037037,4,1,0,40,1,0
2740,-166.666666666667,4,1,0,40,0,0
4592,-100,4,1,0,40,0,0
5703,-100,4,1,0,30,0,0
6258,-100,4,1,0,40,0,0
8666,-153.846153846153,4,1,0,40,0,0
10517,-100,4,1,0,40,0,0
12369,-100,4,1,0,40,0,0
23851,-153.846153846153,4,1,0,40,0,0
24592,-100,4,1,0,40,0,0
65703,-100,4,1,0,50,0,1
77184,-100,4,1,0,40,0,0
116073,-100,4,1,0,50,0,1
127925,-100,4,1,0,40,0,0

[HitObjects]
53,127,518,6,0,P|101:130|134:97,1,95
206,39,888,1,0,0:0:0:0:
206,39,1073,1,0,0:0:0:0:
310,203,1258,2,0,P|322:149|311:102,1,95
297,26,1629,1,0,0:0:0:0:
297,26,1814,1,0,0:0:0:0:
399,265,1999,6,0,P|426:223|423:177,1,95
473,100,2369,1,0,0:0:0:0:
473,100,2555,1,0,0:0:0:0:
447,284,2740,2,0,P|409:255|387:184,1,113.999996520996
336,113,3295,1,0,0:0:0:0:
303,205,3480,6,0,P|287:254|208:264,1,113.999996520996
186,181,4036,1,0,0:0:0:0:
130,261,4221,1,0,0:0:0:0:
130,261,4406,1,0,0:0:0:0:
43,207,4592,2,0,P|52:162|36:103,1,95
116,37,4962,5,0,0:0:0:0:
135,133,5147,1,0,0:0:0:0:
199,223,5332,2,0,P|242:185|240:132,1,95
326,216,5703,2,0,B|383:219|383:219|419:180,1,95
371,35,6073,2,0,P|409:61|406:115,1,95
347,202,6443,5,0,0:0:0:0:
255,242,6629,1,0,0:0:0:0:
279,121,6814,2,0,P|242:157|191:152,1,95
101,81,7184,1,0,0:0:0:0:
101,81,7369,1,0,0:0:0:0:
102,205,7555,2,0,P|139:232|189:209,1,95
274,317,7925,5,0,0:0:0:0:
384,262,8110,1,0,0:0:0:0:
296,170,8295,2,0,P|284:208|316:257,1,95
451,341,8666,6,0,P|465:291|436:216,1,123.499994346619
340,164,9221,1,0,0:0:0:0:
221,252,9406,6,0,P|246:307|297:339,1,123.499994346619
372,264,9962,1,0,0:0:0:0:
416,172,10147,1,0,0:0:0:0:
353,88,10332,1,0,0:0:0:0:
256,45,10517,2,0,P|266:92|311:121,1,95
369,8,10888,1,0,0:0:0:0:
369,8,11073,1,0,0:0:0:0:
449,55,11258,6,0,P|447:114|390:140,1,95
301,98,11629,1,0,0:0:0:0:
363,215,11814,1,0,0:0:0:0:
242,158,11999,2,0,B|226:200|226:200|156:225,1,95
68,69,12369,6,0,P|111:106|155:102,1,95
253,30,12740,1,0,0:0:0:0:
303,176,12925,1,0,0:0:0:0:
398,55,13110,1,0,0:0:0:0:
398,55,13295,1,0,0:0:0:0:
246,28,13480,2,0,P|252:79|315:105,1,95
411,147,13851,5,0,0:0:0:0:
440,263,14036,1,0,0:0:0:0:
348,347,14221,2,0,P|310:309|308:248,1,95
122,127,14592,5,0,0:0:0:0:
135,286,14777,1,0,0:0:0:0:
242,156,14962,1,0,0:0:0:0:
82,199,15147,1,0,0:0:0:0:
135,286,15332,6,0,B|192:280|192:280|223:239,1,95
125,180,15703,1,0,0:0:0:0:
125,180,15888,1,0,0:0:0:0:
225,298,16073,2,0,P|240:248|222:191,1,95
125,79,16443,1,0,0:0:0:0:
226,39,16629,5,0,0:0:0:0:
271,124,16814,5,0,0:0:0:0:
303,24,16999,1,0,0:0:0:0:
400,72,17184,2,0,P|395:118|336:141,1,95
256,87,17555,1,0,0:0:0:0:
274,184,17740,1,0,0:0:0:0:
371,224,17925,1,0,0:0:0:0:
394,324,18110,1,0,0:0:0:0:
394,324,18295,6,0,P|338:303|318:235,1,95
241,167,18666,1,0,0:0:0:0:
208,288,18851,1,0,0:0:0:0:
151,175,19036,1,0,0:0:0:0:
107,299,19221,1,0,0:0:0:0:
0,247,19406,2,0,P|43:216|43:169,1,95
115,68,19777,5,0,0:0:0:0:
231,12,19962,1,0,0:0:0:0:
202,140,20147,2,0,P|219:180|273:208,1,95
338,110,20517,1,0,0:0:0:0:
366,243,20703,1,0,0:0:0:0:
448,337,20888,2,0,P|463:281|447:227,1,95
340,175,21258,6,0,P|313:197|296:256,1,95
390,340,21629,1,0,0:0:0:0:
487,254,21814,1,0,0:0:0:0:
462,120,21999,2,0,B|435:155|435:155|394:189,1,95
393,0,22369,1,0,0:0:0:0:
329,114,22555,1,0,0:0:0:0:
197,50,22740,6,0,B|201:89|201:89|248:124,1,95
329,208,23110,1,0,0:0:0:0:
193,217,23295,1,0,0:0:0:0:
230,346,23480,2,0,B|273:320|273:320|295:265,1,95
445,209,23851,6,0,B|478:172|478:172|462:95,1,123.499994346619
353,34,24406,1,0,0:0:0:0:
260,131,24592,1,0,0:0:0:0:
190,26,24777,1,0,0:0:0:0:
261,250,24962,2,0,P|206:239|175:197,1,95
133,83,25332,1,0,0:0:0:0:
64,152,25517,1,0,0:0:0:0:
86,333,25703,6,0,P|92:272|81:229,1,95
0,144,26073,1,0,0:0:0:0:
48,52,26258,1,0,0:0:0:0:
138,142,26443,2,0,P|199:138|219:94,1,95
310,36,26814,1,0,0:0:0:0:
178,51,26999,1,0,0:0:0:0:
217,187,27184,6,0,P|260:205|319:197,1,95
391,72,27555,1,0,0:0:0:0:
449,183,27740,1,0,0:0:0:0:
354,276,27925,1,0,0:0:0:0:
354,276,28110,1,0,0:0:0:0:
257,367,28295,2,0,P|237:321|230:275,1,95
57,196,28666,6,0,P|75:149|102:111,1,95
229,127,29036,2,0,P|275:107|321:100,1,95
380,209,29406,2,0,P|426:227|464:254,1,95
337,283,29777,2,0,P|357:329|364:374,1,95
244,306,30147,5,0,0:0:0:0:
181,201,30332,1,0,0:0:0:0:
104,301,30517,2,0,P|71:266|65:198,1,95
29,102,30888,1,0,0:0:0:0:
29,102,31073,1,0,0:0:0:0:
147,131,31258,2,0,P|191:101|202:55,1,95
315,10,31629,5,0,0:0:0:0:
348,108,31814,1,0,0:0:0:0:
235,166,31999,2,0,P|275:206|333:205,1,95
429,262,32369,1,0,0:0:0:0:
429,262,32555,1,0,0:0:0:0:
316,334,32740,2,0,P|270:321|236:270,1,95
141,160,33110,5,0,0:0:0:0:
85,274,33295,1,0,0:0:0:0:
204,221,33480,2,0,P|243:192|267:143,1,95
336,39,33851,1,0,0:0:0:0:
336,39,34036,1,0,0:0:0:0:
432,125,34221,2,0,P|433:174|393:212,1,95
293,136,34592,5,0,0:0:0:0:
276,244,34777,1,0,0:0:0:0:
173,160,34962,2,0,P|172:216|194:253,1,95
311,317,35332,1,0,0:0:0:0:
311,317,35517,1,0,0:0:0:0:
389,203,35703,2,0,P|406:248|394:301,1,95
269,243,36073,6,0,P|261:196|278:152,1,95
342,44,36443,1,0,0:0:0:0:
446,130,36629,1,0,0:0:0:0:
363,230,36814,2,0,P|363:271|309:332,1,95
200,273,37184,1,0,0:0:0:0:
126,175,37369,1,0,0:0:0:0:
196,70,37555,6,0,P|216:127|191:174,1,95
131,269,37925,1,0,0:0:0:0:
45,178,38110,1,0,0:0:0:0:
113,68,38295,2,0,P|69:52|54:8,1,95
195,32,38666,1,0,0:0:0:0:
250,157,38851,1,0,0:0:0:0:
364,102,39036,6,0,P|389:62|394:15,2,95
260,208,39592,1,0,0:0:0:0:
371,268,39777,2,0,P|381:213|368:162,1,95
247,115,40147,1,0,0:0:0:0:
345,27,40332,1,0,0:0:0:0:
479,229,40517,6,0,P|431:252|376:225,1,95
274,204,40888,1,0,0:0:0:0:
212,322,41073,1,0,0:0:0:0:
112,223,41258,2,0,P|77:179|85:135,1,95
188,56,41629,1,0,0:0:0:0:
201,177,41814,1,0,0:0:0:0:
303,101,41999,6,0,P|349:80|364:35,1,95
347,172,42369,1,0,0:0:0:0:
347,172,42555,1,0,0:0:0:0:
259,275,42740,2,0,P|308:292|350:264,1,95
451,216,43110,1,0,0:0:0:0:
475,114,43295,1,0,0:0:0:0:
353,142,43480,6,0,P|328:102|336:56,1,95
273,169,43851,1,0,0:0:0:0:
167,152,44036,1,0,0:0:0:0:
85,254,44221,2,0,P|38:216|28:165,1,95
15,55,44592,1,0,0:0:0:0:
133,10,44777,1,0,0:0:0:0:
216,109,44962,6,0,P|276:92|288:49,1,95
401,14,45332,1,0,0:0:0:0:
352,127,45517,1,0,0:0:0:0:
479,182,45703,2,0,B|449:238|449:238|411:262,1,95
324,334,46073,2,0,P|262:353|221:317,1,95
125,277,46443,5,0,0:0:0:0:
215,187,46629,1,0,0:0:0:0:
84,190,46814,2,0,P|118:141|111:88,1,95
19,17,47184,1,0,0:0:0:0:
92,123,47369,1,0,0:0:0:0:
187,31,47555,1,0,0:0:0:0:
217,164,47740,1,0,0:0:0:0:
295,48,47925,6,0,P|308:112|345:137,1,95
439,202,48295,1,0,0:0:0:0:
397,300,48480,1,0,0:0:0:0:
270,345,48666,2,0,P|221:335|169:266,1,95
95,218,49036,1,0,0:0:0:0:
33,131,49221,1,0,0:0:0:0:
162,135,49406,6,0,P|205:88|209:42,1,95
236,190,49777,1,0,0:0:0:0:
236,190,49962,1,0,0:0:0:0:
300,73,50147,6,0,P|326:130|368:139,1,95
448,55,50517,1,0,0:0:0:0:
456,158,50703,1,0,0:0:0:0:
379,263,50888,6,0,P|389:299|334:353,1,95
202,384,51258,1,0,0:0:0:0:
251,264,51443,1,0,0:0:0:0:
124,305,51629,2,0,P|73:284|69:231,1,95
61,118,51999,1,0,0:0:0:0:
146,31,52184,1,0,0:0:0:0:
202,212,52369,6,0,P|216:150|196:111,1,95
291,20,52740,1,0,0:0:0:0:
406,72,52925,1,0,0:0:0:0:
450,197,53110,2,0,P|488:145|458:95,1,95
291,20,53480,1,0,0:0:0:0:
218,201,53851,6,0,P|241:243|301:251,1,95
219,368,54221,1,0,0:0:0:0:
343,328,54406,1,0,0:0:0:0:
343,328,54499,1,0,0:0:0:0:
343,328,54592,2,0,P|403:287|378:248,1,95
342,162,54962,1,0,0:0:0:0:
256,72,55147,1,0,0:0:0:0:
186,180,55332,6,0,P|136:150|131:111,1,95
7,95,55703,1,0,0:0:0:0:
124,26,55888,1,0,0:0:0:0:
124,26,55980,1,0,0:0:0:0:
124,26,56073,1,0,0:0:0:0:
66,147,56258,1,0,0:0:0:0:
200,126,56443,2,0,P|226:182|278:202,1,95
356,115,56814,6,0,P|391:174|380:218,1,95
477,292,57184,2,0,P|460:358|421:381,1,95
337,281,57555,2,0,B|278:316|278:316|234:305,1,95
189,198,57925,2,0,B|122:181|122:181|99:142,1,95
218,96,58295,6,0,B|183:37|183:37|194:-7,1,95
319,50,58666,1,0,0:0:0:0:
281,174,58851,1,0,0:0:0:0:
401,115,59036,2,0,B|416:160|416:160|386:226,1,95
333,324,59406,1,0,0:0:0:0:
222,259,59592,1,0,0:0:0:0:
127,356,59777,6,0,P|93:316|96:240,1,95
20,165,60147,1,0,0:0:0:0:
142,132,60332,1,0,0:0:0:0:
183,245,60517,2,0,P|209:204|203:137,1,95
189,34,60888,1,0,0:0:0:0:
296,102,61073,1,0,0:0:0:0:
361,220,61258,6,0,P|387:173|376:117,1,95
448,23,61629,1,0,0:0:0:0:
496,151,61814,1,0,0:0:0:0:
446,275,61999,2,0,P|415:311|349:307,1,95
237,362,62369,2,0,P|192:345|173:281,1,95
47,235,62740,6,0,P|18:198|22:151,1,95
127,62,63110,1,0,0:0:0:0:
198,131,63295,1,0,0:0:0:0:
263,21,63480,2,0,P|270:68|299:113,1,95
413,55,63851,1,0,0:0:0:0:
485,163,64036,1,0,0:0:0:0:
459,286,64221,6,0,P|412:300|352:283,2,95
206,301,64777,1,0,0:0:0:0:
100,228,64962,2,0,P|68:182|75:137,1,95
171,53,65332,1,0,0:0:0:0:
218,146,65517,1,0,0:0:0:0:
316,18,65703,6,0,P|340:86|249:151,1,190
206,301,66258,1,0,0:0:0:0:
36,263,66443,2,0,P|14:223|29:151,1,95
120,44,66814,1,0,0:0:0:0:
223,164,66999,1,0,0:0:0:0:
362,65,67184,6,0,P|360:114|224:161,1,190
353,286,67740,1,0,0:0:0:0:
212,375,67925,2,0,P|166:344|157:278,1,95
30,202,68295,1,0,0:0:0:0:
149,141,68480,1,0,0:0:0:0:
216,225,68666,6,0,P|254:181|254:140,1,95
323,35,69036,1,0,0:0:0:0:
349,159,69221,1,0,0:0:0:0:
290,278,69406,2,0,P|353:288|388:265,1,95
474,183,69777,1,0,0:0:0:0:
430,82,69962,1,0,0:0:0:0:
301,31,70147,6,0,B|309:98|309:98|334:121,1,95
377,246,70517,1,0,0:0:0:0:
309,363,70703,1,0,0:0:0:0:
184,335,70888,2,0,B|131:308|131:308|110:272,1,95
48,170,71258,1,0,0:0:0:0:
117,87,71443,1,0,0:0:0:0:
216,209,71629,6,0,P|247:157|210:35,1,190
368,73,72184,1,0,0:0:0:0:
366,233,72369,2,0,P|424:273|473:276,1,95
223,155,72740,1,0,0:0:0:0:
162,303,72925,1,0,0:0:0:0:
44,194,73110,6,0,P|25:147|97:27,1,190
238,108,73666,1,0,0:0:0:0:
199,275,73851,2,0,P|268:253|286:215,1,95
421,136,74221,1,0,0:0:0:0:
347,32,74406,1,0,0:0:0:0:
214,59,74592,6,0,P|240:111|288:121,1,95
348,231,74962,1,0,0:0:0:0:
259,331,75147,1,0,0:0:0:0:
161,245,75332,2,0,P|125:204|126:159,1,95
76,50,75703,1,0,0:0:0:0:
5,158,75888,1,0,0:0:0:0:
50,276,76073,6,0,B|87:242|87:242|90:192,1,95
181,297,76443,2,0,B|227:300|265:255,1,95
295,140,76814,2,0,B|325:175|325:175|379:184,1,95
501,117,77184,2,0,P|505:163|477:200,1,95
482,314,77555,6,0,P|410:336|388:326,1,95
257,287,77925,1,0,0:0:0:0:
191,368,78110,1,0,0:0:0:0:
76,321,78295,2,0,P|48:277|52:231,1,95
26,114,78666,1,0,0:0:0:0:
112,175,78851,1,0,0:0:0:0:
146,274,79036,6,0,P|179:314|229:317,1,95
322,290,79406,1,0,0:0:0:0:
375,201,79592,1,0,0:0:0:0:
268,204,79777,2,0,P|222:177|212:136,1,95
102,70,80147,1,0,0:0:0:0:
78,165,80332,1,0,0:0:0:0:
136,252,80517,6,0,P|179:290|218:284,1,95
332,345,80888,2,0,P|383:370|377:279,1,190
287,183,81443,1,0,0:0:0:0:
236,293,81629,1,0,0:0:0:0:
112,280,81814,1,0,0:0:0:0:
140,357,81999,6,0,P|160:308|150:266,1,95
75,186,82369,1,0,0:0:0:0:
27,95,82555,1,0,0:0:0:0:
95,12,82740,2,0,P|119:68|157:77,1,95
246,121,83110,1,0,0:0:0:0:
246,121,83295,1,0,0:0:0:0:
172,186,83480,6,0,P|214:230|247:232,1,95
344,183,83851,1,0,0:0:0:0:
388,85,84036,1,0,0:0:0:0:
446,212,84221,2,0,P|472:155|461:127,1,95
439,2,84592,1,0,0:0:0:0:
318,27,84777,1,0,0:0:0:0:
239,124,84962,6,0,P|178:129|206:31,1,190
318,89,85517,1,0,0:0:0:0:
315,209,85703,1,0,0:0:0:0:
208,302,85888,1,0,0:0:0:0:
220,176,86073,1,0,0:0:0:0:
176,57,86258,1,0,0:0:0:0:
86,30,86443,6,0,P|86:103|177:176,1,190
267,265,86999,1,0,0:0:0:0:
328,373,87184,2,0,P|363:336|352:266,1,95
310,169,87555,1,0,0:0:0:0:
208,119,87740,1,0,0:0:0:0:
255,326,87925,5,0,0:0:0:0:
255,326,88110,5,0,0:0:0:0:
351,359,88295,1,0,0:0:0:0:
256,238,88480,1,0,0:0:0:0:
158,364,88666,2,0,P|121:324|122:275,1,95
140,151,89036,2,0,P|176:191|175:239,1,95
57,238,89406,5,0,0:0:0:0:
13,359,89592,1,0,0:0:0:0:
141,359,89777,2,0,P|188:353|229:290,1,95
258,204,90147,1,0,0:0:0:0:
326,326,90332,1,0,0:0:0:0:
461,297,90517,2,0,P|487:242|472:206,1,95
407,93,90888,5,0,0:0:0:0:
366,213,91073,1,0,0:0:0:0:
243,252,91258,2,0,P|190:232|185:179,1,95
193,68,91629,1,0,0:0:0:0:
100,127,91814,1,0,0:0:0:0:
41,244,91999,2,0,P|96:268|135:256,1,95
257,135,92369,5,0,0:0:0:0:
288,293,92555,1,0,0:0:0:0:
410,375,92740,2,0,P|443:321|352:253,1,190
239,222,93295,1,0,0:0:0:0:
329,318,93480,2,0,P|287:362|225:353,1,95
149,293,93851,5,0,0:0:0:0:
42,368,94036,1,0,0:0:0:0:
3,249,94221,2,0,P|10:198|2:150,1,95
50,35,94592,1,0,0:0:0:0:
50,35,94777,1,0,0:0:0:0:
145,169,94962,2,0,P|169:128|154:75,1,95
262,24,95332,5,0,0:0:0:0:
298,151,95517,1,0,0:0:0:0:
383,41,95703,2,0,B|406:97|406:97|382:138,1,95
485,217,96073,2,0,B|461:273|461:273|418:287,1,95
320,354,96443,2,0,P|263:377|236:363,2,95,0|0|0,0:3|0:3|0:3,0:3:0:0:
337,223,96999,5,0,0:0:0:0:
243,126,97184,1,0,0:0:0:0:
204,251,97369,1,0,0:0:0:0:
236,363,97555,2,0,P|280:377|320:354,2,95,0|0|0,0:3|0:3|0:3,0:3:0:0:
113,319,98110,1,0,0:0:0:0:
45,214,98295,6,0,P|26:167|37:117,1,95
103,42,98666,1,0,0:0:0:0:
176,115,98851,1,0,0:0:0:0:
277,161,99036,2,0,P|267:202|211:237,1,95
133,263,99406,1,0,0:0:0:0:
221,363,99592,1,0,0:0:0:0:
351,358,99777,6,0,P|376:308|365:265,1,95
301,160,100147,1,0,0:0:0:0:
214,59,100332,1,0,0:0:0:0:
105,139,100517,2,0,P|145:193|181:197,1,95
252,345,100888,1,0,0:0:0:0:
252,345,101073,1,0,0:0:0:0:
381,324,101258,6,0,B|388:271|388:271|367:232,1,95
415,117,101629,2,0,B|459:86|459:86|470:42,1,95
254,62,101999,2,0,B|307:71|307:71|346:48,1,95
257,168,102369,2,0,B|213:152|213:152|184:106,1,95
446,249,102740,5,0,0:0:0:0:
349,338,102925,1,0,0:0:0:0:
235,254,103110,1,0,0:0:0:0:
168,364,103295,1,0,0:0:0:0:
51,285,103480,2,0,P|25:243|36:181,1,95
80,81,103851,1,0,0:0:0:0:
185,162,104036,1,0,0:0:0:0:
226,304,104221,6,0,P|272:271|279:219,1,95
377,156,104592,1,0,0:0:0:0:
480,234,104777,1,0,0:0:0:0:
448,359,104962,2,0,P|395:390|361:377,1,95
257,331,105332,1,0,0:0:0:0:
367,269,105517,1,0,0:0:0:0:
280,160,105703,6,0,P|299:220|272:257,1,95
158,343,106073,6,0,P|138:295|163:257,1,95
14,116,106443,1,0,0:0:0:0:
64,220,106629,1,0,0:0:0:0:
149,105,106814,2,0,P|199:66|200:23,1,95
313,24,107184,5,0,0:0:0:0:
265,144,107369,1,0,0:0:0:0:
355,235,107555,2,0,P|400:183|390:151,1,95
434,43,107925,1,0,0:0:0:0:
504,169,108110,1,0,0:0:0:0:
457,287,108295,2,0,P|433:341|381:349,1,95
279,299,108666,5,0,0:0:0:0:
167,369,108851,1,0,0:0:0:0:
121,250,109036,1,0,0:0:0:0:
19,227,109221,1,0,0:0:0:0:
19,227,109406,2,0,P|0:172|20:118,1,95
105,52,109777,1,0,0:0:0:0:
140,143,109962,1,0,0:0:0:0:
175,309,110147,6,0,P|203:258|203:214,1,95
257,102,110517,1,0,0:0:0:0:
257,102,110703,1,0,0:0:0:0:
267,210,110888,2,0,P|322:174|324:135,1,95
449,263,111258,1,0,0:0:0:0:
380,157,111443,1,0,0:0:0:0:
249,194,111629,6,0,P|294:233|333:239,1,95
364,324,111999,1,0,0:0:0:0:
256,318,112184,1,0,0:0:0:0:
154,342,112369,1,0,0:0:0:0:
67,299,112555,1,0,0:0:0:0:
156,252,112740,2,0,P|206:195|145:83,1,190
308,48,113295,5,0,0:0:0:0:
339,173,113480,1,0,0:0:0:0:
449,100,113666,1,0,0:0:0:0:
442,238,113851,1,0,0:0:0:0:
326,135,114036,1,0,0:0:0:0:
303,278,114221,2,0,P|357:317|399:314,1,95
218,273,114592,6,0,P|179:327|182:369,1,95
80,208,114962,2,0,P|26:169|-16:172,2,95
166,112,115517,1,0,0:0:0:0:
237,223,115703,1,0,0:0:0:0:
332,79,115888,1,0,0:0:0:0:
512,96,116073,6,0,P|490:154|371:99,1,190
327,270,116629,1,0,0:0:0:0:
219,384,116814,2,0,P|173:328|182:281,1,95
92,177,117184,1,0,0:0:0:0:
180,180,117369,1,0,0:0:0:0:
316,38,117555,6,0,P|322:92|209:98,1,190
65,42,118110,1,0,0:0:0:0:
114,195,118295,2,0,P|187:207|223:94,1,190
347,11,118851,1,0,0:0:0:0:
372,214,119036,6,0,P|347:174|346:123,1,95
475,216,119406,1,0,0:0:0:0:
396,325,119592,1,0,0:0:0:0:
290,255,119777,1,0,0:0:0:0:
183,383,119962,1,0,0:0:0:0:
183,383,120147,2,0,P|161:338|156:285,1,95
136,109,120517,5,0,0:0:0:0:
257,141,120703,1,0,0:0:0:0:
278,113,120888,1,0,0:0:0:0:
300,88,121073,1,0,0:0:0:0:
321,69,121258,2,0,P|381:99|310:171,1,190
217,67,121814,1,0,0:0:0:0:
42,138,121999,6,0,P|61:229|183:255,1,190
256,336,122555,1,0,0:0:0:0:
399,317,122740,2,0,P|360:295|338:243,1,95
313,109,123110,1,0,0:0:0:0:
406,203,123295,1,0,0:0:0:0:
505,106,123480,6,0,P|511:152|408:236,1,190
387,103,124036,1,0,0:0:0:0:
299,201,124221,1,0,0:0:0:0:
247,91,124406,1,0,0:0:0:0:
155,177,124592,6,0,P|186:230|289:175,1,190
345,310,125147,1,0,0:0:0:0:
438,215,125332,1,0,0:0:0:0:
357,115,125517,1,0,0:0:0:0:
490,215,125703,2,0,P|447:258|409:250,1,95
290,210,126073,1,0,0:0:0:0:
252,313,126258,1,0,0:0:0:0:
136,255,126443,6,0,P|78:237|61:186,1,95
0,53,126814,2,0,P|17:96|1:144,1,95
222,295,127184,6,0,P|170:262|167:208,1,95
142,64,127555,2,0,P|147:110|119:152,1,95
46,303,127925,5,0,0:0:0:0:
16,202,128110,1,0,0:0:0:0:
56,108,128295,1,0,0:0:0:0:
138,157,128480,5,0,0:0:0:0:
123,258,128665,1,0,0:0:0:0:
178,347,128850,1,0,0:0:0:0:
204,356,129036,2,0,P|288:355|242:280,1,190
255,164,129592,1,0,0:0:0:0:
255,164,129777,5,0,0:0:0:0:
258,71,129962,1,0,0:0:0:0:
161,105,130147,2,0,P|157:167|179:195,1,95
129,287,130517,2,0,P|191:291|219:269,1,95
289,174,130888,6,0,P|227:170|199:192,1,95
107,142,131258,2,0,P|103:204|125:232,2,95
