osu file format v14

[General]
AudioFilename: audio.mp3
AudioLeadIn: 0
PreviewTime: 25790
Countdown: 0
SampleSet: Soft
StackLeniency: 0.7
Mode: 0
LetterboxInBreaks: 0
WidescreenStoryboard: 1

[Editor]
Bookmarks: 105670
DistanceSpacing: 1
BeatDivisor: 4
GridSize: 16
TimelineZoom: 3.499999

[Metadata]
Title:Your New Boyfriend
TitleUnicode:Your New Boyfriend
Artist:Rocketship
ArtistUnicode:Rocketship
Creator:hewwo
Version:Normal
Source:
Tags:renumi ralsei soft rock english indie twee pop rarities
BeatmapID:3000579
BeatmapSetID:1460323

[Difficulty]
HPDrainRate:4
CircleSize:3.5
OverallDifficulty:4.5
ApproachRate:5
SliderMultiplier:1.2
SliderTickRate:1

[Events]
//Background and Video events
0,0,"karolg.jpg",0,0
//Break Periods
2,80242,81668
//Storyboard Layer 0 (Background)
//Storyboard Layer 1 (Fail)
//Storyboard Layer 2 (Pass)
//Storyboard Layer 3 (Foreground)
//Storyboard Layer 4 (Overlay)
//Storyboard Sound Samples

[TimingPoints]
378,397.350993377486,4,2,1,40,1,0
3556,408.163265306125,4,2,1,40,1,0
6004,382.165605095544,4,2,1,60,1,0
6768,399.334442595676,4,2,1,75,1,0
9962,392.1568627451,4,2,1,75,1,0
13099,389.610389610392,4,2,1,75,1,0
13488,-100,4,2,1,60,0,0
14462,441.176470588239,4,2,1,60,1,0
14462,-91.743119266055,4,2,1,60,0,0
14657,402.684563758392,4,2,1,60,1,0
16267,396.694214876035,4,2,1,60,1,0
24200,410.958904109591,4,2,1,65,1,0
25021,384.615384615386,4,2,1,65,1,0
25790,402.010050251258,4,2,1,80,1,0
30413,-99.502487562189,4,2,1,80,0,0
30614,398.671096345517,4,2,1,80,1,0
32208,389.610389610392,4,2,1,65,1,1
32987,-100,4,2,1,80,0,1
33571,359.28143712575,4,2,1,80,1,1
34469,454.545454545457,4,2,1,80,1,1
35378,395.38714991763,4,2,1,65,1,1
36168,-100,4,2,1,80,0,1
36761,345.323741007196,4,2,1,80,1,1
37624,387.09677419355,4,2,1,65,1,1
38591,402.684563758391,4,2,1,80,1,0
43221,394.736842105265,4,2,1,75,1,0
43418,394.736842105265,4,2,1,75,1,0
46378,381.558028616854,4,2,1,75,1,0
46568,384.615384615385,4,2,1,75,1,0
48106,401.337792642142,4,2,1,75,1,0
48507,-100,4,2,1,60,0,0
50915,370.370370370372,4,2,1,60,1,0
51100,425.53191489362,4,2,1,60,1,0
51312,394.736842105266,4,2,1,60,1,0
54469,416.66666666667,4,2,1,65,1,0
55302,400.000000000003,4,2,1,65,1,0
55902,377.35849056604,4,2,1,65,1,0
57034,421.940928270042,4,2,1,65,1,0
57666,397.350993377486,4,2,1,65,1,0
60844,400.000000000003,4,2,1,80,1,0
62444,394.736842105266,4,2,1,80,1,0
65404,-100.502512562814,4,2,1,80,0,0
65601,397.350993377486,4,2,1,80,1,0
67190,385.232744783309,4,2,1,65,1,1
67960,-100,4,2,1,80,0,1
68538,377.35849056604,4,2,1,80,1,1
69481,483.870967741939,4,2,1,80,1,1
70448,388.978930307944,4,2,1,65,1,1
71225,-100,4,2,1,80,0,1
71809,361.445783132532,4,2,1,80,1,1
72712,386.473429951693,4,2,1,65,1,1
73678,408.163265306125,4,2,1,80,1,0
75310,402.684563758392,4,2,1,80,1,0
76920,422.535211267609,4,2,1,80,1,0
78610,408.163265306125,4,2,1,40,1,0
82691,355.029585798819,4,2,1,60,1,0
83223,464.037122969838,4,2,1,60,1,0
83455,394.088669950741,4,2,1,75,1,0
86607,404.040404040407,4,2,1,75,1,0
88021,388.978930307944,4,2,1,75,1,0
88215,388.978930307944,4,2,1,75,1,0
89778,394.736842105266,4,2,1,80,1,1
91356,393.442622950822,4,2,1,80,1,1
96077,387.096774193551,4,2,1,65,1,1
96851,-100,4,2,1,80,0,1
97431,365.853658536587,4,2,1,80,1,1
98345,447.761194029854,4,2,1,80,1,1
99240,392.1568627451,4,2,1,65,1,1
100024,-100,4,2,1,80,0,1
100612,346.820809248557,4,2,1,80,1,1
101479,396.694214876036,4,2,1,65,1,1
102470,400.000000000003,4,2,1,80,1,0
108470,-100,4,2,1,5,0,0

[Colours]
Combo1 : 209,243,223
Combo2 : 190,203,248
Combo3 : 222,153,141

[HitObjects]
69,93,6195,6,0,P|103:107|145:119,2,60,0|2|0,3:0|0:3|3:0,0:0:0:0:
13,77,6768,2,2,P|18:151|27:215,1,120,6|8,3:2|0:0,0:0:0:0:
11,316,7566,1,2,3:2:0:0:
127,361,7966,1,8,0:0:0:0:
127,361,8165,6,2,P|183:363|249:322,1,120,6|0,3:2|3:0,0:0:0:0:
290,304,8764,2,0,P|297:244|301:184,1,120,10|2,0:0|3:2,0:0:0:0:
196,124,9563,1,10,0:0:0:0:
271,50,9962,6,2,L|390:59,1,120,6|8,3:2|0:0,0:0:0:0:
447,164,10746,2,0,P|466:220|507:272,1,120,0|8,3:0|0:0,0:0:0:0:
510,324,11334,2,2,L|367:315,1,120,6|0,3:2|3:0,0:0:0:0:
341,351,11922,1,8,0:0:0:0:
232,300,12314,1,0,3:0:0:0:
121,347,12707,2,0,P|100:326|81:292,1,60,8|0,0:0|3:0,0:0:0:0:
112,246,13099,6,0,L|121:113,1,120,6|8,3:2|0:0,0:0:0:0:
127,7,13878,1,0,3:0:0:0:
225,75,14267,1,8,0:0:0:0:
225,75,14462,2,0,P|279:78|344:66,1,117.59999892334,2|0,3:2|3:0,0:0:0:0:
444,28,15261,1,2,0:0:0:0:
444,28,15462,2,0,P|457:86|483:140,1,120,0|10,3:0|0:0,0:0:0:0:
512,264,16267,6,0,L|384:275,1,120,2|8,3:2|0:0,0:0:0:0:
334,258,16862,2,0,P|331:286|324:323,1,60,2|0,0:0|3:0,0:0:0:0:
215,359,17457,1,8,0:0:0:0:
215,359,17655,2,0,P|178:322|155:248,1,120,2|0,3:2|3:0,0:0:0:0:
180,206,18250,1,8,0:0:0:0:
180,206,18448,2,0,L|60:195,1,120,2|0,0:0|3:0,0:0:0:0:
14,156,19043,1,10,0:0:0:0:
76,53,19440,6,0,B|134:8|129:44|196:-9,2,120,6|8|2,3:1|0:0|3:1,0:0:0:0:
193,101,20630,1,2,1:0:0:0:
193,101,20828,2,0,B|265:111|236:133|321:143,2,120,0|2|2,3:0|3:1|0:0,0:0:0:0:
107,185,22019,2,0,P|85:242|77:318,1,120,2|2,3:1|1:0,0:0:0:0:
106,352,22614,6,0,L|244:333,1,120,0|2,3:0|1:0,0:0:0:0:
340,367,23407,2,0,P|351:310|356:248,1,120,2|2,3:1|1:0,0:0:0:0:
357,188,24002,1,2,3:2:0:0:
472,213,24405,6,0,P|461:156|455:94,1,120,2|2,3:1|0:1,0:0:0:0:
455,34,25021,1,8,3:0:0:0:
341,72,25405,1,8,0:0:0:0:
210,27,25790,6,2,B|150:65|156:33|82:69,2,120,4|8|0,3:1|0:0|3:0,0:0:0:0:
264,1,26795,1,2,3:2:0:0:
356,83,27197,1,6,3:2:0:0:
356,83,27398,2,0,P|366:158|376:218,1,120,2|8,0:0|0:0,0:0:0:0:
373,264,28001,2,0,P|325:296|247:309,1,120,2|2,0:0|3:2,0:0:0:0:
204,311,28604,1,10,0:0:0:0:
188,192,29006,6,2,L|60:172,1,120,6|8,3:2|0:0,0:0:0:0:
11,189,29609,1,2,0:0:0:0:
51,75,30011,1,2,3:2:0:0:
171,64,30413,2,2,B|273:47|245:95|351:69,1,180,6|8,3:2|0:0,0:0:0:0:
467,60,31411,2,0,P|464:117|452:190,1,120,2|2,3:0|1:2,0:0:0:0:
372,270,32208,6,0,P|357:230|346:151,2,120,4|8|2,3:0|3:0|3:2,0:0:0:0:
365,329,33182,2,0,L|509:354,1,120,2|6,3:0|0:0,0:0:0:0:
151,104,35378,6,0,P|166:144|177:223,2,120,4|8|2,3:0|3:0|3:2,0:0:0:0:
148,43,36366,2,0,L|4:18,1,120,2|6,3:0|0:0,0:0:0:0:
251,261,38011,6,0,P|247:290|239:319,2,60,0|0|0,3:0|1:0|3:0,0:0:0:0:
233,208,38591,2,2,L|350:234,1,120,4|8,0:0|0:0,0:0:0:0:
465,266,39396,1,2,3:2:0:0:
465,266,39597,2,0,P|454:197|456:143,1,120,2|2,3:2|3:1,0:0:0:0:
483,29,40403,1,2,3:1:0:0:
367,59,40805,2,0,B|263:74|295:32|174:50,1,180,2|8,0:1|1:3,0:0:0:0:
94,122,41812,6,2,P|86:183|84:264,1,120,6|8,3:2|0:0,0:0:0:0:
108,358,42617,1,2,3:2:0:0:
231,372,43020,1,8,0:0:0:0:
231,372,43221,2,2,P|282:346|334:282,1,120,6|0,3:2|3:0,0:0:0:0:
335,241,43812,2,0,L|472:268,1,120,10|2,0:0|3:2,0:0:0:0:
512,156,44602,1,10,0:0:0:0:
395,129,44996,6,2,P|381:66|373:6,1,120,6|8,3:2|0:0,0:0:0:0:
261,59,45786,2,0,P|218:97|152:121,1,120,0|8,3:0|0:0,0:0:0:0:
107,87,46378,2,2,P|69:130|67:214,1,120,6|0,3:2|3:0,0:0:0:0:
70,249,46952,1,8,0:0:0:0:
136,348,47337,1,0,3:0:0:0:
251,324,47721,2,0,P|261:289|263:263,1,60,8|0,0:0|3:0,0:0:0:0:
248,209,48106,6,0,P|318:223|385:224,1,120,6|8,3:2|0:0,0:0:0:0:
459,147,48908,1,0,3:0:0:0:
459,147,49109,2,0,P|449:112|447:86,1,60,2|10,3:2|0:0,0:0:0:0:
449,28,49510,2,0,P|376:39|312:43,1,120,0|2,3:0|3:2,0:0:0:0:
216,2,50313,2,0,P|193:38|115:95,1,120,2|2,0:0|3:2,0:0:0:0:
78,181,51100,5,2,3:2:0:0:
78,181,51312,2,0,B|218:198,1,120,0|8,3:0|0:0,0:0:0:0:
313,167,52101,2,0,P|345:216|367:288,1,120,2|10,3:2|0:0,0:0:0:0:
339,328,52693,2,2,L|485:314,1,120,2|0,3:2|3:0,0:0:0:0:
504,277,53285,1,8,0:0:0:0:
502,156,53680,1,0,3:0:0:0:
405,84,54075,1,10,0:0:0:0:
310,35,54469,6,0,B|240:47|264:16|173:35,2,120,6|8|2,3:1|0:0|3:1,0:0:0:0:
266,146,55702,1,2,1:0:0:0:
266,146,55902,2,0,B|224:203|220:165|169:242,2,120,0|2|2,3:0|3:1|0:0,0:0:0:0:
378,110,57034,2,0,L|372:241,1,120,2|2,3:1|1:0,0:0:0:0:
374,278,57666,6,0,P|333:322|262:353,1,120,0|2,3:0|1:0,0:0:0:0:
180,281,58460,2,0,L|43:259,1,120,2|2,3:1|1:0,0:0:0:0:
2,251,59056,1,2,3:2:0:0:
73,154,59454,2,2,P|139:96|239:104,1,180,6|0,0:0|0:0,0:0:0:0:
324,168,60447,1,8,3:2:0:0:
394,264,60844,6,2,P|395:323|387:388,2,120,4|8|0,3:1|0:0|3:0,0:0:0:0:
394,204,61844,1,2,3:2:0:0:
280,228,62244,1,6,3:2:0:0:
280,228,62444,2,0,P|279:169|287:104,1,120,2|8,0:0|0:0,0:0:0:0:
299,49,63036,2,0,L|171:56,1,120,2|2,0:0|3:2,0:0:0:0:
132,17,63628,1,10,0:0:0:0:
48,102,64022,6,2,P|55:161|54:221,1,120,6|8,3:2|0:0,0:0:0:0:
47,281,64615,1,2,0:0:0:0:
131,366,65009,1,2,3:2:0:0:
226,292,65404,2,2,P|297:240|384:253,1,180,6|8,3:2|0:0,0:0:0:0:
486,316,66395,2,0,P|493:268|498:180,1,120,2|2,3:0|1:2,0:0:0:0:
403,120,67190,6,0,P|406:60|415:0,2,120,4|8|2,3:0|3:0|3:2,0:0:0:0:
373,173,68153,2,0,P|324:186|234:191,1,120,2|6,3:0|0:0,0:0:0:0:
107,263,70448,6,0,P|103:322|94:382,2,120,4|8|2,3:0|3:0|3:2,0:0:0:0:
137,210,71420,2,0,P|186:197|276:192,1,120,2|6,3:0|0:0,0:0:0:0:
58,13,73098,6,0,L|0:0,2,60,0|0|0,3:0|1:0|3:0,0:0:0:0:
92,59,73678,2,2,P|130:85|217:91,1,120,4|8,0:0|0:0,0:0:0:0:
301,27,74494,1,2,3:2:0:0:
301,27,74698,2,0,P|321:94|330:151,1,120,2|2,3:2|3:1,0:0:0:0:
327,264,75511,1,2,3:1:0:0:
219,210,75914,2,0,P|199:277|190:334,1,120,2|0,0:1|0:0,0:0:0:0:
183,383,76518,1,8,1:3:0:0:
70,361,76920,1,6,3:2:0:0:
395,146,82868,6,0,P|410:113|416:88,2,60,0|2|0,3:0|0:3|3:0,0:0:0:0:
359,191,83455,2,2,L|185:174,1,120,6|8,3:2|0:0,0:0:0:0:
120,166,84243,1,2,3:2:0:0:
38,254,84637,1,8,0:0:0:0:
38,254,84834,2,2,P|80:309|151:357,1,120,6|0,3:2|3:0,0:0:0:0:
178,353,85425,2,0,L|306:340,1,120,10|2,0:0|3:2,0:0:0:0:
415,322,86213,1,10,0:0:0:0:
325,246,86607,6,2,P|294:189|283:106,1,120,6|8,3:2|0:0,0:0:0:0:
364,47,87415,2,0,P|422:59|474:89,1,120,0|8,3:0|0:0,0:0:0:0:
500,145,88021,2,2,L|495:348,1,180,6|8,3:2|0:0,0:0:0:0:
380,300,88992,1,8,3:0:0:0:
275,358,89381,1,8,0:0:0:0:
199,264,89778,6,2,P|140:277|85:300,2,120,4|8|0,3:1|0:0|3:0,0:0:0:0:
264,256,90764,1,2,3:2:0:0:
380,300,91159,1,6,3:2:0:0:
380,300,91356,2,0,P|384:235|382:157,1,120,2|8,0:0|0:0,0:0:0:0:
388,120,91946,1,2,0:0:0:0:
316,31,92339,1,2,3:2:0:0:
316,31,92536,2,0,P|268:46|240:49,1,60,10|2,0:0|3:2,0:0:0:0:
201,27,92929,6,2,P|171:80|121:129,1,120,6|8,3:2|0:0,0:0:0:0:
79,155,93519,1,2,0:0:0:0:
61,273,93913,1,2,3:2:0:0:
177,299,94306,2,2,L|377:279,1,180,6|8,3:2|0:0,0:0:0:0:
475,268,95290,2,0,P|499:191|501:151,1,120,2|2,3:0|1:2,0:0:0:0:
392,114,96077,6,0,P|367:37|365:-2,2,120,4|8|2,3:0|3:0|3:2,0:0:0:0:
412,170,97044,2,0,L|285:144,1,120,2|6,3:0|0:0,0:0:0:0:
120,270,99240,6,0,P|144:346|146:386,2,120,4|8|2,3:0|3:0|3:2,0:0:0:0:
100,214,100220,2,0,L|227:240,1,120,2|6,3:0|0:0,0:0:0:0:
487,74,101875,6,0,L|499:15,2,60,0|0|0,3:0|1:0|3:0,0:0:0:0:
491,133,102470,2,2,P|410:146|344:150,1,120,4|8,0:0|0:0,0:0:0:0:
255,170,103270,1,2,3:2:0:0:
255,170,103470,2,0,P|243:119|234:45,1,120,2|2,3:2|3:1,0:0:0:0:
353,35,104270,1,2,3:1:0:0:
372,148,104670,2,0,P|384:199|393:273,1,120,2|0,0:1|0:0,0:0:0:0:
360,315,105270,2,0,L|281:298,1,60,8|2,1:3|0:1,0:0:0:0:
244,322,105670,1,4,3:1:0:0:
256,192,105870,12,0,108470,0:0:0:0:
