osu file format v14

[General]
AudioFilename: audio.mp3
AudioLeadIn: 0
PreviewTime: 25790
Countdown: 0
SampleSet: Soft
StackLeniency: 0.7
Mode: 0
LetterboxInBreaks: 0
WidescreenStoryboard: 1

[Editor]
Bookmarks: 105670
DistanceSpacing: 0.4
BeatDivisor: 5
GridSize: 16
TimelineZoom: 2.5

[Metadata]
Title:Your New Boyfriend
TitleUnicode:Your New Boyfriend
Artist:Rocketship
ArtistUnicode:Rocketship
Creator:hewwo
Version:Insane
Source:
Tags:renumi ralsei soft rock english indie twee pop rarities
BeatmapID:3000578
BeatmapSetID:1460323

[Difficulty]
HPDrainRate:5.5
CircleSize:4.3
OverallDifficulty:7
ApproachRate:8.5
SliderMultiplier:1.7
SliderTickRate:1

[Events]
//Background and Video events
0,0,"karolg.jpg",0,0
//Break Periods
2,80242,82193
//Storyboard Layer 0 (Background)
//Storyboard Layer 1 (Fail)
//Storyboard Layer 2 (Pass)
//Storyboard Layer 3 (Foreground)
//Storyboard Layer 4 (Overlay)
//Storyboard Sound Samples

[TimingPoints]
378,397.350993377486,4,2,1,40,1,0
3556,408.163265306125,4,2,1,40,1,0
6004,382.165605095544,4,2,1,60,1,0
6768,399.334442595676,4,2,1,75,1,0
9962,392.1568627451,4,2,1,75,1,0
13099,389.610389610392,4,2,1,75,1,0
13099,-125,4,2,1,75,0,0
13488,-125,4,2,1,60,0,0
14462,441.176470588239,4,2,1,60,1,0
14462,-112.485939257593,4,2,1,60,0,0
14657,402.684563758392,4,2,1,60,1,0
14657,-125,4,2,1,60,0,0
16267,396.694214876035,4,2,1,60,1,0
16267,-125,4,2,1,60,0,0
19440,-111.111111111111,4,2,1,65,0,0
24200,410.958904109591,4,2,1,65,1,0
24200,-111.111111111111,4,2,1,65,0,0
25021,384.615384615386,4,2,1,65,1,0
25790,402.010050251258,4,2,1,80,1,0
30413,-99.502487562189,4,2,1,80,0,0
30614,398.671096345517,4,2,1,80,1,0
32208,389.610389610392,4,2,1,65,1,1
32987,-100,4,2,1,80,0,1
33571,359.28143712575,4,2,1,80,1,1
34469,454.545454545457,4,2,1,80,1,1
35378,395.38714991763,4,2,1,65,1,1
36168,-100,4,2,1,80,0,1
36761,345.323741007196,4,2,1,80,1,1
37624,387.09677419355,4,2,1,65,1,1
38591,402.684563758391,4,2,1,80,1,0
43221,394.736842105265,4,2,1,75,1,0
43418,394.736842105265,4,2,1,75,1,0
46378,381.558028616854,4,2,1,75,1,0
46568,384.615384615385,4,2,1,75,1,0
48106,401.337792642142,4,2,1,75,1,0
48106,-125,4,2,1,75,0,0
48507,-125,4,2,1,60,0,0
50915,370.370370370372,4,2,1,60,1,0
51100,425.53191489362,4,2,1,60,1,0
51312,394.736842105266,4,2,1,60,1,0
51312,-125,4,2,1,60,0,0
54469,416.66666666667,4,2,1,65,1,0
54469,-111.111111111111,4,2,1,65,0,0
55302,400.000000000003,4,2,1,65,1,0
55302,-111.111111111111,4,2,1,65,0,0
55902,377.35849056604,4,2,1,65,1,0
55902,-111.111111111111,4,2,1,65,0,0
57034,421.940928270042,4,2,1,65,1,0
57666,397.350993377486,4,2,1,65,1,0
57666,-111.111111111111,4,2,1,65,0,0
59056,-100,4,2,1,65,0,0
60844,400.000000000003,4,2,1,80,1,0
62444,394.736842105266,4,2,1,80,1,0
65601,397.350993377486,4,2,1,80,1,0
67190,385.232744783309,4,2,1,65,1,1
68538,377.35849056604,4,2,1,80,1,1
69481,483.870967741939,4,2,1,80,1,1
70448,388.978930307944,4,2,1,65,1,1
71809,361.445783132532,4,2,1,80,1,1
72712,386.473429951693,4,2,1,65,1,1
73678,408.163265306125,4,2,1,80,1,0
75310,402.684563758392,4,2,1,80,1,0
76920,422.535211267609,4,2,1,80,1,0
78610,408.163265306125,4,2,1,40,1,0
82691,355.029585798819,4,2,1,60,1,0
83223,464.037122969838,4,2,1,60,1,0
83455,394.088669950741,4,2,1,75,1,0
86607,404.040404040407,4,2,1,75,1,0
88021,388.978930307944,4,2,1,75,1,0
88215,388.978930307944,4,2,1,75,1,0
89778,394.736842105266,4,2,1,80,1,1
91356,393.442622950822,4,2,1,80,1,1
96077,387.096774193551,4,2,1,65,1,1
96851,-100,4,2,1,80,0,1
97431,365.853658536587,4,2,1,80,1,1
98345,447.761194029854,4,2,1,80,1,1
99240,392.1568627451,4,2,1,65,1,1
100024,-100,4,2,1,80,0,1
100612,346.820809248557,4,2,1,80,1,1
101479,396.694214876036,4,2,1,65,1,1
102470,400.000000000003,4,2,1,80,1,0
108470,-100,4,2,1,5,0,0

[Colours]
Combo1 : 209,243,223
Combo2 : 190,203,248
Combo3 : 222,153,141

[HitObjects]
45,198,6195,5,0,3:0:0:0:
70,200,6290,1,0,3:0:0:0:
95,200,6386,1,2,0:3:0:0:
120,194,6481,1,0,3:0:0:0:
144,185,6577,1,0,3:0:0:0:
169,181,6672,1,0,3:0:0:0:
193,182,6768,2,2,P|208:198|222:208,8,21.25,6|0|0|0|0|0|0|0|8,3:2|0:0|0:0|0:0|0:0|0:0|0:0|0:0|0:0,0:0:0:0:
60,26,7466,1,0,1:0:0:0:
45,34,7566,1,2,3:2:0:0:
130,89,7766,1,0,3:0:0:0:
34,185,7966,1,8,0:0:0:0:
159,279,8165,6,2,L|156:307,8,21.25,6|0|0|0|0|0|0|0|0,3:2|0:0|0:0|0:0|0:0|0:0|0:0|0:0|3:0,0:0:0:0:
272,370,8764,2,0,P|257:333|247:276,1,85,10|0,0:0|0:0,0:0:0:0:
246,271,9064,1,0,1:0:0:0:
246,253,9164,1,2,3:2:0:0:
181,372,9363,1,0,3:0:0:0:
340,295,9563,1,10,0:0:0:0:
179,165,9763,1,0,3:0:0:0:
335,162,9962,6,2,P|350:168|372:172,8,21.25,6|0|0|0|0|0|0|0|8,3:2|0:0|0:0|0:0|0:0|0:0|0:0|0:0|0:0,0:0:0:0:
148,55,10648,1,0,1:0:0:0:
144,38,10746,1,0,3:0:0:0:
254,90,10942,2,0,P|263:57|268:-3,1,85,0|8,3:0|0:0,0:0:0:0:
174,144,11334,6,2,L|178:182,8,21.25,6|0|0|0|0|0|0|0|0,3:2|0:0|0:0|0:0|0:0|0:0|0:0|0:0|3:0,0:0:0:0:
115,235,11922,2,0,P|72:238|31:249,1,85,8|0,0:0|0:0,0:0:0:0:
15,255,12216,1,0,1:0:0:0:
0,264,12314,1,0,3:0:0:0:
89,328,12511,1,0,3:0:0:0:
220,240,12707,1,8,0:0:0:0:
25,120,12903,5,0,3:0:0:0:
30,143,13001,1,0,1:0:0:0:
43,159,13099,2,0,B|110:172|101:146|178:165,1,136,6|8,3:2|0:0,0:0:0:0:
289,154,13683,1,2,0:0:0:0:
288,167,13780,1,0,1:0:0:0:
285,181,13878,1,0,3:0:0:0:
256,296,14073,2,0,P|226:254|211:210,1,68,2|8,3:2|0:0,0:0:0:0:
240,67,14462,6,0,L|383:84,1,136,2|0,3:2|3:0,0:0:0:0:
472,64,15059,1,8,0:0:0:0:
412,163,15261,1,2,0:0:0:0:
413,176,15361,1,0,1:0:0:0:
416,189,15462,2,0,P|419:228|429:279,1,68,0|0,3:0|3:0,0:0:0:0:
374,83,15865,1,10,0:0:0:0:
322,158,16066,1,0,3:0:0:0:
423,256,16267,6,0,P|363:246|302:242,1,102,2|0,3:2|0:0,0:0:0:0:
308,242,16663,1,8,0:0:0:0:
245,162,16862,2,0,P|251:144|257:121,2,34,2|0|0,0:0|1:0|3:0,0:0:0:0:
254,306,17258,1,2,3:2:0:0:
254,306,17457,1,8,0:0:0:0:
147,199,17655,6,0,P|131:154|119:53,1,136,2|0,3:2|3:0,0:0:0:0:
190,4,18250,1,8,0:0:0:0:
207,89,18448,1,2,0:0:0:0:
216,98,18547,1,0,1:0:0:0:
229,106,18647,1,0,3:0:0:0:
303,41,18845,1,0,3:0:0:0:
505,97,19043,1,10,0:0:0:0:
395,95,19242,1,2,0:0:0:0:
329,173,19440,6,0,P|330:249|341:333,2,152.999995330811,6|8|2,3:1|0:0|3:1,0:0:0:0:
329,173,20432,1,0,3:0:0:0:
192,177,20630,5,2,1:0:0:0:
235,260,20828,2,0,P|201:270|131:276,1,76.4999976654053,0|0,3:0|0:0,0:0:0:0:
0,356,21225,2,0,B|95:337|58:374|157:352,2,152.999995330811,2|2|2,3:1|0:0|3:1,0:0:0:0:
252,168,22415,1,2,1:0:0:0:
314,99,22614,6,0,P|328:63|335:26,1,76.4999976654053,0|0,3:0|0:0,0:0:0:0:
432,201,23010,2,0,P|417:165|410:128,1,76.4999976654053,2|0,1:0|0:0,0:0:0:0:
408,112,23308,1,8,0:0:0:0:
409,96,23407,2,0,L|456:103,2,38.2499988327027,2|0|0,3:1|1:0|3:0,0:0:0:0:
314,99,23804,5,2,1:0:0:0:
432,201,24002,2,0,P|432:235|422:284,1,76.4999976654053,2|0,3:2|0:0,0:0:0:0:
193,145,24405,2,0,P|191:106|182:69,1,76.4999976654053,2|8,3:1|0:0,0:0:0:0:
17,195,24816,2,0,P|17:225|21:248,1,38.2499988327027,2|0,0:1|0:0,0:0:0:0:
79,316,25021,5,8,3:0:0:0:
261,319,25309,1,0,1:0:0:0:
254,334,25405,1,8,0:0:0:0:
181,256,25597,1,8,3:0:0:0:
339,347,25790,6,2,B|444:365|404:322|524:349,2,170,4|8|0,3:1|0:0|3:0,0:0:0:0:
217,384,26795,1,2,3:2:0:0:
206,256,26996,1,10,0:0:0:0:
190,76,27197,5,6,3:2:0:0:
113,145,27398,2,0,P|97:83|90:19,1,127.5,2|0,0:0|0:0,0:0:0:0:
91,3,27800,1,8,0:0:0:0:
18,57,28001,2,0,P|14:99|0:139,1,85,2|0,0:0|3:0,0:0:0:0:
44,271,28403,1,2,3:2:0:0:
175,273,28604,1,10,0:0:0:0:
311,275,28805,1,2,3:2:0:0:
235,325,29006,6,2,P|215:280|203:186,1,127.5,6|0,3:2|0:0,0:0:0:0:
205,186,29408,1,8,0:0:0:0:
260,112,29609,1,2,0:0:0:0:
285,114,29709,1,0,1:0:0:0:
310,117,29810,1,2,3:0:0:0:
430,57,30011,1,2,3:2:0:0:
389,176,30212,1,10,0:0:0:0:
327,340,30413,6,2,P|276:357|145:370,1,170,6|2,3:2|0:3,0:0:0:0:
78,320,31012,1,8,0:0:0:0:
163,261,31212,1,0,3:0:0:0:
171,237,31311,1,0,3:0:0:0:
179,212,31411,1,2,3:0:0:0:
185,187,31511,1,0,0:0:0:0:
189,162,31610,1,0,3:0:0:0:
93,198,31810,2,0,P|46:217|-2:228,1,85,2|0,1:2|0:0,0:0:0:0:
16,19,32208,5,4,3:0:0:0:
41,21,32305,1,0,3:0:0:0:
66,21,32402,1,2,0:3:0:0:
91,14,32500,1,0,3:0:0:0:
115,5,32597,1,8,3:0:0:0:
140,0,32695,1,0,0:0:0:0:
165,1,32792,1,2,0:3:0:0:
186,4,32889,1,0,3:0:0:0:
204,12,32987,2,0,L|199:66,1,42.5,2|0,3:2|0:0,0:0:0:0:
129,131,33182,2,0,P|122:106|120:75,2,42.5,2|0|0,3:0|3:0|3:0,0:0:0:0:
315,87,33571,1,6,0:0:0:0:
496,365,35378,5,4,3:0:0:0:
471,363,35476,1,0,3:0:0:0:
446,363,35575,1,2,0:3:0:0:
421,370,35674,1,0,3:0:0:0:
397,379,35773,1,8,3:0:0:0:
372,384,35872,1,0,0:0:0:0:
347,383,35971,1,2,0:3:0:0:
326,380,36069,1,0,3:0:0:0:
308,372,36168,2,0,L|313:318,1,42.5,2|0,3:2|0:0,0:0:0:0:
383,253,36366,2,0,P|390:278|392:309,2,42.5,2|0|0,3:0|3:0|3:0,0:0:0:0:
197,297,36761,1,6,0:0:0:0:
419,60,38011,5,0,3:0:0:0:
431,212,38204,2,0,P|482:176|505:138,1,85,0|0,1:0|3:0,0:0:0:0:
355,141,38591,2,2,L|156:158,1,170,4|8,0:0|0:0,0:0:0:0:
102,113,39195,1,2,0:0:0:0:
96,97,39295,1,0,1:0:0:0:
95,79,39396,1,2,3:2:0:0:
215,0,39597,2,0,P|197:48|172:84,1,85,2|8,3:2|0:0,0:0:0:0:
72,233,40000,6,0,L|160:243,1,85,2|0,3:1|0:0,0:0:0:0:
440,151,40403,2,0,L|351:140,1,85,2|8,3:1|0:0,0:0:0:0:
266,283,40805,2,0,P|251:205|245:102,1,170,2|0,0:1|0:0,0:0:0:0:
324,45,41409,1,8,1:3:0:0:
160,159,41611,1,2,0:1:0:0:
348,236,41812,6,2,P|363:238|382:241,8,21.25,6|0|0|0|0|0|0|0|8,3:2|0:0|0:0|0:0|0:0|0:0|0:0|0:0|0:0,0:0:0:0:
156,293,42517,1,0,1:0:0:0:
159,309,42617,1,2,3:2:0:0:
252,289,42819,1,0,3:0:0:0:
68,238,43020,1,8,0:0:0:0:
242,182,43221,6,2,P|240:198|238:214,8,21.25,6|0|0|0|0|0|0|0|0,3:2|0:0|0:0|0:0|0:0|0:0|0:0|0:0|3:0,0:0:0:0:
348,236,43812,2,0,P|339:202|330:146,1,85,10|0,0:0|0:0,0:0:0:0:
330,135,44108,1,0,1:0:0:0:
331,118,44207,1,2,3:2:0:0:
430,146,44404,1,0,3:0:0:0:
249,60,44602,1,10,0:0:0:0:
398,6,44799,1,0,3:0:0:0:
242,182,44996,6,2,P|226:184|204:187,8,21.25,6|0|0|0|0|0|0|0|8,3:2|0:0|0:0|0:0|0:0|0:0|0:0|0:0|0:0,0:0:0:0:
59,94,45687,1,0,1:0:0:0:
59,76,45786,1,0,3:0:0:0:
159,28,45983,2,0,P|165:66|167:126,1,85,0|8,3:0|0:0,0:0:0:0:
36,183,46378,6,2,P|21:181|4:177,8,21.25,6|0|0|0|0|0|0|0|0,3:2|0:0|0:0|0:0|0:0|0:0|0:0|0:0|3:0,0:0:0:0:
123,290,46952,2,0,P|81:296|38:298,1,85,8|0,0:0|0:0,0:0:0:0:
21,297,47241,1,0,1:0:0:0:
6,295,47337,1,0,3:0:0:0:
123,290,47529,1,0,3:0:0:0:
120,264,47625,1,0,1:0:0:0:
118,239,47721,1,8,0:0:0:0:
116,213,47818,1,0,3:0:0:0:
114,188,47914,1,0,3:0:0:0:
237,269,48106,6,0,B|316:280|296:249|373:263,1,136,6|8,3:2|0:0,0:0:0:0:
450,313,48708,2,0,P|464:283|475:236,1,68,2|0,0:0|3:0,0:0:0:0:
418,173,49109,1,2,3:2:0:0:
469,79,49310,1,10,0:0:0:0:
314,0,49510,6,0,P|318:66|331:141,1,136,0|2,3:0|3:2,0:0:0:0:
418,173,50112,1,10,0:0:0:0:
371,262,50313,1,2,0:0:0:0:
357,259,50413,1,0,1:0:0:0:
344,255,50514,1,0,3:0:0:0:
267,195,50714,1,2,3:2:0:0:
173,215,50915,1,8,0:0:0:0:
163,306,51100,1,2,3:2:0:0:
28,364,51312,6,0,P|40:320|55:223,1,136,0|8,3:0|0:0,0:0:0:0:
34,141,51904,2,0,L|78:151,2,34,2|0|2,0:0|1:0|3:2,0:0:0:0:
0,0,52298,1,0,3:0:0:0:
80,64,52496,1,10,0:0:0:0:
211,124,52693,6,2,P|243:135|356:155,1,136,2|0,3:2|3:0,0:0:0:0:
457,161,53285,1,8,0:0:0:0:
378,232,53483,1,2,0:0:0:0:
379,246,53581,1,0,1:0:0:0:
382,258,53680,1,0,3:0:0:0:
436,350,53877,1,0,3:0:0:0:
467,272,54075,5,10,0:0:0:0:
355,380,54272,1,0,3:0:0:0:
241,317,54469,2,0,P|176:313|78:310,2,152.999995330811,6|8|2,3:1|0:0|3:1,0:0:0:0:
241,317,55502,1,0,3:0:0:0:
356,181,55702,5,2,1:0:0:0:
275,238,55902,2,0,P|260:201|250:153,1,76.4999976654053,0|0,3:0|0:0,0:0:0:0:
123,165,56279,2,0,P|144:106|157:0,2,152.999995330811,2|2|2,3:1|0:0|3:1,0:0:0:0:
290,343,57455,1,2,1:0:0:0:
184,262,57666,6,0,P|216:261|267:250,1,76.4999976654053,0|0,3:0|0:0,0:0:0:0:
396,189,58063,2,0,P|363:187|313:177,1,76.4999976654053,2|0,1:0|0:0,0:0:0:0:
306,172,58361,1,8,0:0:0:0:
293,162,58460,1,2,3:1:0:0:
221,106,58659,1,0,3:0:0:0:
342,270,58858,5,2,1:0:0:0:
364,115,59056,2,0,P|359:71|350:32,1,85,2|0,3:2|0:0,0:0:0:0:
224,14,59454,2,2,P|179:14|109:189,1,255,6|0,0:0|0:0,0:0:0:0:
188,229,60248,1,8,0:0:0:0:
207,210,60348,1,0,1:0:0:0:
219,189,60447,1,8,3:2:0:0:
173,108,60646,1,2,0:0:0:0:
342,185,60844,6,2,P|417:180|518:166,2,170,4|8|0,3:1|0:0|3:0,0:0:0:0:
248,88,61844,1,2,3:2:0:0:
207,210,62044,1,10,0:0:0:0:
141,384,62244,5,6,3:2:0:0:
75,293,62444,2,0,P|60:258|39:158,1,127.5,2|0,0:0|0:0,0:0:0:0:
44,154,62838,1,8,0:0:0:0:
0,33,63036,2,0,P|44:48|84:59,1,85,2|0,0:0|3:0,0:0:0:0:
143,140,63430,1,2,3:2:0:0:
277,131,63628,1,10,0:0:0:0:
410,120,63825,1,2,3:2:0:0:
339,42,64022,6,2,P|334:77|345:181,1,127.5,6|0,3:2|0:0,0:0:0:0:
346,184,64417,1,8,0:0:0:0:
442,204,64615,2,0,P|462:207|483:212,2,42.5,2|0|2,0:0|1:0|3:0,0:0:0:0:
343,269,65009,1,2,3:2:0:0:
217,299,65207,1,10,0:0:0:0:
34,333,65404,6,2,P|13:264|4:147,1,170,6|2,3:2|0:3,0:0:0:0:
102,113,65998,1,8,0:0:0:0:
94,222,66197,1,0,3:0:0:0:
112,239,66296,1,0,3:0:0:0:
133,254,66395,1,2,3:0:0:0:
156,264,66495,1,0,0:0:0:0:
186,274,66594,1,0,3:0:0:0:
187,157,66793,2,0,P|228:148|267:132,1,85,2|0,1:2|0:0,0:0:0:0:
357,10,67190,5,4,3:0:0:0:
380,1,67286,1,0,3:0:0:0:
406,0,67382,1,2,0:3:0:0:
430,8,67478,1,0,3:0:0:0:
451,22,67575,1,8,3:0:0:0:
466,43,67671,1,0,0:0:0:0:
474,67,67767,1,2,0:3:0:0:
473,92,67864,1,0,3:0:0:0:
462,118,67960,2,0,L|451:174,1,42.5,2|0,3:2|0:0,0:0:0:0:
469,243,68153,2,0,P|492:242|517:236,2,42.5,2|0|0,3:0|3:0|3:0,0:0:0:0:
333,168,68538,1,6,0:0:0:0:
155,374,70448,5,4,3:0:0:0:
132,383,70545,1,0,3:0:0:0:
106,384,70642,1,2,0:3:0:0:
82,376,70739,1,0,3:0:0:0:
61,362,70836,1,8,3:0:0:0:
46,341,70934,1,0,0:0:0:0:
38,317,71031,1,2,0:3:0:0:
39,292,71128,1,0,3:0:0:0:
50,266,71225,2,0,L|61:210,1,42.5,2|0,3:2|0:0,0:0:0:0:
43,141,71420,2,0,P|20:143|-5:148,2,42.5,2|0|0,3:0|3:0|3:0,0:0:0:0:
179,216,71809,1,6,0:0:0:0:
512,0,73098,5,0,3:0:0:0:
430,40,73291,2,0,P|405:73|392:127,1,85,0|0,1:0|3:0,0:0:0:0:
508,219,73678,2,2,B|410:196|446:236|329:210,1,170,4|8,0:0|0:0,0:0:0:0:
251,176,74290,1,2,0:0:0:0:
255,192,74392,1,0,1:0:0:0:
259,208,74494,1,2,3:2:0:0:
343,297,74698,2,0,P|376:308|436:319,1,85,2|8,3:2|0:0,0:0:0:0:
374,146,75106,2,0,L|362:50,1,85,2|0,3:1|0:0,0:0:0:0:
138,238,75511,2,0,P|152:282|150:334,1,85,2|8,3:1|0:0,0:0:0:0:
272,278,75914,6,0,L|242:109,1,170,2|0,0:1|0:0,0:0:0:0:
172,0,76518,1,8,1:3:0:0:
172,180,76719,1,2,0:1:0:0:
326,89,76920,1,6,3:2:0:0:
51,44,82868,5,0,3:0:0:0:
52,52,82957,1,0,3:0:0:0:
54,60,83046,1,2,0:3:0:0:
55,69,83134,1,0,3:0:0:0:
57,77,83223,1,0,3:0:0:0:
58,85,83339,1,0,3:0:0:0:
59,95,83455,2,2,P|76:97|92:101,8,21.25,6|0|0|0|0|0|0|0|8,3:2|0:0|0:0|0:0|0:0|0:0|0:0|0:0|0:0,0:0:0:0:
3,317,84144,1,0,1:0:0:0:
19,311,84243,1,2,3:2:0:0:
125,235,84440,1,0,3:0:0:0:
26,193,84637,1,8,0:0:0:0:
118,344,84834,6,2,L|115:377,8,21.25,6|0|0|0|0|0|0|0|0,3:2|0:0|0:0|0:0|0:0|0:0|0:0|0:0|3:0,0:0:0:0:
238,358,85425,2,0,P|223:324|209:258,1,85,10|0,0:0|0:0,0:0:0:0:
208,260,85721,1,0,1:0:0:0:
208,243,85819,1,2,3:2:0:0:
307,291,86016,1,0,3:0:0:0:
207,146,86213,1,10,0:0:0:0:
362,156,86410,1,0,3:0:0:0:
204,46,86607,6,2,P|182:54|166:57,8,21.25,6|0|0|0|0|0|0|0|8,3:2|0:0|0:0|0:0|0:0|0:0|0:0|0:0|0:0,0:0:0:0:
478,4,87314,1,0,1:0:0:0:
474,20,87415,1,0,3:0:0:0:
389,83,87617,2,0,P|378:42|376:-7,1,85,0|8,3:0|0:0,0:0:0:0:
483,169,88021,6,2,P|488:184|497:199,8,21.25,6|0|0|0|0|0|0|0|0,3:2|0:0|0:0|0:0|0:0|0:0|0:0|0:0|3:0,0:0:0:0:
512,297,88603,2,0,P|470:288|422:281,1,85,8|0,0:0|0:0,0:0:0:0:
262,259,88992,1,8,3:0:0:0:
327,103,89284,5,0,1:0:0:0:
323,119,89381,1,8,0:0:0:0:
390,214,89576,1,8,3:0:0:0:
243,94,89778,6,2,B|174:81|149:119|64:92,2,170,4|8|0,3:1|0:0|3:0,0:0:0:0:
380,40,90764,1,2,3:2:0:0:
332,162,90962,1,10,0:0:0:0:
256,337,91159,5,6,3:2:0:0:
362,280,91356,2,0,P|408:265|498:261,1,127.5,2|0,0:0|0:0,0:0:0:0:
503,262,91749,1,8,0:0:0:0:
462,382,91946,2,0,P|423:378|373:362,1,85,2|0,0:0|3:0,0:0:0:0:
288,264,92339,1,2,3:2:0:0:
161,283,92536,1,10,0:0:0:0:
30,304,92733,5,2,3:2:0:0:
34,320,92831,1,0,1:0:0:0:
42,334,92929,2,2,P|63:293|73:207,1,127.5,6|0,3:2|0:0,0:0:0:0:
70,195,93323,1,8,0:0:0:0:
51,101,93519,1,2,0:0:0:0:
25,104,93618,1,0,1:0:0:0:
0,108,93716,1,2,3:0:0:0:
85,5,93913,1,2,3:2:0:0:
193,78,94110,1,10,0:0:0:0:
346,160,94306,6,2,P|419:156|518:137,1,170,6|2,3:2|0:3,0:0:0:0:
445,55,94896,1,8,0:0:0:0:
341,80,95093,1,0,3:0:0:0:
315,79,95192,1,0,3:0:0:0:
290,76,95290,1,2,3:0:0:0:
265,72,95388,1,0,0:0:0:0:
237,68,95487,1,0,3:0:0:0:
272,172,95683,2,0,P|273:216|280:260,1,85,2|0,1:2|0:0,0:0:0:0:
415,384,96077,5,4,3:0:0:0:
426,360,96173,1,0,3:0:0:0:
415,336,96270,1,2,0:3:0:0:
426,312,96367,1,0,3:0:0:0:
415,288,96464,1,8,3:0:0:0:
426,264,96560,1,0,0:0:0:0:
415,240,96657,1,2,0:3:0:0:
426,216,96754,1,0,3:0:0:0:
415,192,96851,2,0,L|371:200,1,42.5,2|0,3:2|0:0,0:0:0:0:
272,172,97044,2,0,P|254:152|245:129,2,42.5,2|0|0,3:0|3:0|3:0,0:0:0:0:
305,275,97431,1,6,0:0:0:0:
97,0,99240,5,4,3:0:0:0:
86,24,99338,1,0,3:0:0:0:
97,48,99436,1,2,0:3:0:0:
86,72,99534,1,0,3:0:0:0:
97,96,99632,1,8,3:0:0:0:
86,120,99730,1,0,0:0:0:0:
97,144,99828,1,2,0:3:0:0:
86,168,99926,1,0,3:0:0:0:
97,192,100024,2,0,L|141:184,1,42.5,2|0,3:2|0:0,0:0:0:0:
240,212,100220,2,0,P|258:232|267:255,2,42.5,2|0|0,3:0|3:0|3:0,0:0:0:0:
207,109,100612,1,6,0:0:0:0:
0,384,101875,5,0,3:0:0:0:
26,291,102074,1,0,1:0:0:0:
99,353,102272,1,0,3:0:0:0:
236,265,102470,2,2,B|326:243|302:290|418:263,1,170,4|8,0:0|0:0,0:0:0:0:
500,182,103070,1,2,0:0:0:0:
504,165,103170,1,0,1:0:0:0:
508,148,103270,1,2,3:2:0:0:
349,51,103470,2,0,P|358:83|395:134,1,85,2|8,3:2|0:0,0:0:0:0:
487,280,103870,6,0,L|397:264,1,85,2|0,3:1|0:0,0:0:0:0:
25,104,104270,2,0,L|115:120,1,85,2|8,3:1|0:0,0:0:0:0:
238,281,104670,2,0,P|267:209|271:99,1,170,2|0,0:1|0:0,0:0:0:0:
193,41,105270,1,8,1:3:0:0:
342,219,105470,1,2,0:1:0:0:
229,368,105670,1,4,3:1:0:0:
256,192,105870,12,0,108470,0:0:0:0:
