osu file format v14

[General]
AudioFilename: audio.mp3
AudioLeadIn: 0
PreviewTime: 25790
Countdown: 0
SampleSet: Soft
StackLeniency: 0.7
Mode: 0
LetterboxInBreaks: 0
WidescreenStoryboard: 1

[Editor]
Bookmarks: 105670
DistanceSpacing: 1.2
BeatDivisor: 4
GridSize: 16
TimelineZoom: 1.9

[Metadata]
Title:Your New Boyfriend
TitleUnicode:Your New Boyfriend
Artist:Rocketship
ArtistUnicode:Rocketship
Creator:hewwo
Version:Hard
Source:
Tags:renumi ralsei soft rock english indie twee pop rarities
BeatmapID:3000577
BeatmapSetID:1460323

[Difficulty]
HPDrainRate:5
CircleSize:3.8
OverallDifficulty:6
ApproachRate:7
SliderMultiplier:1.5
SliderTickRate:1

[Events]
//Background and Video events
0,0,"karolg.jpg",0,0
//Break Periods
2,80242,81968
//Storyboard Layer 0 (Background)
//Storyboard Layer 1 (Fail)
//Storyboard Layer 2 (Pass)
//Storyboard Layer 3 (Foreground)
//Storyboard Layer 4 (Overlay)
//Storyboard Sound Samples

[TimingPoints]
378,397.350993377486,4,2,1,40,1,0
3556,408.163265306125,4,2,1,40,1,0
6004,382.165605095544,4,2,1,60,1,0
6768,399.334442595676,4,2,1,75,1,0
9962,392.1568627451,4,2,1,75,1,0
13099,389.610389610392,4,2,1,75,1,0
13099,-111.111111111111,4,2,1,75,0,0
13488,-111.111111111111,4,2,1,60,0,0
14462,441.176470588239,4,2,1,60,1,0
14657,402.684563758392,4,2,1,60,1,0
14657,-111.111111111111,4,2,1,60,0,0
16267,396.694214876035,4,2,1,60,1,0
16267,-111.111111111111,4,2,1,60,0,0
19440,-111.111111111111,4,2,1,65,0,0
24200,410.958904109591,4,2,1,65,1,0
24200,-111.111111111111,4,2,1,65,0,0
25021,384.615384615386,4,2,1,65,1,0
25790,402.010050251258,4,2,1,80,1,0
30413,-99.009900990099,4,2,1,80,0,0
30614,398.671096345517,4,2,1,80,1,0
32208,389.610389610392,4,2,1,65,1,1
32987,-100,4,2,1,80,0,1
33571,359.28143712575,4,2,1,80,1,1
34469,454.545454545457,4,2,1,80,1,1
35378,395.38714991763,4,2,1,65,1,1
36168,-100,4,2,1,80,0,1
36761,345.323741007196,4,2,1,80,1,1
37624,387.09677419355,4,2,1,65,1,1
38591,402.684563758391,4,2,1,80,1,0
43221,394.736842105265,4,2,1,75,1,0
43418,394.736842105265,4,2,1,75,1,0
46378,381.558028616854,4,2,1,75,1,0
46568,384.615384615385,4,2,1,75,1,0
48106,401.337792642142,4,2,1,75,1,0
48106,-111.111111111111,4,2,1,75,0,0
48507,-111.111111111111,4,2,1,60,0,0
50915,370.370370370372,4,2,1,60,1,0
51100,425.53191489362,4,2,1,60,1,0
51312,394.736842105266,4,2,1,60,1,0
51312,-111.111111111111,4,2,1,60,0,0
54469,416.66666666667,4,2,1,65,1,0
54469,-111.111111111111,4,2,1,65,0,0
55302,400.000000000003,4,2,1,65,1,0
55302,-111.111111111111,4,2,1,65,0,0
55902,377.35849056604,4,2,1,65,1,0
55902,-111.111111111111,4,2,1,65,0,0
57034,421.940928270042,4,2,1,65,1,0
57666,397.350993377486,4,2,1,65,1,0
57666,-111.111111111111,4,2,1,65,0,0
59056,-100,4,2,1,65,0,0
60844,400.000000000003,4,2,1,80,1,0
62444,394.736842105266,4,2,1,80,1,0
65601,397.350993377486,4,2,1,80,1,0
67190,385.232744783309,4,2,1,65,1,1
67960,-100,4,2,1,80,0,1
68538,377.35849056604,4,2,1,80,1,1
69481,483.870967741939,4,2,1,80,1,1
70448,388.978930307944,4,2,1,65,1,1
71225,-100,4,2,1,80,0,1
71809,361.445783132532,4,2,1,80,1,1
72712,386.473429951693,4,2,1,65,1,1
73678,408.163265306125,4,2,1,80,1,0
75310,402.684563758392,4,2,1,80,1,0
76920,422.535211267609,4,2,1,80,1,0
78610,408.163265306125,4,2,1,40,1,0
82691,355.029585798819,4,2,1,60,1,0
83223,464.037122969838,4,2,1,60,1,0
83455,394.088669950741,4,2,1,75,1,0
86607,404.040404040407,4,2,1,75,1,0
88021,388.978930307944,4,2,1,75,1,0
88215,388.978930307944,4,2,1,75,1,0
89778,394.736842105266,4,2,1,80,1,1
91356,393.442622950822,4,2,1,80,1,1
96077,387.096774193551,4,2,1,65,1,1
96851,-100,4,2,1,80,0,1
97431,365.853658536587,4,2,1,80,1,1
98345,447.761194029854,4,2,1,80,1,1
99240,392.1568627451,4,2,1,65,1,1
100024,-100,4,2,1,80,0,1
100612,346.820809248557,4,2,1,80,1,1
101479,396.694214876036,4,2,1,65,1,1
102470,400.000000000003,4,2,1,80,1,0
108470,-100,4,2,1,5,0,0

[Colours]
Combo1 : 209,243,223
Combo2 : 190,203,248
Combo3 : 222,153,141

[HitObjects]
275,81,6195,5,0,3:0:0:0:
275,81,6290,1,0,3:0:0:0:
275,81,6386,2,0,P|317:100|338:105,2,37.5,2|0|0,0:3|3:0|3:0,0:0:0:0:
189,37,6768,2,2,P|181:114|168:198,1,150,6|8,3:2|0:0,0:0:0:0:
74,282,7466,1,0,1:0:0:0:
80,302,7566,1,2,3:2:0:0:
149,356,7766,2,0,P|198:371|236:371,1,75,0|8,3:0|0:0,0:0:0:0:
315,371,8165,6,2,P|405:351|479:343,1,150,6|0,3:2|3:0,0:0:0:0:
503,272,8764,2,0,P|461:238|415:171,1,112.5,10|0,0:0|1:0,0:0:0:0:
416,175,9164,1,2,3:2:0:0:
453,92,9363,1,0,3:0:0:0:
395,33,9563,2,0,P|364:54|310:72,1,75,10|0,0:0|3:0,0:0:0:0:
246,81,9962,6,2,L|79:66,1,150,6|8,3:2|0:0,0:0:0:0:
5,207,10648,1,0,1:0:0:0:
23,200,10746,2,0,P|49:164|64:124,1,75,0|0,3:0|3:0,0:0:0:0:
96,67,11138,1,8,0:0:0:0:
149,129,11334,6,2,L|164:282,1,150,6|0,3:2|3:0,0:0:0:0:
221,337,11922,2,0,P|267:357|332:354,1,112.5,8|0,0:0|1:0,0:0:0:0:
349,351,12314,1,0,3:0:0:0:
381,269,12511,1,0,3:0:0:0:
458,240,12707,1,8,0:0:0:0:
495,170,12903,5,0,3:0:0:0:
495,170,13001,1,0,1:0:0:0:
495,170,13099,2,0,B|425:155|438:177|356:164,1,134.999995880127,6|8,3:2|0:0,0:0:0:0:
312,99,13683,1,2,0:0:0:0:
231,88,13878,1,0,3:0:0:0:
205,164,14073,2,0,P|165:194|144:203,1,67.4999979400635,2|8,3:2|0:0,0:0:0:0:
70,208,14462,6,0,L|91:346,1,134.999995880127,2|0,3:2|3:0,0:0:0:0:
249,371,15261,1,2,0:0:0:0:
309,316,15462,2,0,P|356:302|395:304,1,67.4999979400635,0|0,3:0|3:0,0:0:0:0:
457,321,15865,2,0,P|464:291|469:253,1,67.4999979400635,10|0,0:0|3:0,0:0:0:0:
430,182,16267,6,0,L|416:42,1,134.999995880127,2|8,3:2|0:0,0:0:0:0:
342,13,16862,1,2,0:0:0:0:
342,13,16961,1,0,1:0:0:0:
342,13,17060,1,0,3:0:0:0:
175,32,17457,1,8,0:0:0:0:
111,83,17655,6,0,L|133:221,1,134.999995880127,2|0,3:2|3:0,0:0:0:0:
179,280,18250,1,8,0:0:0:0:
135,349,18448,1,2,0:0:0:0:
135,349,18547,1,0,1:0:0:0:
135,349,18647,2,0,P|92:361|50:366,1,67.4999979400635,0|0,3:0|3:0,0:0:0:0:
0,269,19043,2,0,P|44:283|84:285,1,67.4999979400635,10|2,0:0|0:0,0:0:0:0:
179,280,19440,6,0,B|251:264|231:299|328:267,2,134.999995880127,6|8|2,3:1|0:0|3:1,0:0:0:0:
26,203,20630,1,2,1:0:0:0:
96,164,20828,2,0,P|97:86|86:18,1,134.999995880127,0|2,3:0|3:1,0:0:0:0:
6,167,21622,2,0,P|-2:233|-1:301,1,134.999995880127,2|2,0:0|3:1,0:0:0:0:
155,231,22415,1,2,1:0:0:0:
205,167,22614,6,0,L|365:152,1,134.999995880127,0|2,3:0|1:0,0:0:0:0:
427,150,23209,1,0,0:0:0:0:
427,150,23308,1,8,0:0:0:0:
427,150,23407,2,0,P|423:232|364:283,1,134.999995880127,2|2,3:1|1:0,0:0:0:0:
357,344,24002,6,0,P|321:327|277:320,1,67.4999979400635,2|0,3:2|0:0,0:0:0:0:
232,374,24405,2,0,P|150:370|99:311,1,134.999995880127,2|2,3:1|0:1,0:0:0:0:
173,263,25021,1,8,3:0:0:0:
160,122,25309,1,0,1:0:0:0:
176,112,25405,2,0,P|216:66|232:37,1,75,8|8,0:0|3:0,0:0:0:0:
305,28,25790,6,2,L|300:179,2,150,4|8|0,3:1|0:0|3:0,0:0:0:0:
224,55,26795,2,0,P|190:71|145:79,1,75,2|10,3:2|0:0,0:0:0:0:
88,16,27197,5,6,3:2:0:0:
7,66,27398,2,0,P|17:141|27:220,1,150,2|8,0:0|0:0,0:0:0:0:
10,303,28001,2,0,P|84:311|158:322,1,150,2|2,0:0|3:2,0:0:0:0:
225,261,28604,1,10,0:0:0:0:
391,329,29006,6,2,P|371:284|356:164,1,150,6|8,3:2|0:0,0:0:0:0:
397,105,29609,1,2,0:0:0:0:
421,18,29810,1,2,3:0:0:0:
330,25,30011,2,0,P|296:42|267:65,1,75,2|10,3:2|0:0,0:0:0:0:
251,154,30413,6,2,P|222:126|86:118,1,150.750000575066,6|2,3:2|0:3,0:0:0:0:
33,136,31012,1,8,0:0:0:0:
76,215,31212,1,0,3:0:0:0:
76,215,31311,1,0,3:0:0:0:
76,215,31411,2,0,L|87:302,2,75,2|0|2,3:0|3:0|1:2,0:0:0:0:
214,87,32208,5,4,3:0:0:0:
222,103,32305,1,0,3:0:0:0:
229,120,32402,1,2,0:3:0:0:
234,138,32500,1,0,3:0:0:0:
235,156,32597,2,0,P|194:158|140:155,2,75,8|2|2,3:0|0:3|3:2,0:0:0:0:
120,70,33182,2,0,P|83:70|46:75,1,75,2|0,3:0|3:0,0:0:0:0:
0,159,33571,1,6,0:0:0:0:
298,297,35378,5,4,3:0:0:0:
290,281,35476,1,0,3:0:0:0:
283,264,35575,1,2,0:3:0:0:
278,246,35674,1,0,3:0:0:0:
277,228,35773,2,0,P|318:226|372:229,2,75,8|2|2,3:0|0:3|3:2,0:0:0:0:
392,314,36366,2,0,P|429:314|466:309,1,75,2|0,3:0|3:0,0:0:0:0:
512,225,36761,1,6,0:0:0:0:
252,378,38011,6,0,P|259:343|257:291,2,75,0|0|0,3:0|1:0|3:0,0:0:0:0:
171,348,38591,2,2,P|144:309|138:196,1,150,4|8,0:0|0:0,0:0:0:0:
178,120,39195,1,2,0:0:0:0:
178,120,39295,1,0,1:0:0:0:
178,120,39396,2,0,P|215:130|334:153,1,150,2|8,3:2|0:0,0:0:0:0:
297,237,40000,6,0,P|337:239|380:250,1,75,2|0,3:1|0:0,0:0:0:0:
442,194,40403,2,0,P|433:157|432:120,1,75,2|8,3:1|0:0,0:0:0:0:
324,151,40805,2,0,L|294:305,1,150,2|0,0:1|0:0,0:0:0:0:
250,367,41409,1,8,1:3:0:0:
161,350,41611,1,2,0:1:0:0:
144,265,41812,6,2,P|164:213|166:101,1,150,6|8,3:2|0:0,0:0:0:0:
48,61,42517,1,0,1:0:0:0:
60,46,42617,1,2,3:2:0:0:
143,11,42819,2,0,L|228:31,1,75,0|8,3:0|0:0,0:0:0:0:
314,11,43221,6,2,P|315:85|339:156,1,150,6|0,3:2|3:0,0:0:0:0:
403,218,43812,2,0,L|389:340,1,112.5,10|0,0:0|1:0,0:0:0:0:
387,347,44207,1,2,3:2:0:0:
311,305,44404,1,0,3:0:0:0:
236,355,44602,2,0,P|198:378|152:385,1,75,10|0,0:0|3:0,0:0:0:0:
90,339,44996,6,2,P|114:295|101:180,1,150,6|8,3:2|0:0,0:0:0:0:
48,85,45687,1,0,1:0:0:0:
62,95,45786,2,0,P|101:111|148:119,1,75,0|0,3:0|3:0,0:0:0:0:
228,110,46181,1,8,0:0:0:0:
206,200,46378,6,2,B|289:189|268:228|359:208,1,150,6|0,3:2|3:0,0:0:0:0:
412,141,46952,1,8,0:0:0:0:
373,60,47144,2,0,P|356:9|357:-5,2,37.5,0|0|0,0:0|1:0|3:0,0:0:0:0:
463,60,47529,2,0,P|498:73|518:77,2,37.5,0|0|8,3:0|1:0|0:0,0:0:0:0:
509,201,48106,6,0,P|468:208|398:278,1,134.999995880127,6|8,3:2|0:0,0:0:0:0:
476,352,48708,2,0,P|490:322|499:281,1,67.4999979400635,2|0,0:0|3:0,0:0:0:0:
395,343,49109,2,0,L|317:335,1,67.4999979400635,2|10,3:2|0:0,0:0:0:0:
252,365,49510,5,0,3:0:0:0:
131,256,49912,2,0,P|135:225|139:178,1,67.4999979400635,2|10,3:2|0:0,0:0:0:0:
123,104,50313,2,0,P|179:117|270:123,1,134.999995880127,2|2,0:0|3:2,0:0:0:0:
334,97,50915,1,8,0:0:0:0:
355,21,51100,1,2,3:2:0:0:
431,11,51312,6,0,L|445:152,1,134.999995880127,0|8,3:0|0:0,0:0:0:0:
413,304,52101,2,0,P|380:312|346:317,1,68,2|0,3:2|3:0,0:0:0:0:
281,270,52496,1,10,0:0:0:0:
214,315,52693,6,2,P|161:296|105:218,1,134.999995880127,2|0,3:2|3:0,0:0:0:0:
143,162,53285,1,8,0:0:0:0:
88,101,53483,1,2,0:0:0:0:
88,101,53581,1,0,1:0:0:0:
88,101,53680,2,0,P|32:131|7:137,1,67.4999979400635,0|0,3:0|3:0,0:0:0:0:
44,228,54075,2,0,L|135:239,1,67.4999979400635,10|0,0:0|3:0,0:0:0:0:
187,160,54469,6,0,B|265:146|239:184|346:157,2,134.999995880127,6|8|2,3:1|0:0|3:1,0:0:0:0:
91,290,55702,1,2,1:0:0:0:
44,228,55902,2,0,P|34:179|35:81,1,134.999995880127,0|2,3:0|3:1,0:0:0:0:
176,26,56656,2,0,P|186:75|185:173,1,134.999995880127,2|2,0:0|3:1,0:0:0:0:
233,333,57455,1,2,1:0:0:0:
296,274,57666,6,0,L|314:136,1,134.999995880127,0|2,3:0|1:0,0:0:0:0:
398,172,58262,1,0,0:0:0:0:
398,172,58361,1,8,0:0:0:0:
398,172,58460,2,0,P|410:216|409:251,1,67.4999979400635,2|0,3:1|3:0,0:0:0:0:
330,291,58858,5,2,1:0:0:0:
377,366,59056,2,0,P|412:376|450:378,1,75,2|0,3:2|0:0,0:0:0:0:
474,290,59454,2,2,P|456:223|311:200,1,225,6|0,0:0|0:0,0:0:0:0:
244,241,60248,1,8,0:0:0:0:
244,241,60348,1,0,1:0:0:0:
244,241,60447,1,8,3:2:0:0:
133,381,60844,6,2,P|71:372|-9:322,2,150,4|8|0,3:1|0:0|3:0,0:0:0:0:
218,350,61844,2,0,P|231:303|234:261,1,75,2|10,3:2|0:0,0:0:0:0:
208,189,62244,5,6,3:2:0:0:
300,212,62444,2,0,P|276:128|271:53,1,150,2|8,0:0|0:0,0:0:0:0:
359,47,63036,2,0,P|380:118|387:193,1,150,2|2,0:0|3:2,0:0:0:0:
447,260,63628,1,10,0:0:0:0:
281,329,64022,6,2,B|195:344|219:307|124:324,1,150,6|8,3:2|0:0,0:0:0:0:
39,309,64615,1,2,0:0:0:0:
59,220,64812,1,2,3:0:0:0:
147,207,65009,2,0,P|124:168|113:127,1,75,2|10,3:2|0:0,0:0:0:0:
60,68,65404,6,2,P|130:102|227:101,1,150,6|2,3:2|0:3,0:0:0:0:
288,82,65998,1,8,0:0:0:0:
238,15,66197,1,0,3:0:0:0:
238,15,66296,1,0,3:0:0:0:
238,15,66395,2,0,P|192:18|139:29,2,75,2|0|2,3:0|3:0|1:2,0:0:0:0:
394,115,67190,5,4,3:0:0:0:
411,116,67286,1,0,3:0:0:0:
430,122,67382,1,2,0:3:0:0:
449,127,67478,1,0,3:0:0:0:
465,134,67575,2,0,P|462:163|440:222,2,75,8|2|2,3:0|0:3|3:2,0:0:0:0:
354,207,68153,2,0,P|338:241|329:277,1,75,2|0,3:0|3:0,0:0:0:0:
368,360,68538,1,6,0:0:0:0:
118,268,70448,5,4,3:0:0:0:
101,267,70545,1,0,3:0:0:0:
82,261,70642,1,2,0:3:0:0:
63,256,70739,1,0,3:0:0:0:
47,249,70836,2,0,P|49:219|71:160,2,75,8|2|2,3:0|0:3|3:2,0:0:0:0:
158,176,71420,2,0,P|173:141|182:105,1,75,2|0,3:0|3:0,0:0:0:0:
141,17,71809,1,6,0:0:0:0:
433,87,73098,6,0,P|420:48|414:6,2,75,0|0|0,3:0|1:0|3:0,0:0:0:0:
485,154,73678,2,2,P|503:203|490:325,1,150,4|8,0:0|0:0,0:0:0:0:
421,335,74290,1,2,0:0:0:0:
421,335,74392,1,0,1:0:0:0:
421,335,74494,2,0,P|416:288|430:243,1,75,2|2,3:2|3:2,0:0:0:0:
382,180,74902,1,8,0:0:0:0:
325,249,75106,6,0,P|276:276|235:286,1,75,2|0,3:1|0:0,0:0:0:0:
186,227,75511,2,0,P|173:262|153:293,1,75,2|8,3:1|0:0,0:0:0:0:
63,305,75914,2,0,P|23:242|30:169,1,150,2|0,0:1|0:0,0:0:0:0:
75,91,76518,1,8,1:3:0:0:
161,114,76719,1,2,0:1:0:0:
234,69,76920,1,6,3:2:0:0:
451,349,82868,5,0,3:0:0:0:
451,349,82957,1,0,3:0:0:0:
451,349,83046,2,0,L|457:289,2,37.5,2|0|0,0:3|3:0|3:0,0:0:0:0:
341,346,83455,2,2,P|328:312|321:192,1,150,6|8,3:2|0:0,0:0:0:0:
282,70,84144,1,0,1:0:0:0:
268,85,84243,1,2,3:2:0:0:
205,149,84440,2,0,L|115:144,1,75,0|8,3:0|0:0,0:0:0:0:
48,106,84834,6,2,P|48:180|26:252,1,150,6|0,3:2|3:0,0:0:0:0:
5,339,85425,2,0,P|45:334|127:353,1,112.5,10|0,0:0|1:0,0:0:0:0:
133,355,85819,1,2,3:2:0:0:
200,295,86016,1,0,3:0:0:0:
263,358,86213,2,0,P|281:336|299:287,1,75,10|0,0:0|3:0,0:0:0:0:
256,215,86607,6,2,L|242:49,1,150,6|8,3:2|0:0,0:0:0:0:
366,7,87314,1,0,1:0:0:0:
363,26,87415,2,0,P|379:74|407:116,1,75,0|0,3:0|3:0,0:0:0:0:
449,163,87819,1,8,0:0:0:0:
399,240,88021,6,2,P|360:218|238:222,1,150,6|0,3:2|3:0,0:0:0:0:
176,254,88603,2,0,P|183:310|200:369,1,112.5,8|0,0:0|0:0,0:0:0:0:
205,384,88992,1,8,3:0:0:0:
342,314,89284,1,0,1:0:0:0:
355,300,89381,2,0,P|385:265|405:222,1,75,8|8,0:0|3:0,0:0:0:0:
362,156,89778,6,2,B|452:145|429:190|543:165,2,150,4|8|0,3:1|0:0|3:0,0:0:0:0:
274,202,90764,2,0,L|252:118,1,75,2|10,3:2|0:0,0:0:0:0:
263,39,91159,5,6,3:2:0:0:
183,81,91356,2,0,P|124:120|41:131,1,150,2|8,0:0|0:0,0:0:0:0:
2,209,91946,2,0,L|30:370,1,150,2|2,0:0|3:2,0:0:0:0:
115,375,92536,1,10,0:0:0:0:
151,296,92733,5,2,3:2:0:0:
151,296,92831,1,0,1:0:0:0:
151,296,92929,2,2,P|199:259|305:263,1,150,6|8,3:2|0:0,0:0:0:0:
465,266,93716,1,2,3:0:0:0:
412,193,93913,2,0,P|395:153|390:103,1,75,2|10,3:2|0:0,0:0:0:0:
445,55,94306,6,2,P|384:13|310:13,1,150,6|2,3:2|0:3,0:0:0:0:
252,83,94896,1,8,0:0:0:0:
182,25,95093,1,0,3:0:0:0:
182,25,95192,1,0,3:0:0:0:
182,25,95290,2,0,P|121:46|90:47,2,75,2|0|2,3:0|3:0|1:2,0:0:0:0:
361,59,96077,5,4,3:0:0:0:
376,69,96173,1,0,3:0:0:0:
390,81,96270,1,2,0:3:0:0:
401,96,96367,1,0,3:0:0:0:
411,114,96464,2,0,P|418:170|418:212,2,75,8|2|2,3:0|0:3|3:2,0:0:0:0:
334,237,97044,2,0,P|333:275|340:312,1,75,2|0,3:0|3:0,0:0:0:0:
418,365,97431,1,6,0:0:0:0:
151,325,99240,5,4,3:0:0:0:
136,315,99338,1,0,3:0:0:0:
122,303,99436,1,2,0:3:0:0:
111,288,99534,1,0,3:0:0:0:
101,270,99632,2,0,P|94:214|94:172,2,75,8|2|2,3:0|0:3|3:2,0:0:0:0:
178,147,100220,2,0,P|179:109|172:72,1,75,2|0,3:0|3:0,0:0:0:0:
99,23,100612,1,6,0:0:0:0:
245,375,101875,6,0,P|257:338|262:300,2,75,0|0|0,3:0|1:0|3:0,0:0:0:0:
168,327,102470,2,2,B|85:347|109:300|19:322,1,150,4|8,0:0|0:0,0:0:0:0:
6,232,103070,1,2,0:0:0:0:
6,232,103170,1,0,1:0:0:0:
6,232,103270,2,0,L|17:152,1,75,2|2,3:2|3:2,0:0:0:0:
98,117,103670,1,8,0:0:0:0:
166,175,103870,6,0,P|207:195|255:198,1,75,2|0,3:1|0:0,0:0:0:0:
335,107,104270,2,0,P|294:87|246:84,1,75,2|8,3:1|0:0,0:0:0:0:
166,175,104670,2,0,P|160:239|195:350,1,150,2|0,0:1|0:0,0:0:0:0:
266,345,105270,1,8,1:3:0:0:
345,303,105470,1,2,0:1:0:0:
269,254,105670,1,4,3:1:0:0:
256,192,105870,12,0,108470,0:0:0:0:
