osu file format v14

[General]
AudioFilename: audio.mp3
AudioLeadIn: 0
PreviewTime: 165006
Countdown: 0
SampleSet: Soft
StackLeniency: 0.7
Mode: 0
LetterboxInBreaks: 0
EpilepsyWarning: 1
WidescreenStoryboard: 1

[Editor]
Bookmarks: 7741,15241,30241,39616,45241,60241,75241,90241,105241,120241,135241,150241,165241,180241
DistanceSpacing: 0.3
BeatDivisor: 8
GridSize: 32
TimelineZoom: 0.8499999

[Metadata]
Title:Sushi Blast
TitleUnicode:Sushi Blast
Artist:Rocket Start
ArtistUnicode:Rocket Start
Creator:Shmiklak
Version:Normal
Source:
Tags:marvollo m_a_r_v_o_l_l_o instrumental electronic daycore stompy_ riffy bakari imakuri edm bass house sangonomiya kokomi cherioue dance music 8bit chiptune fa featured artist
BeatmapID:4330638
BeatmapSetID:2069690

[Difficulty]
HPDrainRate:3
CircleSize:3
OverallDifficulty:3
ApproachRate:4
SliderMultiplier:1.4
SliderTickRate:1

[Events]
//Background and Video events
0,0,"kokomi.jpg",0,0
//Break Periods
2,90441,96357
//Storyboard Layer 0 (Background)
//Storyboard Layer 1 (Fail)
//Storyboard Layer 2 (Pass)
//Storyboard Layer 3 (Foreground)
//Storyboard Layer 4 (Overlay)
//Storyboard Sound Samples

[TimingPoints]
241,468.75,4,2,1,50,1,0
7741,-111.111111111111,4,2,1,60,0,0
15241,-100,4,2,1,75,0,0
30241,-100,4,2,1,70,0,0
45241,-90.9090909090909,4,2,1,80,0,0
47116,-79.8485367289326,4,2,1,80,0,0
47584,-90.9090909090909,4,2,1,80,0,0
50866,-79.8485367289326,4,2,1,80,0,0
51334,-90.9090909090909,4,2,1,80,0,0
54616,-80.0368748159097,4,2,1,80,0,0
55084,-90.9090909090909,4,2,1,80,0,0
60241,-90.9090909090909,4,2,1,85,0,0
62116,-79.8485367289326,4,2,1,85,0,0
62584,-90.9090909090909,4,2,1,85,0,0
65866,-79.8485367289326,4,2,1,85,0,0
66334,-90.9090909090909,4,2,1,85,0,0
69616,-80.6061436321923,4,2,1,85,0,0
70084,-90.9090909090909,4,2,1,85,0,0
75241,-83.3333333333333,4,2,1,90,0,1
88366,-83.3333333333333,4,2,1,80,0,0
90241,-111.111111111111,4,2,2,60,0,0
105241,-100,4,2,1,70,0,0
135241,-90.9090909090909,4,2,1,80,0,0
137116,-79.8594276999024,4,2,1,80,0,0
137584,-90.9090909090909,4,2,1,80,0,0
140866,-79.8485367289326,4,2,1,80,0,0
141334,-90.9090909090909,4,2,1,80,0,0
150241,-90.9090909090909,4,2,1,85,0,0
152116,-80.0830952452834,4,2,1,85,0,0
152584,-90.9090909090909,4,2,1,85,0,0
155866,-79.8485367289326,4,2,1,85,0,0
156334,-90.9090909090909,4,2,1,85,0,0
159616,-80.7347751894688,4,2,1,85,0,0
160084,-90.9090909090909,4,2,1,85,0,0
165241,-83.3333333333333,4,2,1,90,0,1
178366,-83.3333333333333,4,2,1,80,0,0
180241,-83.3333333333333,4,2,1,40,0,0

[Colours]
Combo1 : 17,254,176
Combo2 : 173,255,95
Combo3 : 255,88,100
Combo4 : 255,94,55

[HitObjects]
30,63,7741,6,0,L|48:-10,2,62.9999980773926,2|2|8,3:2|3:2|0:2,0:0:0:0:
57,111,8444,1,2,3:2:0:0:
57,111,8678,2,0,P|111:132|192:140,1,125.999996154785,2|10,0:2|0:2,0:0:0:0:
224,120,9381,1,2,3:2:0:0:
308,64,9850,1,2,3:2:0:0:
308,64,10084,2,0,L|346:196,1,125.999996154785,10|0,0:2|0:0,0:0:0:0:
425,242,11022,1,10,0:2:0:0:
363,321,11491,5,2,3:2:0:0:
363,321,11725,2,0,L|230:288,1,125.999996154785,2|2,3:2|3:2,0:0:0:0:
192,304,12428,1,2,0:2:0:0:
110,254,12897,1,10,0:2:0:0:
110,254,13131,1,2,3:2:0:0:
187,188,13600,1,2,3:2:0:0:
187,188,13834,2,0,L|173:73,2,94.499997116089,8|2|2,0:0|3:2|0:0,0:0:0:0:
225,353,15241,6,0,P|260:301|334:302,1,140,6|8,3:2|0:2,0:0:0:0:
383,334,15944,1,2,3:2:0:0:
383,334,16178,2,0,P|421:319|443:297,1,70,2|2,0:2|0:2,0:0:0:0:
455,244,16647,2,0,L|419:99,2,140,10|2|10,0:2|3:1|0:2,0:0:0:0:
391,336,18053,2,0,P|333:328|236:325,1,140,2|10,0:1|0:2,0:0:0:0:
197,338,18756,1,2,3:2:0:0:
197,338,18991,6,0,P|130:316|126:254,2,140,2|8|2,3:1|0:0|0:2,0:0:0:0:
251,324,20162,1,2,0:2:0:0:
251,324,20397,2,0,P|289:313|326:307,1,70,10|2,0:2|3:2,0:0:0:0:
371,327,20866,1,2,3:1:0:0:
476,290,21334,1,10,0:1:0:0:
441,183,21803,1,2,0:1:0:0:
332,210,22272,1,8,0:0:0:0:
222,233,22741,6,0,P|182:195|228:133,1,140,6|8,3:2|0:2,0:0:0:0:
277,125,23444,1,2,3:2:0:0:
277,125,23678,2,0,L|286:52,1,70,2|2,0:2|0:2,0:0:0:0:
330,21,24147,2,0,L|488:45,2,140,10|2|10,0:2|3:1|0:2,0:0:0:0:
219,2,25553,2,0,P|158:35|110:99,1,140,2|10,0:1|0:2,0:0:0:0:
92,141,26256,1,2,3:2:0:0:
92,141,26491,6,0,L|70:287,2,140,2|8|2,3:1|0:0|0:2,0:0:0:0:
120,94,27662,1,2,0:2:0:0:
120,94,27897,2,0,P|159:100|205:116,1,70,10|2,0:2|3:2,0:0:0:0:
229,146,28366,1,2,3:1:0:0:
293,236,28834,1,10,0:1:0:0:
279,347,29303,1,2,0:1:0:0:
390,359,29772,1,8,0:2:0:0:
469,280,30241,6,0,L|431:121,1,140,2|10,3:3|0:2,0:0:0:0:
351,70,31178,2,0,L|318:206,1,140,2|10,0:2|0:2,0:0:0:0:
221,263,32116,2,0,L|183:104,1,140,2|10,0:2|0:2,0:0:0:0:
103,53,33053,2,0,L|70:189,1,140,2|10,0:2|0:2,0:0:0:0:
41,297,33991,6,0,P|92:309|168:360,1,140,2|10,3:3|0:2,0:0:0:0:
276,365,34928,2,0,P|327:353|403:302,1,140,2|10,0:2|0:2,0:0:0:0:
432,198,35866,2,0,P|420:147|369:71,1,140,2|10,0:2|0:2,0:0:0:0:
266,37,36803,2,0,P|215:49|139:100,1,140,2|10,0:2|0:2,0:0:0:0:
72,184,37741,6,0,L|-5:194,2,70,10|8|10,0:2|0:3|0:2,0:0:0:0:
171,256,38678,1,10,0:2:0:0:
171,256,38912,1,8,0:3:0:0:
171,256,39147,1,10,0:2:0:0:
279,284,39616,2,0,L|289:361,2,70,10|8|10,0:2|0:3|0:2,0:0:0:0:
366,213,40553,1,10,0:2:0:0:
366,213,40787,1,8,0:3:0:0:
366,213,41022,1,10,0:2:0:0:
256,192,41491,12,10,44303,0:3:0:0:
364,233,45241,6,0,L|351:157,1,77.0000023498536,4|2,3:2|0:0,0:0:0:0:
344,95,45709,2,0,L|500:139,2,154.000004699707,10|2|10,0:2|3:2|0:2,0:0:0:0:
257,7,47116,2,0,B|241:23|241:23|220:18|220:18|219:18|219:18|203:34|203:34|182:29|182:29|181:29|181:29|166:44|166:44|145:39|145:39|144:40|144:40|128:55|128:55|109:50,1,175.331959742392,4|10,3:3|0:2,0:0:0:0:
25,139,48053,2,0,P|106:163|116:249,1,154.000004699707,2|10,3:2|0:1,0:0:0:0:
112,284,48756,1,2,0:1:0:0:
112,284,48991,6,0,P|159:288|200:313,1,77.0000023498536,4|2,3:2|0:0,0:0:0:0:
228,344,49459,2,0,P|284:354|326:267,2,154.000004699707,10|2|10,0:2|3:2|0:2,0:0:0:0:
140,257,50866,2,0,B|132:236|132:236|145:218|145:218|145:217|145:217|138:197|138:197|151:180|151:180|151:179|151:179|143:158|143:158|157:141|157:141|157:140|157:140|149:120|149:120|161:104,1,175.331959742392,4|10,3:3|0:2,0:0:0:0:
261,34,51803,2,0,P|294:83|385:85,1,154.000004699707,2|10,3:2|0:1,0:0:0:0:
445,73,52506,1,2,0:1:0:0:
445,73,52741,6,0,P|470:111|477:143,1,77.0000023498536,4|2,3:2|0:0,0:0:0:0:
466,201,53209,2,0,L|497:365,2,154.000004699707,10|2|10,0:2|3:2|0:2,0:0:0:0:
355,145,54616,2,0,B|336:156|336:156|316:145|316:145|306:164|306:164|283:165|283:165|285:187|285:187|266:199|266:199|279:218|279:218|271:235,1,174.919378841903,4|10,3:3|0:2,0:0:0:0:
264,357,55553,2,0,L|113:323,1,154.000004699707,2|10,3:2|0:1,0:0:0:0:
79,271,56256,1,2,0:1:0:0:
79,271,56491,6,0,B|98:192,1,77.0000023498536,4|2,3:2|0:0,0:0:0:0:
109,135,56959,2,0,P|100:74|13:39,2,154.000004699707,10|2|10,0:2|3:2|0:2,0:0:0:0:
70,252,58366,1,10,0:2:0:0:
171,321,58834,1,10,0:2:0:0:
255,230,59303,1,10,0:2:0:0:
353,303,59772,1,10,0:2:0:0:
468,259,60241,6,0,L|455:183,1,77.0000023498536,4|2,3:2|0:0,0:0:0:0:
429,127,60709,2,0,P|363:85|295:114,2,154.000004699707,10|2|10,0:2|3:2|0:2,0:0:0:0:
382,241,62116,2,0,B|361:250|361:250|343:237|343:237|342:237|342:237|322:245|322:245|304:232|304:232|303:232|303:232|283:240|283:240|266:228|266:228|265:228|265:228|245:236|245:236|229:225,1,175.331959742392,4|10,3:3|0:2,0:0:0:0:
134,302,63053,2,0,L|116:150,1,154.000004699707,2|10,3:2|0:1,0:0:0:0:
113,91,63756,1,2,0:1:0:0:
113,91,63991,6,0,P|160:95|201:120,1,77.0000023498536,4|2,3:2|0:0,0:0:0:0:
234,146,64459,2,0,P|249:87|363:52,2,154.000004699707,10|2|10,0:2|3:2|0:2,0:0:0:0:
297,251,65866,2,0,B|316:238|316:238|336:246|336:246|337:246|337:246|354:234|354:234|374:242|374:242|375:242|375:242|393:229|393:229|413:238|413:238|414:237|414:237|432:225|432:225|450:232,1,175.331959742392,4|10,3:3|0:2,0:0:0:0:
473,354,66803,2,0,L|320:371,1,154.000004699707,2|10,3:2|0:2,0:0:0:0:
205,324,67741,6,0,L|212:245,1,77.0000023498536,4|2,3:2|0:0,0:0:0:0:
178,195,68209,2,0,L|14:226,2,154.000004699707,10|2|10,0:2|3:2|0:2,0:0:0:0:
246,92,69616,2,0,B|268:97|268:97|275:118|275:118|276:118|276:118|297:114|297:114|311:130|311:130|312:131|312:131|330:119|330:119|350:128|350:128|350:128|350:128|363:111|363:111|382:112,1,173.684036928108,4|10,3:3|0:2,0:0:0:0:
494,61,70553,2,0,L|460:212,1,154.000004699707,2|10,3:2|0:1,0:0:0:0:
424,262,71256,1,2,0:1:0:0:
424,262,71491,1,8,0:2:0:0:
256,192,71608,12,10,73366,0:2:0:0:
65,277,75241,6,0,P|120:328|222:322,1,167.999994873047,6|10,3:2|0:2,0:0:0:0:
265,305,75944,1,2,0:2:0:0:
265,305,76178,2,0,L|367:323,1,83.9999974365235,2|2,3:2|0:2,0:0:0:0:
398,289,76647,2,0,P|386:248|380:187,1,83.9999974365235,10|2,0:2|0:2,0:0:0:0:
400,151,77116,1,0,3:2:0:0:
322,62,77584,2,0,B|271:74|271:74|249:53|249:53|224:71|224:71|164:58,1,167.999994873047,10|0,0:2|3:2,0:0:0:0:
120,89,78287,2,0,B|82:70|82:70|26:85,2,83.9999974365235,2|10|2,0:2|0:2|0:2,0:0:0:0:
151,138,78991,6,0,P|152:226|77:240,1,167.999994873047,2|10,3:2|0:2,0:0:0:0:
32,244,79694,1,2,0:2:0:0:
32,244,79928,2,0,L|44:336,1,83.9999974365235,2|2,3:2|0:2,0:0:0:0:
86,366,80397,2,0,L|178:354,1,83.9999974365235,10|2,0:2|0:2,0:0:0:0:
228,351,80866,2,0,B|255:348|255:348|272:327|272:327|298:341|298:341|307:323|307:323|339:327|339:327|392:302,1,167.999994873047,2|10,3:2|0:2,0:0:0:0:
434,216,81803,2,0,P|351:203|262:174,1,167.999994873047,2|10,3:2|0:2,0:0:0:0:
230,135,82506,1,2,0:2:0:0:
230,135,82741,6,0,P|235:72|333:50,1,167.999994873047,6|10,3:2|0:2,0:0:0:0:
375,85,83444,1,2,0:2:0:0:
375,85,83678,2,0,P|415:82|464:70,1,83.9999974365235,2|2,3:2|0:2,0:0:0:0:
495,117,84147,2,0,P|498:157|510:206,1,83.9999974365235,10|2,0:2|0:2,0:0:0:0:
481,252,84616,1,0,3:2:0:0:
383,316,85084,2,0,B|365:291|365:291|340:285|340:285|332:290|332:290|312:295|312:295|297:285|297:285|273:274|273:274|232:285,1,167.999994873047,10|0,0:2|3:2,0:0:0:0:
178,291,85787,2,0,L|190:197,2,83.9999974365235,2|10|2,0:2|0:2|0:2,0:0:0:0:
140,336,86491,6,0,P|83:328|85:226,1,167.999994873047,2|10,3:2|0:2,0:0:0:0:
99,181,87194,1,2,0:2:0:0:
99,181,87428,2,0,P|55:51|166:123,1,335.999989746094,2|4,0:2|3:2,0:0:0:0:
256,192,88483,12,4,90241,3:2:0:0:
256,192,97741,12,2,104303,0:3:0:0:
484,104,105241,6,0,L|335:96,1,140,4|10,3:2|0:2,0:0:0:0:
299,73,105944,1,2,0:2:0:0:
299,73,106178,2,0,P|262:72|222:80,1,70,2|2,3:2|0:2,0:0:0:0:
173,78,106647,2,0,P|141:41|43:48,2,140,10|0|8,0:2|3:2|0:2,0:0:0:0:
161,189,108053,2,0,L|137:337,1,140,0|10,3:2|0:2,0:0:0:0:
187,364,108756,1,2,0:2:0:0:
187,364,108991,6,0,L|343:347,1,140,2|10,3:2|0:2,0:0:0:0:
425,297,109928,2,0,P|437:230|442:141,1,140,2|10,3:2|0:2,0:0:0:0:
418,113,110631,1,2,0:2:0:0:
418,113,110866,2,0,L|261:78,1,140,0|10,3:2|0:2,0:0:0:0:
170,66,111803,2,0,P|177:106|187:143,1,70,0|2,3:2|0:2,0:0:0:0:
207,185,112272,2,0,P|200:225|190:262,1,70,10|2,0:2|0:2,0:0:0:0:
169,304,112741,5,4,3:2:0:0:
64,342,113209,2,0,P|66:299|73:246,1,70,10|2,0:2|0:2,0:0:0:0:
47,220,113678,2,0,P|45:177|38:124,1,70,2|2,3:2|0:2,0:0:0:0:
47,94,114147,2,0,L|201:130,2,140,10|0|8,0:2|3:2|0:2,0:0:0:0:
118,9,115553,2,0,L|272:45,1,140,0|10,3:2|0:2,0:0:0:0:
304,77,116256,1,2,0:2:0:0:
304,77,116491,6,0,P|354:44|437:69,1,140,2|10,3:2|0:2,0:0:0:0:
460,168,117428,2,0,P|410:201|327:176,1,140,2|10,3:2|0:2,0:0:0:0:
288,165,118131,1,2,0:2:0:0:
288,165,118366,2,0,L|253:322,2,140,0|10|2,3:2|0:2|0:2,0:0:0:0:
229,69,119772,1,10,0:2:0:0:
123,106,120241,6,0,L|41:240,1,140,2|10,3:3|0:2,0:0:0:0:
6,328,121178,2,0,L|150:306,1,140,10|10,0:2|0:2,0:0:0:0:
241,250,122116,2,0,L|400:288,1,140,10|10,0:2|0:2,0:0:0:0:
468,346,123053,2,0,L|501:210,1,140,10|10,0:2|0:2,0:0:0:0:
480,99,123991,6,0,P|429:87|353:36,1,140,2|10,3:3|0:2,0:0:0:0:
245,24,124928,2,0,P|194:36|118:87,1,140,10|10,0:2|0:2,0:0:0:0:
62,178,125866,2,0,P|74:229|125:305,1,140,10|10,0:2|0:2,0:0:0:0:
218,357,126803,2,0,P|269:345|345:294,1,140,10|10,0:2|0:2,0:0:0:0:
417,214,127741,6,0,L|494:204,2,70,10|8|10,0:2|0:3|0:2,0:0:0:0:
339,132,128678,1,10,0:2:0:0:
339,132,128912,1,8,0:3:0:0:
339,132,129147,1,10,0:2:0:0:
228,115,129616,2,0,L|218:38,2,70,10|8|10,0:2|0:3|0:2,0:0:0:0:
150,195,130553,1,10,0:2:0:0:
150,195,130787,1,8,0:3:0:0:
150,195,131022,1,10,0:2:0:0:
256,192,131491,12,10,134303,0:3:0:0:
88,110,135241,5,4,3:2:0:0:
144,219,135709,2,0,P|51:228|-14:179,2,154.000004699707,10|2|10,0:2|0:2|0:2,0:0:0:0:
224,125,137116,2,0,B|239:108|239:108|261:112|261:112|281:101|281:101|300:111|300:111|301:112|301:112|322:108|322:108|337:124|337:124|338:124|338:124|359:127|359:127|367:144,1,175.30804853568,4|10,3:3|0:2,0:0:0:0:
416,258,138053,2,0,P|396:316|378:330,1,77.0000023498536,2|0,0:2|3:0,0:0:0:0:
327,346,138522,2,0,L|246:327,1,77.0000023498536,2|2,0:2|0:2,0:0:0:0:
193,309,138991,5,0,3:2:0:0:
139,198,139459,2,0,P|81:256|74:344,2,154.000004699707,10|2|10,0:2|3:2|0:2,0:0:0:0:
198,180,140631,1,2,0:2:0:0:
198,180,140866,2,0,B|215:165|215:165|236:172|236:172|237:172|237:172|254:158|254:158|274:164|274:164|275:164|275:164|292:150|292:150|313:157|313:157|314:157|314:157|330:143|330:143|349:149,1,175.331959742392,2|10,3:2|0:2,0:0:0:0:
439,66,141803,2,0,P|406:17|315:15,1,154.000004699707,2|10,3:2|0:2,0:0:0:0:
271,54,142506,1,2,0:2:0:0:
271,54,142741,6,0,P|233:79|201:86,1,77.0000023498536,0|2,3:2|0:0,0:0:0:0:
141,81,143209,2,0,L|110:245,1,154.000004699707,8|2,0:2|3:2,0:0:0:0:
106,297,143912,1,2,0:2:0:0:
106,297,144147,1,10,0:2:0:0:
210,362,144616,2,0,P|283:332|374:331,1,154.000004699707,2|10,3:2|0:2,0:0:0:0:
415,348,145319,1,2,0:2:0:0:
415,348,145553,2,0,L|449:197,1,154.000004699707,2|8,3:2|0:2,0:0:0:0:
406,81,146491,6,0,B|326:89,1,77.0000023498536,2|2,3:2|0:2,0:0:0:0:
283,129,146959,2,0,L|98:110,2,154.000004699707,10|2|10,0:2|3:2|0:2,0:0:0:0:
350,232,148366,1,10,0:2:0:0:
308,347,148834,1,10,0:2:0:0:
185,359,149303,1,10,0:2:0:0:
100,269,149772,1,10,0:2:0:0:
74,148,150241,6,0,L|87:72,1,77.0000023498536,4|2,3:2|0:0,0:0:0:0:
141,44,150709,2,0,L|310:32,2,154.000004699707,10|2|10,0:2|3:2|0:2,0:0:0:0:
64,140,152116,2,0,B|73:161|73:161|60:179|60:179|60:180|60:180|71:198|71:198|62:217|62:217|62:218|62:218|76:235|76:235|69:256|69:256|70:257|70:257|86:271|86:271|83:290,1,174.818423093738,4|10,3:3|0:2,0:0:0:0:
187,353,153053,2,0,L|339:335,1,154.000004699707,2|10,3:2|0:1,0:0:0:0:
396,305,153756,1,2,0:1:0:0:
396,305,153991,6,0,P|400:258|425:217,1,77.0000023498536,4|2,3:2|0:0,0:0:0:0:
454,186,154459,2,0,L|440:25,2,154.000004699707,10|2|10,0:2|3:2|0:2,0:0:0:0:
346,246,155866,2,0,B|325:255|325:255|307:242|307:242|306:242|306:242|286:250|286:250|268:238|268:238|267:238|267:238|247:246|247:246|230:234|230:234|229:234|229:234|209:242|209:242|193:231,1,175.331959742392,4|10,3:3|0:2,0:0:0:0:
129,123,156803,2,0,L|282:106,1,154.000004699707,2|10,3:2|0:2,0:0:0:0:
402,80,157741,6,0,L|395:159,1,77.0000023498536,4|2,3:2|0:0,0:0:0:0:
354,203,158209,2,0,L|385:367,2,154.000004699707,10|2|10,0:2|3:2|0:2,0:0:0:0:
276,107,159616,2,0,B|253:109|253:109|240:92|240:92|240:92|240:92|221:102|221:102|202:92|202:92|201:92|201:92|189:110|189:110|167:108|167:108|167:109|167:109|162:130|162:130|144:136,1,173.407312950223,4|10,3:3|0:2,0:0:0:0:
74,238,160553,2,0,L|225:272,1,154.000004699707,2|10,3:2|0:1,0:0:0:0:
271,319,161256,1,2,0:1:0:0:
271,319,161491,1,10,0:2:0:0:
256,192,161608,12,10,163366,0:2:0:0:
485,331,165241,6,0,P|456:259|354:293,1,167.999994873047,6|10,3:2|0:2,0:0:0:0:
328,294,165944,1,2,0:2:0:0:
328,294,166178,2,0,L|226:276,1,83.9999974365235,2|2,3:2|0:2,0:0:0:0:
205,235,166647,2,0,P|217:194|223:133,1,83.9999974365235,10|2,0:2|0:2,0:0:0:0:
191,102,167116,1,0,3:2:0:0:
82,56,167584,2,0,B|94:107|94:107|73:129|73:129|91:154|91:154|78:214,1,167.999994873047,10|0,0:2|3:2,0:0:0:0:
65,264,168287,2,0,B|-25:253,2,83.9999974365235,2|10|2,0:2|0:2|0:2,0:0:0:0:
98,312,168991,6,0,P|181:328|238:259,1,167.999994873047,2|10,3:2|0:2,0:0:0:0:
260,222,169694,1,2,0:2:0:0:
260,222,169928,2,0,P|304:220|352:234,1,83.9999974365235,2|2,3:2|0:2,0:0:0:0:
397,250,170397,2,0,L|385:158,1,83.9999974365235,10|2,0:2|0:2,0:0:0:0:
354,116,170866,2,0,B|327:113|327:113|310:92|310:92|284:106|284:106|275:88|275:88|243:92|243:92|190:67,1,167.999994873047,2|10,3:2|0:2,0:0:0:0:
131,161,171803,2,0,P|214:174|303:203,1,167.999994873047,2|10,3:2|0:2,0:0:0:0:
320,258,172506,1,2,0:2:0:0:
320,258,172741,6,0,P|315:321|217:343,1,167.999994873047,6|10,3:2|0:2,0:0:0:0:
174,329,173444,1,2,0:2:0:0:
174,329,173678,2,0,P|134:332|85:344,1,83.9999974365235,2|2,3:2|0:2,0:0:0:0:
44,305,174147,2,0,P|41:265|29:216,1,83.9999974365235,10|2,0:2|0:2,0:0:0:0:
11,166,174616,1,0,3:2:0:0:
71,65,175084,2,0,B|89:90|89:90|114:96|114:96|122:91|122:91|142:86|142:86|157:96|157:96|181:107|181:107|222:96,1,167.999994873047,10|0,0:2|3:2,0:0:0:0:
273,82,175787,2,0,L|285:-12,2,83.9999974365235,2|10|2,0:2|0:2|0:2,0:0:0:0:
294,137,176491,6,0,P|351:145|472:168,1,167.999994873047,2|10,3:2|0:2,0:0:0:0:
495,212,177194,1,2,0:2:0:0:
495,212,177428,2,0,P|467:285|375:283,2,167.999994873047,2|10|4,0:2|0:2|3:2,0:0:0:0:
256,192,178483,12,2,180241,0:0:0:0:
