osu file format v14

[General]
AudioFilename: audio.mp3
AudioLeadIn: 0
PreviewTime: 165006
Countdown: 0
SampleSet: Soft
StackLeniency: 0.7
Mode: 0
LetterboxInBreaks: 0
EpilepsyWarning: 1
WidescreenStoryboard: 1

[Editor]
Bookmarks: 7741,15241,30241,45241,60241,75241,90241,105241,120241,135241,150241,165241,180241
DistanceSpacing: 1.1
BeatDivisor: 4
GridSize: 32
TimelineZoom: 1.25

[Metadata]
Title:Sushi Blast
TitleUnicode:Sushi Blast
Artist:Rocket Start
ArtistUnicode:Rocket Start
Creator:Shmiklak
Version:Imakuri's Advanced
Source:
Tags:marvollo m_a_r_v_o_l_l_o instrumental electronic daycore stompy_ riffy bakari imakuri edm bass house sangonomiya kokomi cherioue dance music 8bit chiptune fa featured artist
BeatmapID:4330643
BeatmapSetID:2069690

[Difficulty]
HPDrainRate:3.5
CircleSize:3
OverallDifficulty:5
ApproachRate:6
SliderMultiplier:1.6
SliderTickRate:1

[Events]
//Background and Video events
0,0,"kokomi.jpg",0,0
//Break Periods
2,90441,104191
//Storyboard Layer 0 (Background)
//Storyboard Layer 1 (Fail)
//Storyboard Layer 2 (Pass)
//Storyboard Layer 3 (Foreground)
//Storyboard Layer 4 (Overlay)
//Storyboard Sound Samples

[TimingPoints]
241,468.75,4,2,1,50,1,0
7741,-100,4,2,1,60,0,0
15241,-100,4,2,1,75,0,0
30241,-100,4,2,1,70,0,0
45241,-100,4,2,1,80,0,0
60241,-100,4,2,1,85,0,0
75241,-100,4,2,1,90,0,0
88366,-100,4,2,1,80,0,0
90241,-100,4,2,2,60,0,0
105241,-100,4,2,1,70,0,0
135241,-100,4,2,1,80,0,0
150241,-100,4,2,1,85,0,0
165241,-100,4,2,1,90,0,0
178366,-100,4,2,1,80,0,0
180241,-100,4,2,1,40,0,0

[Colours]
Combo1 : 17,254,176
Combo2 : 173,255,95
Combo3 : 255,88,100
Combo4 : 255,94,55

[HitObjects]
81,86,7741,6,0,P|136:83|166:103,1,80,2|2,3:2|3:2,0:0:0:0:
188,125,8092,2,0,L|179:260,1,120,2|2,0:2|3:2,0:0:0:0:
171,332,8678,2,0,P|133:332|81:355,2,80,2|2|10,0:2|0:2|0:2,0:0:0:0:
256,357,9381,1,2,3:2:0:0:
380,231,9850,6,0,L|488:222,2,80,2|10|2,3:2|0:2|3:2,0:0:0:0:
341,209,10436,2,0,P|329:163|348:84,1,120,2|2,3:2|0:2,0:0:0:0:
288,24,11022,2,0,L|190:31,1,80,10|2,0:2|3:2,0:0:0:0:
123,36,11491,6,0,P|110:80|121:117,1,80,2|2,3:2|3:2,0:0:0:0:
146,146,11842,2,0,B|168:184|168:184|138:293,1,120,2|2,0:2|3:2,0:0:0:0:
69,297,12428,2,0,P|98:337|152:348,2,80,2|2|10,0:2|0:2|0:2,0:0:0:0:
69,209,13131,1,2,3:2:0:0:
188,78,13600,6,0,L|275:74,1,80,2|8,3:2|0:0,0:0:0:0:
294,39,13951,2,0,L|394:45,1,80,2|2,0:0|3:2,0:0:0:0:
486,113,14537,1,2,0:0:0:0:
322,321,15241,6,0,P|284:314|233:325,1,80,6|2,3:2|3:2,0:0:0:0:
203,339,15592,2,0,P|142:356|73:332,1,120,2|2,0:2|3:2,0:0:0:0:
31,275,16178,2,0,B|21:235|21:235|31:174,1,80,2|2,0:2|0:2,0:0:0:0:
98,144,16647,1,10,0:2:0:0:
173,190,16881,1,2,3:2:0:0:
309,75,17350,6,0,P|350:65|405:88,2,80,2|10|2,3:2|0:2|3:2,0:0:0:0:
288,114,17936,2,0,B|274:161|274:161|293:229,1,120,2|2,3:2|0:2,0:0:0:0:
366,279,18522,1,10,0:2:0:0:
317,352,18756,1,2,3:2:0:0:
230,351,18991,6,0,L|130:347,1,80,2|2,3:1|3:2,0:0:0:0:
106,345,19342,2,0,P|91:297|106:226,1,120,2|2,0:2|3:2,0:0:0:0:
177,179,19928,2,0,P|189:134|173:82,2,80,2|2|10,0:2|0:2|0:2,0:0:0:0:
101,134,20631,1,2,3:2:0:0:
114,47,20866,6,0,P|148:18|199:14,1,80,2|2,3:1|3:2,0:0:0:0:
267,32,21334,2,0,P|290:76|334:95,1,80,10|0,0:1|3:0,0:0:0:0:
359,93,21686,2,0,L|488:83,1,120,2|2,3:2|0:0,0:0:0:0:
501,174,22272,2,0,L|410:181,1,80,8|2,0:0|0:0,0:0:0:0:
361,245,22741,6,0,P|370:293|353:344,1,80,6|2,3:2|3:2,0:0:0:0:
336,357,23092,2,0,L|212:350,1,120,2|2,0:2|3:2,0:0:0:0:
160,283,23678,2,0,L|67:289,1,80,2|2,0:2|0:2,0:0:0:0:
14,230,24147,1,10,0:2:0:0:
61,156,24381,1,2,3:2:0:0:
220,230,24850,6,0,P|189:261|154:286,2,80,2|10|2,3:2|0:2|3:2,0:0:0:0:
247,195,25436,2,0,P|294:177|372:207,1,120,2|2,3:2|0:2,0:0:0:0:
416,262,26022,1,10,0:2:0:0:
371,338,26256,1,2,3:2:0:0:
284,351,26491,6,0,L|182:358,1,80,2|2,3:1|3:2,0:0:0:0:
160,359,26842,2,0,P|111:339|87:257,1,120,2|2,0:2|3:2,0:0:0:0:
63,195,27428,2,0,L|50:109,2,80,2|2|10,0:2|0:2|0:2,0:0:0:0:
151,189,28131,1,2,3:2:0:0:
222,243,28366,6,0,L|339:234,1,80,2|2,3:1|3:2,0:0:0:0:
383,202,28834,2,0,P|393:156|377:101,1,80,10|0,0:1|3:0,0:0:0:0:
376,81,29186,2,0,L|243:96,1,120,2|2,3:2|0:0,0:0:0:0:
184,43,29772,1,8,0:2:0:0:
61,171,30241,6,0,P|54:215|63:262,1,80,2|0,3:3|0:0,0:0:0:0:
91,332,30709,2,0,L|269:328,1,160,10|2,0:2|0:2,0:0:0:0:
413,259,31647,2,0,P|439:193|408:88,1,160,10|2,0:2|0:2,0:0:0:0:
262,34,32584,2,0,L|64:46,1,160,10|2,0:2|0:2,0:0:0:0:
10,193,33522,1,10,0:2:0:0:
124,323,33991,6,0,L|151:212,1,80,2|0,3:3|0:0,0:0:0:0:
163,154,34459,2,0,P|210:136|310:200,1,160,10|2,0:2|0:2,0:0:0:0:
263,351,35397,2,0,P|216:369|116:305,1,160,10|2,0:2|0:2,0:0:0:0:
289,268,36334,2,0,L|457:242,1,160,10|2,0:2|0:2,0:0:0:0:
496,74,37272,1,10,0:2:0:0:
340,157,37741,5,10,0:2:0:0:
256,192,37975,12,10,44303,0:3:0:0:
78,51,45241,6,0,P|68:91|81:135,1,80,4|2,3:2|0:0,0:0:0:0:
145,185,45709,2,0,B|249:160|249:160|325:194,1,160,10|2,0:2|3:2,0:0:0:0:
457,256,46647,1,10,0:2:0:0:
317,361,47116,6,0,L|233:353,1,80,4|0,3:3|0:0,0:0:0:0:
152,331,47584,2,0,P|121:254|155:173,1,160,10|2,0:2|3:2,0:0:0:0:
290,83,48522,1,10,0:1:0:0:
204,68,48756,1,2,0:1:0:0:
117,53,48991,6,0,P|70:54|30:82,1,80,4|2,3:2|0:0,0:0:0:0:
20,154,49459,2,0,B|36:200|36:200|25:328,1,160,10|2,0:2|3:2,0:0:0:0:
193,366,50397,1,10,0:2:0:0:
360,308,50866,6,0,L|365:218,1,80,4|0,3:3|0:0,0:0:0:0:
320,153,51334,2,0,P|262:168|168:112,1,160,10|2,0:2|3:2,0:0:0:0:
332,42,52272,1,10,0:1:0:0:
415,14,52506,1,2,0:1:0:0:
496,53,52741,6,0,P|470:93|469:147,1,80,4|2,3:2|0:0,0:0:0:0:
488,210,53209,2,0,B|503:274|503:274|485:374,1,160,10|2,0:2|3:2,0:0:0:0:
313,336,54147,1,10,0:2:0:0:
141,298,54616,6,0,P|131:251|148:207,1,80,4|0,3:3|0:0,0:0:0:0:
204,161,55084,2,0,B|256:181|256:181|387:156,1,160,10|2,0:2|3:2,0:0:0:0:
227,44,56022,1,10,0:1:0:0:
139,51,56256,1,2,0:1:0:0:
51,56,56491,6,0,P|35:111|38:151,1,80,4|2,3:2|0:0,0:0:0:0:
65,216,56959,2,0,P|122:202|223:248,1,160,10|2,0:2|3:2,0:0:0:0:
343,358,57897,1,10,0:2:0:0:
444,213,58366,6,0,P|440:157|365:183,1,160,10|10,0:2|0:2,0:0:0:0:
240,307,59303,2,0,P|180:343|161:276,1,160,10|10,0:2|0:2,0:0:0:0:
207,107,60241,6,0,P|248:100|309:113,1,80,4|2,3:2|0:0,0:0:0:0:
371,128,60709,2,0,L|348:293,1,160,10|2,0:2|3:2,0:0:0:0:
190,363,61647,1,10,0:2:0:0:
44,264,62116,6,0,P|33:215|50:169,1,80,4|0,3:3|0:0,0:0:0:0:
94,118,62584,2,0,B|171:141|171:141|262:114,1,160,10|2,0:2|3:2,0:0:0:0:
403,34,63522,1,10,0:1:0:0:
447,110,63756,1,2,0:1:0:0:
497,183,63991,6,0,P|503:223|479:279,1,80,4|2,3:2|0:0,0:0:0:0:
421,312,64459,2,0,P|375:291|258:301,1,160,10|2,0:2|3:2,0:0:0:0:
99,343,65397,1,10,0:2:0:0:
205,202,65866,6,0,P|255:179|305:175,1,80,4|0,3:3|0:0,0:0:0:0:
366,189,66334,2,0,B|402:142|402:142|370:35,1,160,10|2,0:2|3:2,0:0:0:0:
196,39,67272,1,10,0:2:0:0:
195,213,67741,6,0,P|159:222|104:204,1,80,4|2,3:2|0:0,0:0:0:0:
42,168,68209,2,0,B|22:222|22:222|52:330,1,160,10|2,0:2|3:2,0:0:0:0:
218,366,69147,1,10,0:2:0:0:
371,280,69616,6,0,P|383:235|376:196,1,80,4|0,3:3|0:0,0:0:0:0:
329,130,70084,2,0,B|281:146|281:146|156:117,1,160,10|2,0:2|3:2,0:0:0:0:
323,27,71022,1,10,0:1:0:0:
462,135,71491,6,0,P|479:191|451:296,1,160,8|10,0:2|0:2,0:0:0:0:
394,350,72194,1,0,3:0:0:0:
325,295,72428,2,0,P|281:278|157:309,1,160,10|10,0:2|0:2,0:0:0:0:
32,192,73366,5,10,0:2:0:0:
93,27,73834,1,10,0:2:0:0:
262,79,74303,1,10,0:2:0:0:
199,246,74772,1,8,0:0:0:0:
384,299,75241,6,0,L|492:316,2,80,6|2|10,3:2|0:2|0:2,0:0:0:0:
326,233,75944,1,2,0:2:0:0:
267,168,76178,2,0,P|304:150|369:156,1,80,2|2,3:2|0:2,0:0:0:0:
431,150,76647,1,10,0:2:0:0:
497,208,76881,1,2,0:2:0:0:
417,363,77350,6,0,L|509:356,2,80,2|10|2,0:2|0:2|0:2,0:0:0:0:
379,340,77936,2,0,L|259:333,1,120,2|2,0:2|0:2,0:0:0:0:
180,371,78522,1,10,0:2:0:0:
105,326,78756,1,2,0:2:0:0:
36,272,78991,6,0,P|31:228|41:174,1,80,2|2,3:2|0:2,0:0:0:0:
105,139,79459,2,0,L|192:134,1,80,10|2,0:2|0:2,0:0:0:0:
259,182,79928,1,2,3:2:0:0:
332,133,80162,1,2,0:2:0:0:
402,187,80397,2,0,P|423:221|427:276,1,80,10|2,0:2|0:2,0:0:0:0:
410,299,80748,6,0,L|279:291,1,120,2|2,0:2|0:2,0:0:0:0:
212,333,81334,2,0,P|202:288|216:242,1,80,10|2,0:2|0:2,0:0:0:0:
259,182,81803,2,0,P|271:133|256:87,1,80,2|2,3:2|0:2,0:0:0:0:
189,61,82272,1,10,0:2:0:0:
111,101,82506,1,2,0:2:0:0:
33,143,82741,6,0,L|34:235,2,80,6|2|10,3:2|0:2|0:2,0:0:0:0:
33,55,83444,1,2,0:2:0:0:
111,101,83678,2,0,P|147:137|198:145,1,80,2|2,3:2|0:2,0:0:0:0:
250,101,84147,1,10,0:2:0:0:
330,140,84381,1,2,0:2:0:0:
456,208,84850,6,0,P|466:155|455:117,2,80,2|10|2,0:2|0:2|0:2,0:0:0:0:
422,236,85436,2,0,B|365:253|365:253|292:231,1,120,2|2,0:2|0:2,0:0:0:0:
251,167,86022,1,10,0:2:0:0:
306,97,86256,1,2,0:2:0:0:
248,32,86491,6,0,L|157:27,1,80,2|2,3:2|0:2,0:0:0:0:
96,78,86959,2,0,P|87:121|98:167,1,80,10|2,0:2|0:2,0:0:0:0:
146,227,87428,1,2,0:2:0:0:
97,300,87662,1,2,0:2:0:0:
161,361,87897,2,0,L|252:348,1,80,10|2,0:2|0:2,0:0:0:0:
327,331,88366,5,4,3:2:0:0:
256,192,88483,12,4,90241,3:2:0:0:
64,71,105241,6,0,P|130:50|221:92,1,160,4|10,3:2|0:2,0:0:0:0:
271,147,105944,1,2,0:2:0:0:
328,214,106178,2,0,L|311:304,1,80,2|2,3:2|0:2,0:0:0:0:
239,340,106647,2,0,P|201:301|167:289,1,80,10|2,0:2|0:2,0:0:0:0:
28,198,107350,6,0,L|43:118,2,80,2|8|2,0:2|0:2|0:2,0:0:0:0:
81,267,108053,1,0,3:2:0:0:
256,249,108522,2,0,P|293:227|321:191,1,80,10|2,0:2|0:2,0:0:0:0:
347,116,108991,6,0,B|296:103|296:103|180:121,1,160,2|10,3:2|0:2,0:0:0:0:
42,214,109928,2,0,L|49:302,1,80,2|2,3:2|0:2,0:0:0:0:
120,345,110397,1,10,0:2:0:0:
194,289,110631,6,0,B|235:278|273:293|273:293|311:309|356:292,1,160,2|2,0:2|0:2,0:0:0:0:
402,221,111334,1,10,0:2:0:0:
470,278,111569,2,0,P|484:254|431:137,1,160,2|2,0:2|0:2,0:0:0:0:
353,150,112272,1,10,0:2:0:0:
191,82,112741,6,0,B|136:65|136:65|6:93,1,160,4|10,3:2|0:2,0:0:0:0:
36,175,113444,1,2,0:2:0:0:
93,243,113678,2,0,P|137:250|184:240,1,80,2|2,3:2|0:2,0:0:0:0:
248,202,114147,1,10,0:2:0:0:
319,149,114381,6,0,B|337:196|337:196|304:319,2,160,2|2|2,0:2|0:2|0:2,0:0:0:0:
277,75,115553,1,0,3:2:0:0:
117,149,116022,2,0,P|111:198|117:234,1,80,10|2,0:2|0:2,0:0:0:0:
148,310,116491,6,0,L|318:301,1,160,2|10,3:2|0:2,0:0:0:0:
439,186,117428,2,0,P|444:141|438:95,1,80,2|2,3:2|0:2,0:0:0:0:
374,49,117897,1,10,0:2:0:0:
302,100,118131,6,0,L|130:109,1,160,2|2,0:2|0:2,0:0:0:0:
88,178,118834,1,10,0:2:0:0:
148,243,119069,2,0,P|221:260|314:224,1,160,2|2,0:2|0:2,0:0:0:0:
354,165,119772,1,10,0:2:0:0:
490,277,120241,6,0,P|498:313|485:362,1,80,2|0,3:3|0:0,0:0:0:0:
401,357,120709,2,0,L|223:353,1,160,10|10,0:2|0:2,0:0:0:0:
97,254,121647,2,0,P|71:188|102:83,1,160,10|10,0:2|0:2,0:0:0:0:
250,34,122584,2,0,L|448:46,1,160,10|10,0:2|0:2,0:0:0:0:
502,193,123522,1,10,0:2:0:0:
388,323,123991,6,0,L|361:212,1,80,2|0,3:3|0:0,0:0:0:0:
349,154,124459,2,0,P|302:136|202:200,1,160,10|10,0:2|0:2,0:0:0:0:
249,351,125397,2,0,P|296:369|396:305,1,160,10|10,0:2|0:2,0:0:0:0:
477,169,126334,6,0,B|498:88|498:88|475:8,1,160,10|10,0:2|0:2,0:0:0:0:
318,92,127272,1,10,0:2:0:0:
477,169,127741,5,10,0:2:0:0:
256,192,127975,12,10,134303,0:3:0:0:
434,333,135241,6,0,P|444:293|431:249,1,80,4|0,3:2|0:0,0:0:0:0:
367,199,135709,2,0,B|263:224|263:224|187:190,1,160,10|2,0:2|0:2,0:0:0:0:
55,128,136647,1,10,0:2:0:0:
195,23,137116,6,0,L|279:31,1,80,4|0,3:3|0:0,0:0:0:0:
360,53,137584,2,0,P|386:134|357:211,1,160,10|2,0:2|0:2,0:0:0:0:
235,324,138522,1,2,0:2:0:0:
313,362,138756,1,2,0:2:0:0:
395,331,138991,6,0,P|442:330|482:302,1,80,0|2,3:2|0:0,0:0:0:0:
492,230,139459,2,0,B|505:179|505:179|483:57,1,160,10|2,0:2|3:2,0:0:0:0:
319,18,140397,1,10,0:2:0:0:
235,45,140631,1,2,0:2:0:0:
152,76,140866,6,0,L|147:166,1,80,2|4,3:2|0:3,0:0:0:0:
192,231,141334,2,0,P|250:216|344:272,1,160,10|2,0:2|3:2,0:0:0:0:
180,342,142272,1,10,0:2:0:0:
97,370,142506,1,2,0:2:0:0:
16,331,142741,6,0,P|42:291|43:237,1,80,0|2,3:2|0:0,0:0:0:0:
24,174,143209,2,0,B|9:110|9:110|27:10,1,160,8|2,0:2|3:2,0:0:0:0:
104,57,143912,1,2,0:2:0:0:
188,30,144147,1,10,0:2:0:0:
359,74,144616,6,0,B|368:118|368:118|352:165,1,80,2|2,3:2|0:0,0:0:0:0:
285,202,145084,1,10,0:2:0:0:
204,167,145319,1,2,0:2:0:0:
125,205,145553,2,0,P|118:248|128:290,1,80,2|2,3:2|0:0,0:0:0:0:
198,333,146022,1,8,0:2:0:0:
276,292,146256,1,2,0:0:0:0:
353,336,146491,6,0,L|435:326,1,80,2|2,3:2|0:2,0:0:0:0:
490,260,146959,2,0,P|504:179|482:92,1,160,10|2,0:2|3:2,0:0:0:0:
321,46,147897,1,10,0:2:0:0:
167,130,148366,6,0,B|167:171|127:192|127:192|166:216|167:266,1,160,10|10,0:2|0:2,0:0:0:0:
345,254,149303,2,0,B|345:213|385:192|385:192|346:168|345:118,1,160,10|10,0:2|0:2,0:0:0:0:
191,40,150241,6,0,L|97:44,1,80,4|2,3:2|0:0,0:0:0:0:
44,100,150709,2,0,P|26:153|51:260,1,160,10|2,0:2|3:2,0:0:0:0:
201,338,151647,1,10,0:2:0:0:
371,293,152116,6,0,P|382:253|367:190,1,80,4|0,3:3|0:0,0:0:0:0:
327,144,152584,2,0,P|282:135|179:217,1,160,10|2,0:2|3:2,0:0:0:0:
111,349,153522,1,10,0:1:0:0:
63,275,153756,1,2,0:1:0:0:
15,201,153991,6,0,P|9:161|33:105,1,80,4|2,3:2|0:0,0:0:0:0:
91,72,154459,2,0,P|147:115|236:101,1,160,10|2,0:2|3:2,0:0:0:0:
387,22,155397,1,10,0:2:0:0:
492,163,155866,6,0,P|444:174|384:178,1,80,4|0,3:3|0:0,0:0:0:0:
325,176,156334,2,0,B|253:158|253:158|157:179,1,160,10|2,0:2|3:2,0:0:0:0:
139,350,157272,1,10,0:2:0:0:
316,345,157741,6,0,P|372:345|412:325,1,80,4|2,3:2|0:0,0:0:0:0:
466,287,158209,2,0,B|486:233|486:233|456:125,1,160,10|2,0:2|3:2,0:0:0:0:
307,45,159147,1,10,0:2:0:0:
141,104,159616,6,0,P|129:149|136:188,1,80,4|0,3:3|0:0,0:0:0:0:
183,254,160084,2,0,B|231:238|231:238|356:267,1,160,10|2,0:2|3:2,0:0:0:0:
189,357,161022,1,10,0:1:0:0:
116,308,161256,1,2,0:1:0:0:
50,249,161491,6,0,P|33:193|61:88,1,160,10|10,0:2|0:2,0:0:0:0:
118,34,162194,1,0,3:0:0:0:
187,89,162428,2,0,P|231:106|355:75,1,160,10|10,0:2|0:2,0:0:0:0:
480,192,163366,5,10,0:2:0:0:
419,357,163834,1,10,0:2:0:0:
250,305,164303,1,10,0:2:0:0:
313,138,164772,1,8,0:0:0:0:
354,309,165241,6,0,L|450:298,2,80,6|2|10,3:2|0:2|0:2,0:0:0:0:
275,347,165944,1,2,0:2:0:0:
214,284,166178,2,0,L|110:275,1,80,2|2,3:2|0:2,0:0:0:0:
47,264,166647,1,10,0:2:0:0:
101,196,166881,1,2,0:2:0:0:
95,21,167350,6,0,L|3:28,2,80,2|10|2,0:2|0:2|0:2,0:0:0:0:
133,44,167936,2,0,P|188:61|251:45,1,120,2|2,0:2|0:2,0:0:0:0:
330,15,168522,1,10,0:2:0:0:
409,53,168756,1,2,0:2:0:0:
477,111,168991,6,0,P|482:155|472:209,1,80,2|2,3:2|0:2,0:0:0:0:
407,245,169459,2,0,P|368:236|316:248,1,80,10|2,0:2|0:2,0:0:0:0:
259,296,169928,1,2,3:2:0:0:
185,343,170162,1,2,0:2:0:0:
111,295,170397,2,0,P|90:261|86:206,1,80,10|2,0:2|0:2,0:0:0:0:
114,190,170748,6,0,B|125:145|125:145|105:51,1,120,2|2,0:2|0:2,0:0:0:0:
182,22,171334,2,0,P|237:40|262:71,1,80,10|2,0:2|0:2,0:0:0:0:
234,141,171803,2,0,P|222:190|237:236,1,80,2|2,3:2|0:2,0:0:0:0:
295,275,172272,1,10,0:2:0:0:
369,227,172506,1,2,0:2:0:0:
441,278,172741,6,0,L|452:358,2,80,6|2|10,3:2|0:2|0:2,0:0:0:0:
491,205,173444,1,2,0:2:0:0:
452,126,173678,2,0,L|359:113,1,80,2|2,3:2|0:2,0:0:0:0:
305,173,174147,2,0,L|203:182,1,80,10|2,0:2|0:2,0:0:0:0:
51,169,174850,6,0,P|40:207|46:246,2,80,2|10|2,0:2|0:2|0:2,0:0:0:0:
90,148,175436,2,0,B|147:131|147:131|220:153,1,120,2|2,0:2|0:2,0:0:0:0:
261,217,176022,1,10,0:2:0:0:
206,287,176256,1,2,0:2:0:0:
264,352,176491,6,0,L|355:357,1,80,2|2,3:2|0:2,0:0:0:0:
416,306,176959,2,0,P|425:263|414:217,1,80,10|2,0:2|0:2,0:0:0:0:
366,157,177428,1,2,0:2:0:0:
415,84,177662,1,2,0:2:0:0:
351,23,177897,2,0,L|260:36,1,80,10|2,0:2|0:2,0:0:0:0:
185,53,178366,5,4,3:2:0:0:
134,126,178600,2,0,P|127:175|139:223,1,80,10|2,0:2|0:2,0:0:0:0:
156,241,178951,2,0,L|264:233,1,80,2|2,0:2|0:2,0:0:0:0:
365,263,179537,2,0,P|374:302|366:346,2,80,2|10|2,0:2|0:2|0:2,0:0:0:0:
327,183,180241,5,2,0:0:0:0:
