osu file format v14

[General]
AudioFilename: audio.mp3
AudioLeadIn: 0
PreviewTime: 165006
Countdown: 0
SampleSet: Soft
StackLeniency: 0.7
Mode: 0
LetterboxInBreaks: 0
EpilepsyWarning: 1
WidescreenStoryboard: 1

[Editor]
Bookmarks: 7741,15241,30241,45241,60241,75241,90241,105241,120241,135241,150241,165241,180241
DistanceSpacing: 0.3
BeatDivisor: 8
GridSize: 32
TimelineZoom: 3.400002

[Metadata]
Title:Sushi Blast
TitleUnicode:Sushi Blast
Artist:Rocket Start
ArtistUnicode:Rocket Start
Creator:Shmiklak
Version:Bonsai Meets Sushi
Source:
Tags:marvollo m_a_r_v_o_l_l_o instrumental electronic daycore stompy_ riffy bakari imakuri edm bass house sangonomiya kokomi cherioue dance music 8bit chiptune fa featured artist
BeatmapID:4330639
BeatmapSetID:2069690

[Difficulty]
HPDrainRate:5.5
CircleSize:4.2
OverallDifficulty:8
ApproachRate:9.3
SliderMultiplier:2.2
SliderTickRate:1

[Events]
//Background and Video events
0,0,"kokomi.jpg",0,0
//Break Periods
2,97941,100937
//Storyboard Layer 0 (Background)
//Storyboard Layer 1 (Fail)
//Storyboard Layer 2 (Pass)
//Storyboard Layer 3 (Foreground)
//Storyboard Layer 4 (Overlay)
//Storyboard Sound Samples

[TimingPoints]
241,468.75,4,2,1,50,1,0
7741,-100,4,2,1,60,0,0
14772,-66.6666666666667,4,2,1,60,0,0
15241,-55.5555555555556,4,2,1,75,0,0
15475,-71.4285714285714,4,2,1,75,0,0
15944,-83.3333333333333,4,2,1,75,0,0
30241,-62.5,4,2,1,70,0,0
33991,-52.6315789473684,4,2,1,70,0,0
37741,-66.6666666666667,4,2,1,70,0,0
38209,-68.9655172413793,4,2,1,70,0,0
38678,-71.4285714285714,4,2,1,70,0,0
39147,-74.0740740740741,4,2,1,70,0,0
39616,-76.9230769230769,4,2,1,70,0,0
40084,-80,4,2,1,70,0,0
40553,-83.3333333333333,4,2,1,70,0,0
41022,-86.9565217391304,4,2,1,70,0,0
44772,-1000,4,2,1,70,0,0
45241,-38.4615384615385,4,2,1,80,0,0
45709,-47.6190476190476,4,2,1,80,0,0
47116,-31.419559930356,4,2,1,80,0,0
47584,-47.6190476190476,4,2,1,80,0,0
48991,-38.4615384615385,4,2,1,80,0,0
49459,-47.6190476190476,4,2,1,80,0,0
50866,-28.0529040784845,4,2,1,80,0,0
51334,-47.6190476190476,4,2,1,80,0,0
52741,-38.4615384615385,4,2,1,80,0,0
53209,-47.6190476190476,4,2,1,80,0,0
54616,-31.4465408805031,4,2,1,80,0,0
55084,-47.6190476190476,4,2,1,80,0,0
56491,-38.4615384615385,4,2,1,80,0,0
56959,-47.6190476190476,4,2,1,80,0,0
58366,-71.4285714285714,4,2,1,80,0,0
60241,-38.4615384615385,4,2,1,85,0,0
60709,-47.6190476190476,4,2,1,85,0,0
62116,-37.0865084612974,4,2,1,85,0,0
62584,-47.6190476190476,4,2,1,85,0,0
63991,-38.4615384615385,4,2,1,85,0,0
64459,-47.6190476190476,4,2,1,85,0,0
65866,-34.5807697669355,4,2,1,85,0,0
66334,-47.6190476190476,4,2,1,85,0,0
67272,-1000,4,2,1,85,0,0
67741,-38.4615384615385,4,2,1,85,0,0
68209,-47.6190476190476,4,2,1,85,0,0
69616,-33.3333333333333,4,2,1,85,0,0
70084,-47.6190476190476,4,2,1,85,0,0
71491,-66.6666666666667,4,2,1,85,0,0
74772,-50,4,2,1,85,0,0
75006,-33.3333333333333,4,2,1,85,0,0
75241,-58.8235294117647,4,2,1,90,0,1
87428,-133.333333333333,4,2,1,90,0,1
88366,-58.8235294117647,4,2,1,80,0,0
90241,-58.8235294117647,4,2,2,60,0,0
105241,-58.8235294117647,4,2,1,70,0,0
105592,-66.6666666666667,4,2,1,70,0,0
106647,-76.9230769230769,4,2,1,70,0,0
107584,-66.6666666666667,4,2,1,70,0,0
109928,-76.9230769230769,4,2,1,70,0,0
112272,-66.6666666666667,4,2,1,70,0,0
112741,-62.5,4,2,1,70,0,0
119303,-71.4285714285714,4,2,1,70,0,0
120709,-62.5,4,2,1,70,0,0
122116,-55.5555555555556,4,2,1,70,0,0
122584,-62.5,4,2,1,70,0,0
123053,-62.5,4,2,1,70,0,0
123522,-71.4285714285714,4,2,1,70,0,0
123991,-55.5555555555556,4,2,1,70,0,0
124459,-47.6190476190476,4,2,1,70,0,0
124928,-55.5555555555556,4,2,1,70,0,0
125397,-62.5,4,2,1,70,0,0
125866,-71.4285714285714,4,2,1,70,0,0
127741,-55.5555555555556,4,2,1,70,0,0
134303,-76.9230769230769,4,2,1,70,0,0
135241,-38.4615384615385,4,2,1,80,0,0
135709,-55.5555555555556,4,2,1,80,0,0
136178,-62.5,4,2,1,80,0,0
137116,-38.4615384615385,4,2,1,80,0,0
137584,-55.5555555555556,4,2,1,80,0,0
138522,-83.3333333333333,4,2,1,80,0,0
138991,-45.4545454545455,4,2,1,80,0,0
139459,-55.5555555555556,4,2,1,80,0,0
140866,-38.4615384615385,4,2,1,80,0,0
141334,-62.5,4,2,1,80,0,0
146491,-76.9230769230769,4,2,1,80,0,0
146959,-62.5,4,2,1,80,0,0
150241,-38.4615384615385,4,2,1,85,0,0
150709,-47.6190476190476,4,2,1,85,0,0
152116,-34.4827586206897,4,2,1,85,0,0
152584,-47.6190476190476,4,2,1,85,0,0
153522,-55.5555555555556,4,2,1,85,0,0
155397,-62.5,4,2,1,85,0,0
155866,-43.4782608695652,4,2,1,85,0,0
156334,-55.5555555555556,4,2,1,85,0,0
157272,-83.3333333333333,4,2,1,85,0,0
157741,-50,4,2,1,85,0,0
158209,-55.5555555555556,4,2,1,85,0,0
159616,-27.7777777777778,4,2,1,85,0,0
160084,-55.5555555555556,4,2,1,85,0,0
161022,-62.5,4,2,1,85,0,0
161491,-66.6666666666667,4,2,1,85,0,0
165241,-58.8235294117647,4,2,1,90,0,1
177428,-125,4,2,1,90,0,1
178366,-125,4,2,1,80,0,0
180241,-125,4,2,1,40,0,0

[Colours]
Combo1 : 17,254,176
Combo2 : 173,255,95
Combo3 : 255,88,100
Combo4 : 255,94,55

[HitObjects]
256,192,6334,12,2,7272,0:2:0:0:
8,318,7741,5,2,3:2:0:0:
55,197,7975,1,2,3:2:0:0:
50,184,8092,1,2,0:2:0:0:
47,173,8209,1,8,0:2:0:0:
163,34,8444,6,0,L|154:96,1,55,2|0,3:2|3:0,0:0:0:0:
217,155,8678,2,0,L|226:217,1,55,2|0,0:2|3:0,0:0:0:0:
148,263,8912,2,0,L|139:325,1,55,2|0,0:2|3:0,0:0:0:0:
203,382,9147,2,0,L|269:360,1,55,10|0,0:2|0:0,0:0:0:0:
376,322,9381,2,0,L|410:203,1,110,2|0,3:2|3:2,0:0:0:0:
453,60,9850,5,2,3:2:0:0:
307,28,10084,1,10,0:2:0:0:
188,108,10319,1,2,3:2:0:0:
175,97,10436,2,0,L|118:80,1,55,2|0,3:2|0:0,0:0:0:0:
35,209,10670,1,0,3:0:0:0:
107,178,10787,1,2,0:2:0:0:
119,186,10905,1,0,3:0:0:0:
187,218,11022,2,0,P|208:207|247:194,1,55,10|0,0:2|0:0,0:0:0:0:
412,141,11256,5,2,3:2:0:0:
409,134,11373,1,0,3:2:0:0:
406,127,11491,1,2,3:2:0:0:
270,47,11725,1,2,3:2:0:0:
266,54,11842,1,2,0:2:0:0:
262,60,11960,2,0,P|225:67|200:76,1,55,8|0,0:0|0:0,0:0:0:0:
79,174,12194,5,2,3:2:0:0:
96,179,12311,1,0,3:2:0:0:
156,225,12428,1,2,0:2:0:0:
173,220,12545,1,0,3:2:0:0:
245,188,12662,1,2,0:2:0:0:
262,193,12779,1,0,3:2:0:0:
317,248,12897,2,0,L|295:314,1,55,10|0,0:2|0:0,0:0:0:0:
398,209,13131,2,0,L|384:85,1,110,2|0,3:2|3:0,0:0:0:0:
266,24,13600,5,2,3:2:0:0:
160,93,13834,1,8,0:0:0:0:
87,62,13951,1,2,0:0:0:0:
79,58,14069,1,0,3:0:0:0:
12,95,14186,1,2,3:2:0:0:
68,259,14420,1,0,3:0:0:0:
68,259,14537,1,2,0:0:0:0:
215,327,14772,6,0,L|267:309,1,41.2500015735627,2|0,0:0|0:0,0:0:0:0:
275,300,14889,2,0,L|327:318,1,41.2500015735627,2|0,0:0|0:0,0:0:0:0:
328,332,15006,2,0,L|380:314,1,41.2500015735627,2|0,0:0|0:0,0:0:0:0:
387,311,15123,2,0,L|439:329,1,41.2500015735627,2|0,0:0|0:0,0:0:0:0:
489,267,15241,6,0,B|462:220|468:149|468:149|445:189|411:199,1,197.99999395752,6|2,3:2|3:2,0:0:0:0:
296,117,15592,1,2,0:2:0:0:
309,105,15709,2,0,P|343:109|393:137,1,76.9999976501466,8|0,0:2|0:0,0:0:0:0:
214,24,15944,1,2,3:2:0:0:
212,43,16061,2,0,L|201:113,1,65.9999979858399,0|2,3:0|0:2,0:0:0:0:
90,169,16295,1,0,3:0:0:0:
92,188,16412,2,0,L|103:258,1,65.9999979858399,2|0,0:2|3:0,0:0:0:0:
0,366,16647,2,0,L|21:226,1,131.99999597168,10|2,0:2|3:2,0:0:0:0:
183,33,17116,5,2,3:1:0:0:
183,33,17350,2,0,L|193:130,1,65.9999979858399,2|0,3:2|0:0,0:0:0:0:
269,209,17584,2,0,L|279:112,1,65.9999979858399,10|0,0:2|0:0,0:0:0:0:
374,51,17819,1,2,3:2:0:0:
382,69,17936,1,2,3:2:0:0:
423,136,18053,1,2,0:1:0:0:
415,154,18170,2,0,L|346:145,1,65.9999979858399,0|2,3:0|0:2,0:0:0:0:
210,225,18405,1,0,3:0:0:0:
218,243,18522,2,0,L|287:234,1,65.9999979858399,10|0,0:2|0:0,0:0:0:0:
454,359,18756,5,2,3:2:0:0:
461,351,18873,1,0,3:2:0:0:
469,342,18991,2,0,B|394:360|408:311|324:335,1,131.99999597168,2|2,3:1|3:2,0:0:0:0:
185,369,19342,1,2,0:2:0:0:
196,349,19459,1,8,0:0:0:0:
61,187,19694,1,2,3:2:0:0:
70,200,19811,2,0,L|145:185,1,65.9999979858399,0|2,3:2|0:2,0:0:0:0:
248,87,20045,2,0,L|323:102,1,65.9999979858399,0|2,3:2|0:2,0:0:0:0:
448,193,20280,1,0,3:2:0:0:
439,179,20397,2,0,L|374:191,1,65.9999979858399,10|0,0:2|0:0,0:0:0:0:
248,273,20631,2,0,L|183:260,1,65.9999979858399,2|0,3:2|0:0,0:0:0:0:
350,347,20866,5,2,3:1:0:0:
256,64,21100,1,2,3:2:0:0:
162,347,21334,1,10,0:1:0:0:
224,306,21451,1,2,0:0:0:0:
298,363,21569,1,0,3:0:0:0:
340,256,21686,2,0,B|349:247|345:239|345:239|345:230|335:224|335:224|334:219|344:203|344:203|356:201|356:187|356:187|345:167|345:167|342:149|356:152|356:152|371:137|355:124|355:124|364:123|364:123|359:112|362:99|362:99|377:104|375:88|375:88,1,197.99999395752,2|2,3:2|0:0,0:0:0:0:
112,43,22272,5,8,0:0:0:0:
468,179,22506,1,2,0:0:0:0:
178,343,22741,6,0,P|146:306|49:301,1,131.99999597168,6|2,3:2|3:2,0:0:0:0:
199,198,23092,1,2,0:2:0:0:
212,186,23209,2,0,L|199:269,1,65.9999979858399,8|0,0:2|0:0,0:0:0:0:
105,110,23444,1,2,3:2:0:0:
124,108,23561,2,0,L|194:97,1,65.9999979858399,0|2,3:0|0:2,0:0:0:0:
312,33,23795,1,0,3:0:0:0:
331,35,23912,2,0,L|401:46,1,65.9999979858399,2|0,0:2|3:0,0:0:0:0:
512,133,24147,2,0,L|372:154,1,131.99999597168,10|2,0:2|3:2,0:0:0:0:
135,297,24616,5,2,3:1:0:0:
135,297,24850,2,0,L|145:394,1,65.9999979858399,2|0,3:2|0:0,0:0:0:0:
53,237,25084,2,0,L|63:140,1,65.9999979858399,10|0,0:2|0:0,0:0:0:0:
39,36,25319,1,2,3:2:0:0:
52,42,25436,1,2,3:2:0:0:
119,75,25553,1,2,0:1:0:0:
130,64,25670,2,0,L|199:55,1,65.9999979858399,0|2,3:0|0:2,0:0:0:0:
319,15,25905,1,0,3:0:0:0:
313,35,26022,2,0,L|326:99,1,65.9999979858399,10|2,0:2|0:2,0:0:0:0:
421,281,26256,5,2,3:2:0:0:
428,289,26373,1,2,3:2:0:0:
436,298,26491,2,0,B|361:280|375:329|291:305,1,131.99999597168,2|2,3:1|3:2,0:0:0:0:
189,247,26842,1,2,0:2:0:0:
191,265,26959,1,8,0:0:0:0:
347,114,27194,1,2,3:2:0:0:
334,123,27311,2,0,L|349:198,1,65.9999979858399,0|2,3:2|0:2,0:0:0:0:
239,110,27545,2,0,L|254:35,1,65.9999979858399,0|2,3:2|0:2,0:0:0:0:
145,7,27780,1,0,3:2:0:0:
127,6,27897,2,0,L|139:70,1,65.9999979858399,10|0,0:2|0:0,0:0:0:0:
27,145,28131,2,0,L|39:80,1,65.9999979858399,2|0,3:2|0:0,0:0:0:0:
86,242,28366,5,2,3:1:0:0:
256,0,28600,1,2,3:2:0:0:
426,242,28834,1,10,0:1:0:0:
357,301,28951,1,2,0:0:0:0:
283,358,29069,1,0,3:0:0:0:
252,252,29186,2,0,B|261:243|257:235|257:235|257:226|247:220|247:220|246:215|256:199|256:199|268:197|268:183|268:183|257:163|257:163|254:145|268:148|268:148|283:133|267:120|267:120|276:119|276:119|271:108|274:95|274:95|289:100|287:84|287:84,1,197.99999395752,2|2,3:2|0:0,0:0:0:0:
16,357,29772,5,8,0:2:0:0:
502,14,30241,5,2,3:3:0:0:
489,29,30709,2,0,B|337:124|337:124|150:47,6,352,10|2|10|2|10|2|10,0:2|0:2|0:2|0:2|0:2|0:2|0:2,0:0:0:0:
13,368,33991,5,2,3:3:0:0:
23,354,34459,2,0,B|181:313|181:313|175:259|175:259|371:336,6,417.999988838196,10|2|10|2|10|2|10,0:2|0:2|0:2|0:2|0:2|0:2|0:2,0:0:0:0:
217,70,37741,6,0,L|124:108,2,82.5000031471254,10|8|8,0:2|0:3|0:3,0:0:0:0:
214,59,38209,2,0,L|126:94,2,79.7500024337769,10|8|8,0:2|0:3|0:3,0:0:0:0:
209,49,38678,2,0,L|119:86,2,76.9999976501466,10|8|8,0:2|0:3|0:3,0:0:0:0:
206,38,39147,2,0,L|119:75,2,74.2500002832413,10|8|8,0:2|0:3|0:3,0:0:0:0:
295,314,39616,6,0,L|384:279,2,71.4999967269899,10|8|8,0:2|0:3|0:3,0:0:0:0:
298,325,40084,2,0,L|387:290,2,68.75,10|8|8,0:2|0:3|0:3,0:0:0:0:
303,335,40553,2,0,L|385:302,2,65.9999979858399,10|8|8,0:2|0:3|0:3,0:0:0:0:
306,346,41022,2,0,L|389:313,2,63.250001206398,10|8|8,0:2|0:3|0:3,0:0:0:0:
64,192,41491,5,10,0:2:0:0:
448,192,41725,1,8,0:0:0:0:
83,192,41959,5,10,0:2:0:0:
428,192,42193,1,8,0:0:0:0:
100,192,42428,5,10,0:2:0:0:
411,192,42662,1,8,0:0:0:0:
116,192,42897,5,10,0:2:0:0:
395,192,43131,1,8,0:0:0:0:
169,361,43366,5,10,0:2:0:0:
107,346,43483,1,8,0:0:0:0:
52,306,43600,1,8,0:0:0:0:
16,243,43718,1,8,0:0:0:0:
10,165,43835,1,10,0:2:0:0:
43,89,43952,1,8,0:0:0:0:
114,35,44069,1,8,0:0:0:0:
209,26,44186,1,8,0:0:0:0:
299,74,44304,1,10,0:3:0:0:
303,85,44772,6,0,L|301:98,1,11,10|2,0:3|0:0,0:0:0:0:
301,95,45241,6,0,B|285:21|285:21|219:67|219:67|249:181|249:181|311:121|407:148,1,428.999980361939,4|0,3:2|0:0,0:0:0:0:
502,339,45709,6,0,B|418:298|418:298|411:290|411:290|399:300|399:300|284:346|284:346|281:329|281:329|270:338|270:338|195:320,1,346.49998942566,10|0,0:2|0:0,0:0:0:0:
6,334,46178,6,0,B|39:296|41:267|41:267|39:246|39:246|9:188|55:136|55:136|90:132|105:192|105:192|125:207|170:197,1,346.49998942566,2|0,3:2|0:0,0:0:0:0:
259,97,46647,6,0,B|27:130,1,230.99999295044,10|0,0:2|0:0,0:0:0:0:
24,140,47116,6,0,B|30:149|30:149|39:144|39:144|49:146|55:147|55:147|64:141|64:141|70:149|70:149|78:150|87:150|87:150|94:158|94:158|102:151|102:151|111:150|119:149|119:149|125:141|125:141|134:147|134:147|142:145|150:142|150:142|160:145|160:145|164:136|164:136|171:132|178:127|178:127|180:117|180:117|191:118|191:118|197:113|203:107|203:107|214:107|214:107|214:97|214:97|217:93|226:84|226:84|226:74|226:74|236:73|236:73|244:66|248:62|248:62|258:62|258:62|259:52|259:52|266:46|273:41|273:41|276:31|276:31|286:33|286:33|293:29|301:26|301:26|310:30|310:30|315:21|315:21|323:19|332:17|332:17|338:9|338:9|347:15|347:15|356:14|364:14|364:14|371:21|371:21|379:14|379:14|386:15|395:15|395:15|404:9|404:9|410:17|410:17|419:18|425:20,1,525.150578159468,4|0,3:3|0:0,0:0:0:0:
389,144,47584,6,0,B|341:232|343:360|343:360|348:298|407:220,1,346.49998942566,10|0,0:2|0:0,0:0:0:0:
492,54,48053,6,0,P|367:138|138:164,1,346.49998942566,2|0,3:2|0:0,0:0:0:0:
50,98,48522,5,10,0:1:0:0:
488,187,48756,1,2,0:1:0:0:
152,298,48991,6,0,B|158:271|158:271|140:247|140:247|156:233|156:233|204:303,1,142.99999345398,4|0,3:2|0:0,0:0:0:0:
240,340,49225,2,0,B|215:378|215:378|165:294,1,142.99999345398,2|0,0:0|0:0,0:0:0:0:
76,96,49459,6,0,B|60:166|40:208|-17:263|-17:263|24:254|72:285|72:285|42:243|47:203,1,346.49998942566,10|0,0:2|0:0,0:0:0:0:
2,39,49928,6,0,B|62:23|117:49|59:79|142:119|191:76|191:76|235:26|236:83|236:83|253:70|253:70|273:64|309:71,1,346.49998942566,2|0,3:2|0:0,0:0:0:0:
480,21,50397,6,0,P|380:100|331:189,1,230.99999295044,10|0,0:2|0:0,0:0:0:0:
332,207,50866,6,0,B|327:209|327:209|327:204|327:204|310:191|310:191|310:186|310:186|305:188|305:188|288:175|288:175|283:177|283:177|283:172|283:172|267:160|267:160|267:155|267:155|261:156|261:156|258:154|258:154|241:158|241:158|239:163|239:163|236:159|236:159|215:164|215:164|211:161|211:161|209:166|209:166|189:170|189:170|187:176|187:176|183:172|183:172|178:173|178:173|175:189|175:189|170:191|170:191|174:195|174:195|171:216|171:216|175:219|175:219|170:221|170:221|166:242|166:242|161:244|161:244|165:248|165:248|162:269|162:269|165:273|165:273|161:275|161:275|160:278|160:278|142:279|142:279|139:274|139:274|136:279|136:279|115:280|115:280|112:284|112:284|109:280|109:280|88:281|88:281|85:276|85:276|82:281|82:281|86:260|86:260|82:257|82:257|87:255|87:255|91:234|91:234|96:232|96:232|92:227|92:227|96:207|96:207|92:203|92:203|97:201|97:201|101:180|101:180|106:178|106:178|102:175|102:175|106:154|106:154|102:150|102:150|107:148|107:148|107:146,1,588.17442155944,4|0,3:3|0:0,0:0:0:0:
198,29,51334,6,0,B|258:90|335:38|335:38|336:53|336:53|348:47|348:47|448:61|447:159,1,346.49998942566,10|0,0:2|0:0,0:0:0:0:
475,323,51803,6,0,B|421:264|357:263|357:263|313:302|257:277|257:277|319:228|340:166,1,346.49998942566,2|0,3:2|0:0,0:0:0:0:
334,38,52272,5,10,0:1:0:0:
249,361,52506,1,2,0:1:0:0:
59,97,52741,6,0,B|180:147|180:147|232:88|232:88|270:135|270:135|339:127|339:127|280:219,1,428.999980361939,4|0,3:2|0:0,0:0:0:0:
210,358,53209,6,0,L|126:-3,1,346.49998942566,10|0,0:2|0:0,0:0:0:0:
60,176,53678,6,0,B|64:199|107:213|107:213|141:182|179:183|179:183|226:205|251:221|251:221|332:217|396:175,1,346.49998942566,2|0,3:2|0:0,0:0:0:0:
482,58,54147,6,0,P|458:31|453:125,1,230.99999295044,10|0,0:2|0:0,0:0:0:0:
450,135,54616,6,0,B|444:126|444:126|435:131|435:131|425:129|419:128|419:128|410:134|410:134|404:126|404:126|396:125|387:125|387:125|380:117|380:117|372:124|372:124|363:125|355:126|355:126|349:134|349:134|340:128|340:128|332:130|324:133|324:133|314:130|314:130|310:139|310:139|303:143|296:148|296:148|294:158|294:158|283:157|283:157|277:162|271:168|271:168|260:168|260:168|260:178|260:178|257:182|248:191|248:191|248:201|248:201|238:202|238:202|230:209|226:213|226:213|216:213|216:213|215:223|215:223|208:229|201:234|201:234|198:244|198:244|188:242|188:242|181:246|173:249|173:249|164:245|164:245|159:254|159:254|151:256|142:258|142:258|136:266|136:266|127:260|127:260|118:261|110:261|110:261|103:254|103:254|95:261|95:261|88:260|79:260|79:260|70:266|70:266|64:258|64:258|55:257|49:255,1,525.150578159468,4|0,3:3|0:0,0:0:0:0:
163,348,55084,6,0,B|257:325|296:272|296:272|339:304|406:306|406:306|397:253|356:231,1,346.49998942566,10|0,0:2|0:0,0:0:0:0:
220,95,55553,6,0,B|179:71|108:70|108:70|224:55|289:30|289:30|271:52|262:104,1,346.49998942566,2|0,3:2|0:0,0:0:0:0:
195,245,56022,5,10,0:1:0:0:
505,166,56256,1,2,0:1:0:0:
110,69,56491,6,0,L|78:234,1,142.99999345398,4|0,3:2|0:0,0:0:0:0:
131,357,56725,2,0,L|99:192,1,142.99999345398,2|0,0:0|0:0,0:0:0:0:
20,2,56959,6,0,P|150:67|361:86,1,346.49998942566,10|0,0:2|0:0,0:0:0:0:
508,20,57428,6,0,B|444:99|344:87|344:87|396:176|337:271,1,346.49998942566,2|0,3:2|0:0,0:0:0:0:
215,320,57897,6,0,B|277:379|344:354|344:354|297:349|261:311,1,230.99999295044,10|0,0:2|0:0,0:0:0:0:
79,114,58366,5,10,0:2:0:0:
120,180,58483,1,2,0:2:0:0:
68,192,58600,1,2,0:2:0:0:
20,166,58717,1,2,0:2:0:0:
79,114,58834,5,10,0:2:0:0:
0,116,58951,1,2,0:2:0:0:
16,65,59068,1,2,0:2:0:0:
62,36,59186,1,2,0:2:0:0:
79,114,59303,5,10,0:2:0:0:
115,44,59420,1,2,0:2:0:0:
152,84,59537,1,2,0:2:0:0:
153,138,59654,1,2,0:2:0:0:
79,114,59772,5,10,0:2:0:0:
83,110,60241,6,0,B|174:107|174:107|199:144|199:144|240:33|240:33|282:108|282:108|384:102,1,428.999980361939,4|0,3:2|0:0,0:0:0:0:
501,34,60709,6,0,B|375:99|365:201|365:201|420:130|495:124,1,346.49998942566,10|0,0:2|0:0,0:0:0:0:
475,289,61178,6,0,P|371:226|108:221,1,346.49998942566,2|0,3:2|0:0,0:0:0:0:
62,346,61647,6,0,L|325:311,1,230.99999295044,10|0,0:2|0:0,0:0:0:0:
297,315,62116,6,0,B|315:296|315:296|336:310|336:310|341:311|341:311|353:294|353:294|373:296|373:296|376:291|376:291|374:266|374:266|393:249|393:249|395:244|395:244|371:235|371:235|364:212|364:212|361:209|361:209|336:201|336:201|326:177|326:177|323:174|323:174|315:190|315:190|299:186|299:186|297:189|295:190|295:190|291:215|291:215|268:227|268:227|267:229|265:230|265:230|253:254|253:254|229:259|229:259|226:260|224:262|224:262|209:280,1,444.905711845889,4|0,3:3|0:0,0:0:0:0:
69,108,62584,6,0,B|1:173|22:234|22:234|83:171|136:140|227:147,1,346.49998942566,10|0,0:2|0:0,0:0:0:0:
442,24,63053,6,0,B|386:142|466:89|367:238|367:238|363:166|323:120,1,346.49998942566,2|0,3:2|0:0,0:0:0:0:
168,22,63522,5,10,0:1:0:0:
248,343,63756,1,2,0:1:0:0:
42,213,63991,6,0,B|56:152|56:152|1:101|1:101|70:56|70:56|154:117|154:117|283:72,1,428.999980361939,4|0,3:2|0:0,0:0:0:0:
434,25,64459,6,0,B|365:78|343:135|343:135|411:121|453:129|453:129|487:173|490:226,1,346.49998942566,10|0,0:2|0:0,0:0:0:0:
289,322,64928,6,0,B|220:269|198:212|198:212|266:226|308:218|308:218|342:174|345:121,1,346.49998942566,2|0,3:2|0:0,0:0:0:0:
198,19,65397,6,0,P|129:47|18:177,1,230.99999295044,10|0,0:2|0:0,0:0:0:0:
29,175,65866,6,0,B|51:169|51:169|67:184|67:184|68:184|68:184|89:179|89:179|105:194|105:194|106:194|106:194|127:189|127:189|142:203|142:203|143:203|143:203|153:186|153:186|173:187|173:187|174:187|174:187|180:166|180:166|201:161|201:161|202:160|202:160|215:146|215:146|233:152|233:152|234:152|234:152|256:148|256:148|270:165|270:165|271:165|271:165|288:154|288:154|307:163|307:163|308:163|308:163|322:148|322:148|344:152|344:152|345:151|345:151|359:135|359:135|381:140|381:140|382:139|382:139|397:123|397:123|418:127,1,477.14378123724,4|0,3:3|0:0,0:0:0:0:
371,285,66334,6,0,P|273:198|430:140,1,346.49998942566,10|0,0:2|0:0,0:0:0:0:
512,272,66803,6,0,P|416:216|156:198,1,346.49998942566,2|0,3:2|0:0,0:0:0:0:
10,295,67272,6,0,P|11:302|14:308,1,11,10|0,0:2|0:0,0:0:0:0:
184,368,67741,6,0,B|246:338|297:368|297:368|324:346|332:308|332:308|348:330|382:348|382:348|455:299|452:233|412:183,1,428.999980361939,4|0,3:2|0:0,0:0:0:0:
264,21,68209,6,0,B|211:35|148:36|148:36|206:67|250:102|250:102|179:103|115:123,1,346.49998942566,10|0,0:2|0:0,0:0:0:0:
40,268,68678,6,0,P|74:258|103:252,1,57.7499982376099,2|0,3:2|0:0,0:0:0:0:
37,279,68795,2,0,P|167:249|300:245,1,230.99999295044,2|0,0:0|0:0,0:0:0:0:
469,354,69147,6,0,L|347:334,2,115.49999647522,10|0|0,0:2|0:0|0:0,0:0:0:0:
469,354,69616,6,0,L|458:314,12,41.2500015735627,4|0|0|0|0|0|0|0|0|0|0|0|0,3:3|0:0|0:0|0:0|0:0|0:0|0:0|0:0|0:0|0:0|0:0|0:0|0:0,0:0:0:0:
351,217,70084,6,0,B|337:270|336:333|336:333|305:275|270:231|270:231|269:302|249:366,1,346.49998942566,10|0,0:2|0:0,0:0:0:0:
88,359,70553,6,0,P|98:325|104:296,1,57.7499982376099,2|0,3:2|0:0,0:0:0:0:
77,362,70670,2,0,P|107:232|111:99,1,230.99999295044,2|0,0:0|0:0,0:0:0:0:
5,6,71022,5,10,0:1:0:0:
448,80,71256,1,2,0:1:0:0:
331,333,71491,6,0,P|282:348|231:330,1,82.5000031471254,8|0,0:2|0:0,0:0:0:0:
177,263,71725,1,0,0:0:0:0:
233,185,71842,1,0,0:0:0:0:
168,109,71959,2,0,L|186:26,1,82.5000031471254,10|0,0:2|0:0,0:0:0:0:
23,105,72194,2,0,P|59:129|69:192,1,82.5000031471254,0|0,3:0|0:0,0:0:0:0:
0,345,72428,6,0,L|111:323,1,82.5000031471254,10|0,0:2|0:0,0:0:0:0:
194,259,72662,2,0,L|305:281,1,82.5000031471254
444,368,72897,2,0,L|406:172,1,165.000006294251,10|0,0:2|0:0,0:0:0:0:
223,112,73366,5,10,0:2:0:0:
223,112,73483,1,2,0:2:0:0:
141,101,73600,1,2,0:2:0:0:
59,90,73717,1,2,0:2:0:0:
0,176,73834,5,10,0:2:0:0:
0,176,73951,1,2,0:2:0:0:
82,165,74068,1,2,0:2:0:0:
164,154,74185,1,2,0:2:0:0:
255,147,74303,5,10,0:2:0:0:
344,203,74420,1,8,0:0:0:0:
402,113,74537,1,10,0:0:0:0:
310,56,74655,1,8,0:0:0:0:
238,153,74772,6,0,L|263:286,1,110,8|0,0:0|0:0,0:0:0:0:
186,347,75006,6,0,L|217:179,1,165.000006294251,10|0,0:0|0:0,0:0:0:0:
310,56,75241,5,6,3:2:0:0:
325,62,75358,1,0,0:0:0:0:
396,104,75475,1,2,0:2:0:0:
411,98,75592,1,0,0:0:0:0:
461,200,75709,6,0,L|360:178,1,93.500001783371,10|0,0:2|0:0,0:0:0:0:
200,236,75944,2,0,L|99:214,1,93.500001783371,2|0,0:2|0:0,0:0:0:0:
5,366,76178,5,2,3:2:0:0:
31,354,76295,1,2,0:2:0:0:
116,311,76412,1,2,0:2:0:0:
142,323,76529,1,2,0:2:0:0:
256,384,76646,6,0,L|278:283,1,93.500001783371,10|0,0:2|0:0,0:0:0:0:
416,160,76881,2,0,L|438:59,1,93.500001783371,2|0,0:2|0:0,0:0:0:0:
258,10,77116,6,0,L|164:40,1,93.500001783371,0|0,3:2|0:0,0:0:0:0:
3,92,77350,1,2,0:2:0:0:
34,158,77467,1,0,0:0:0:0:
61,225,77584,2,0,L|49:264,8,23.3750004458428,10|0|0|0|0|0|0|0|2,0:2|0:0|0:0|0:0|0:0|0:0|0:0|0:0|0:2,0:0:0:0:
104,307,77936,1,2,0:2:0:0:
182,259,78053,6,0,P|224:262|281:276,1,93.500001783371,0|0,3:2|0:0,0:0:0:0:
373,340,78287,2,0,L|401:333,8,23.3750004458428,2|0|0|0|0|0|0|0|10,0:2|0:0|0:0|0:0|0:0|0:0|0:0|0:0|0:2,0:0:0:0:
423,248,78639,1,2,0:0:0:0:
367,153,78756,2,0,B|368:128|368:128|381:105|381:105|369:91|369:91|382:85|382:85|374:62|374:62|391:8,1,140.250002675057,2|0,0:2|0:0,0:0:0:0:
375,21,78991,6,0,P|326:61|286:72,1,93.500001783371,2|0,3:2|0:0,0:0:0:0:
175,40,79225,1,2,0:2:0:0:
97,20,79342,1,0,0:0:0:0:
38,75,79459,2,0,L|16:196,1,93.500001783371,10|0,0:2|0:0,0:0:0:0:
160,288,79694,2,0,L|138:167,1,93.500001783371,2|0,0:2|0:0,0:0:0:0:
261,61,79928,5,2,3:2:0:0:
333,27,80045,1,2,0:2:0:0:
410,49,80162,2,0,P|442:88|452:140,1,93.500001783371,2|2,0:2|0:2,0:0:0:0:
330,253,80397,2,0,P|285:240|249:210,1,93.500001783371,10|0,0:2|0:0,0:0:0:0:
227,133,80631,1,2,0:2:0:0:
261,61,80748,1,2,0:2:0:0:
188,10,80866,6,0,L|94:40,1,93.500001783371,2|0,3:2|0:0,0:0:0:0:
4,171,81100,2,0,L|-3:207,8,23.3750004458428,2|0|0|0|0|0|0|0|10,0:2|0:0|0:0|0:0|0:0|0:0|0:0|0:0|0:2,0:0:0:0:
55,252,81451,1,0,0:0:0:0:
108,326,81569,2,0,B|136:318|136:318|145:326|145:326|151:320|151:320|167:320|167:320|181:312|181:312|205:319|205:319|224:312|224:312|243:302|243:302|261:307,1,140.250002675057,2|0,0:2|0:0,0:0:0:0:
248,298,81803,6,0,P|290:301|353:317,1,93.500001783371,2|0,3:2|0:0,0:0:0:0:
512,208,82037,2,0,P|466:218|401:222,1,93.500001783371,2|0,0:2|0:0,0:0:0:0:
302,140,82272,1,10,0:2:0:0:
246,86,82389,1,0,0:0:0:0:
185,41,82506,2,0,L|150:136,1,93.500001783371,2|0,0:2|0:0,0:0:0:0:
0,259,82741,5,6,3:2:0:0:
15,253,82858,1,0,0:0:0:0:
95,291,82975,1,2,0:2:0:0:
110,285,83092,1,0,0:0:0:0:
160,213,83209,6,0,L|261:191,1,93.500001783371,10|0,0:2|0:0,0:0:0:0:
360,113,83444,2,0,L|461:135,1,93.500001783371,2|0,0:2|0:0,0:0:0:0:
502,259,83678,5,2,3:2:0:0:
487,253,83795,1,2,0:2:0:0:
407,291,83912,1,2,0:2:0:0:
392,285,84029,1,2,0:2:0:0:
342,213,84146,6,0,L|241:191,1,93.500001783371,10|0,0:2|0:0,0:0:0:0:
142,113,84381,2,0,L|41:135,1,93.500001783371,2|0,0:2|0:0,0:0:0:0:
13,309,84616,6,0,P|35:338|97:341,1,93.500001783371,0|0,3:2|0:0,0:0:0:0:
177,309,84850,1,2,0:2:0:0:
258,347,84967,1,0,0:0:0:0:
336,306,85084,2,0,L|363:296,8,23.3750004458428,10|0|0|0|0|0|0|0|2,0:2|0:0|0:0|0:0|0:0|0:0|0:0|0:0|0:2,0:0:0:0:
427,338,85436,1,2,0:2:0:0:
486,253,85553,6,0,P|489:211|503:154,1,93.500001783371,0|0,3:2|0:0,0:0:0:0:
437,52,85787,2,0,L|430:24,8,23.3750004458428,2|0|0|0|0|0|0|0|10,0:2|0:0|0:0|0:0|0:0|0:0|0:0|0:0|0:2,0:0:0:0:
377,113,86139,1,2,0:0:0:0:
304,165,86256,2,0,B|279:164|279:164|256:153|256:153|242:163|242:163|236:150|236:150|213:138|213:138|176:153,1,140.250002675057,2|0,0:2|0:0,0:0:0:0:
170,165,86491,6,0,L|190:290,1,93.500001783371,2|0,3:2|0:0,0:0:0:0:
24,342,86725,1,2,0:2:0:0:
67,262,86842,1,0,0:0:0:0:
23,182,86959,2,0,P|31:134|66:92,1,93.500001783371,10|0,0:2|0:0,0:0:0:0:
177,40,87194,2,0,P|225:48|267:83,1,93.500001783371,2|0,0:2|0:0,0:0:0:0:
335,246,87428,6,0,L|324:299,2,41.2500015735627,2|0|2,0:2|0:0|0:2,0:0:0:0:
340,231,87897,2,0,L|327:176,1,41.2500015735627,10|0,0:2|0:0,0:0:0:0:
323,178,88131,2,0,L|336:123,1,41.2500015735627,2|0,0:2|0:0,0:0:0:0:
358,58,88366,5,4,3:2:0:0:
366,44,88600,1,2,0:2:0:0:
374,27,88834,1,2,0:2:0:0:
267,56,88951,1,2,0:2:0:0:
285,128,89069,1,0,0:0:0:0:
184,152,89186,1,2,0:2:0:0:
184,152,89537,5,2,0:2:0:0:
263,368,89772,5,10,0:2:0:0:
374,27,90006,5,2,0:2:0:0:
256,192,90241,5,4,3:2:0:0:
256,192,90358,12,0,97741,3:2:0:0:
256,192,101491,12,2,105006,0:3:0:0:
35,94,105241,6,0,L|226:71,1,187.000003566742,4|0,3:2|0:0,0:0:0:0:
277,17,105592,1,0,0:0:0:0:
274,4,105709,1,10,0:2:0:0:
192,150,105944,1,2,0:2:0:0:
395,142,106178,6,0,P|468:130|490:211,1,165.000006294251,2|2,3:2|0:2,0:0:0:0:
370,353,106647,2,0,L|291:341,1,71.4999967269899,10|0,0:2|0:0,0:0:0:0:
237,243,106881,2,0,L|152:257,1,71.4999967269899,2|0,0:2|0:0,0:0:0:0:
0,337,107116,1,0,3:2:0:0:
8,345,107233,2,0,P|54:357|97:280,1,142.99999345398
57,149,107584,5,8,0:0:0:0:
9,25,107819,1,2,0:0:0:0:
189,33,108053,2,0,L|376:15,1,165.000006294251,0|0,3:2|0:0,0:0:0:0:
506,227,108522,6,0,L|413:212,1,82.5000031471254,10|2,0:2|0:2,0:0:0:0:
370,88,108756,2,0,L|355:185,1,82.5000031471254,2|0,0:2|0:0,0:0:0:0:
234,236,108991,6,0,P|161:217|127:289,1,165.000006294251,2|0,3:2|0:0,0:0:0:0:
160,352,109342,1,0,0:0:0:0:
169,350,109459,2,0,L|263:333,1,82.5000031471254,10|0,0:2|0:0,0:0:0:0:
319,231,109694,2,0,L|308:136,1,82.5000031471254
205,0,109928,6,0,L|218:152,1,142.99999345398,2|2,3:2|0:2,0:0:0:0:
99,161,110280,1,0,0:0:0:0:
97,170,110397,2,0,P|39:155|50:70,1,142.99999345398,10|2,0:2|0:2,0:0:0:0:
292,68,110866,6,0,B|337:50|370:-11|370:-11|373:44|344:84,1,214.49999018097,0|0,3:2|0:0,0:0:0:0:
395,137,111334,1,10,0:2:0:0:
277,238,111569,1,2,0:2:0:0:
425,372,111803,6,0,L|395:209,1,142.99999345398,0|2,3:2|0:2,0:0:0:0:
226,28,112272,2,0,L|240:116,1,82.5000031471254,10|0,0:2|0:0,0:0:0:0:
133,195,112506,2,0,L|232:175,1,82.5000031471254,2|0,0:2|0:0,0:0:0:0:
103,91,112741,6,0,P|30:83|-9:172,1,176,4|0,3:2|0:0,0:0:0:0:
53,352,113209,2,0,L|146:339,1,88,10|2,0:2|0:2,0:0:0:0:
206,272,113444,2,0,L|304:279,1,88,2|2,0:2|0:2,0:0:0:0:
454,284,113678,6,0,P|439:357|366:305,1,176,2|2,3:2|0:2,0:0:0:0:
355,150,114147,2,0,B|405:151|434:103|399:91|447:41|504:60,1,176,10|2,0:2|0:2,0:0:0:0:
380,13,114498,1,0,0:0:0:0:
368,17,114616,2,0,L|181:49,1,176,0|2,3:2|0:2,0:0:0:0:
89,9,114967,1,0,0:0:0:0:
90,22,115084,1,8,0:0:0:0:
126,194,115319,1,2,0:0:0:0:
257,284,115553,6,0,P|312:240|308:327,1,176,0|0,3:2|0:0,0:0:0:0:
261,366,115905,1,0,0:0:0:0:
249,364,116022,2,0,L|147:339,1,88,10|2,0:2|0:2,0:0:0:0:
100,269,116256,2,0,L|77:359,1,88,2|0,0:2|0:0,0:0:0:0:
35,216,116491,6,0,P|0:125|52:63,1,176,2|0,3:2|0:0,0:0:0:0:
192,27,116959,2,0,L|301:38,1,88,10|0,0:2|0:0,0:0:0:0:
342,81,117194,2,0,L|331:180,1,88
415,325,117428,2,0,P|516:342|445:249,1,264,2|0,3:2|0:0,0:0:0:0:
303,242,117897,6,0,L|411:256,1,88,10|0,0:2|0:0,0:0:0:0:
250,112,118131,2,0,L|238:212,1,88,2|0,0:2|0:0,0:0:0:0:
216,361,118366,6,0,L|230:267,1,88,0|0,3:2|0:0,0:0:0:0:
69,246,118600,2,0,L|50:353,1,88,2|0,0:2|0:0,0:0:0:0:
131,355,118834,1,10,0:2:0:0:
129,368,118951,1,0,0:0:0:0:
145,282,119069,2,0,L|159:195,1,88,2|0,0:2|0:0,0:0:0:0:
161,38,119303,6,0,B|61:37|106:80|5:78,1,153.999995300293,2|2,0:2|0:2,0:0:0:0:
15,78,119655,1,2,0:2:0:0:
130,121,119772,2,0,L|244:111,1,76.9999976501466,10|0,0:2|0:0,0:0:0:0:
318,27,120006,2,0,L|218:35,1,76.9999976501466,2|0,0:2|0:0,0:0:0:0:
344,149,120241,5,2,3:3:0:0:
344,149,120709,6,0,B|298:96|332:39|400:32|450:63|473:140|425:209|362:229,3,352,10|10|10|10,0:2|0:2|0:2|0:2,0:0:0:0:
81,203,122584,6,0,B|39:225|-13:243|-13:243|31:328|54:382|54:382|112:356|166:338,3,352,10|10|10|2,0:2|0:2|0:2|3:3,0:0:0:0:
320,349,124459,6,0,B|376:304|418:284|497:277|497:277|459:258|442:204|442:204|438:256|409:284,1,346.49998942566,10|0,0:2|0:0,0:0:0:0:
426,100,124928,6,0,B|372:89|372:89|438:47|490:-15|490:-15|483:40|495:87,1,296.99999093628,10|0,0:2|0:0,0:0:0:0:
311,31,125397,6,0,P|233:16|256:90,1,176,10|0,0:2|3:0,0:0:0:0:
286,150,125748,5,0,3:0:0:0:
285,160,125866,2,0,B|280:255|243:209|245:329,1,153.999995300293,10|0,0:2|0:0,0:0:0:0:
302,360,126217,1,0,0:0:0:0:
310,359,126334,2,0,L|480:333,1,153.999995300293,10|0,0:2|0:0,0:0:0:0:
411,264,126686,5,0,0:0:0:0:
403,266,126803,2,0,L|314:279,1,76.9999976501466,10|0,0:2|0:0,0:0:0:0:
93,303,127037,2,0,L|191:292,1,76.9999976501466,8|8,0:0|0:0,0:0:0:0:
250,286,127272,5,10,0:2:0:0:
0,22,127741,6,0,B|35:84|72:190|72:190|87:108|60:56,1,296.99999093628,10|8,0:2|0:3,0:0:0:0:
29,253,128209,6,0,P|44:355|114:250,1,296.99999093628,10|8,0:2|0:3,0:0:0:0:
156,125,128678,6,0,B|207:118|207:118|242:34|242:34|305:27,1,197.99999395752,10|8,0:2|0:3,0:0:0:0:
484,207,129147,6,0,B|518:291|478:360|403:334|373:286|399:222|485:210,1,296.99999093628,10|8,0:2|0:3,0:0:0:0:
501,92,129616,6,0,P|409:23|463:131,1,296.99999093628,10|8,0:2|0:3,0:0:0:0:
339,206,130084,6,0,L|129:245,1,197.99999395752,10|8,0:2|0:3,0:0:0:0:
0,0,130553,6,0,B|11:33|9:65|9:65|52:91|97:100|97:100|107:183|107:183|85:158|59:141,1,296.99999093628,10|8,0:2|0:3,0:0:0:0:
0,321,131022,6,0,P|122:329|20:265,1,296.99999093628,10|8,0:2|0:3,0:0:0:0:
130,32,131491,6,0,L|236:37,1,98.9999969787599,10|8,0:2|0:3,0:0:0:0:
453,41,131725,2,0,L|332:39,1,98.9999969787599,8|8,0:0|0:3,0:0:0:0:
289,188,131959,6,0,L|291:72,1,98.9999969787599,10|8,0:2|0:3,0:0:0:0:
283,363,132194,2,0,L|286:250,1,98.9999969787599,8|8,0:0|0:3,0:0:0:0:
456,223,132428,6,0,L|348:220,1,98.9999969787599,10|8,0:2|0:3,0:0:0:0:
217,215,132662,2,0,L|105:211,1,98.9999969787599,8|8,0:0|0:3,0:0:0:0:
28,21,132897,6,0,L|24:131,1,98.9999969787599,10|8,0:2|0:3,0:0:0:0:
13,361,133131,2,0,L|19:237,1,98.9999969787599,8|8,0:0|0:3,0:0:0:0:
132,90,133366,5,10,0:2:0:0:
180,78,133483,1,8,0:0:0:0:
227,66,133600,1,8,0:0:0:0:
275,55,133717,1,8,0:0:0:0:
306,44,133834,5,10,0:2:0:0:
338,12,133951,1,8,0:0:0:0:
376,34,134069,1,8,0:0:0:0:
383,40,134186,1,8,0:0:0:0:
304,137,134303,6,0,B|290:162|290:162|318:199|318:199|327:158|327:158|306:139,1,142.99999345398,10|0,0:3|3:0,0:0:0:0:
134,29,134772,6,0,L|118:112,1,71.4999967269899,10|0,0:3|0:0,0:0:0:0:
85,267,135006,1,2,3:2:0:0:
85,267,135241,6,0,B|69:193|69:193|3:239|3:239|33:353|33:353|95:293|191:320,1,428.999980361939,4|0,3:2|0:0,0:0:0:0:
306,294,135709,6,0,P|265:174|233:270,1,296.99999093628,10|0,0:2|0:0,0:0:0:0:
357,362,136178,6,0,L|456:345,1,88,2|0,0:2|0:0,0:0:0:0:
478,204,136412,2,0,L|494:304,1,88,0|0,3:0|0:0,0:0:0:0:
363,89,136647,6,0,B|317:76|273:7|273:7|244:34|208:56|208:56|241:54|273:58,1,264,10|0,0:2|0:0,0:0:0:0:
75,204,137116,6,0,B|60:237|77:265|77:265|77:270|77:270|82:268|82:268|113:273|144:250|144:250|150:250|150:250|149:245|149:245|166:204|136:159|136:159|131:159|131:159|132:154|132:154|111:125|127:60|127:60|129:56|129:56|131:60|131:60|144:101|174:133,1,428.999980361939,4|0,3:3|0:0,0:0:0:0:
329,279,137584,6,0,P|333:329|265:248,1,296.99999093628,10|0,0:2|0:0,0:0:0:0:
315,197,138053,2,0,L|441:212,1,98.9999969787599,2|0,0:2|0:0,0:0:0:0:
489,67,138287,2,0,L|481:179,1,98.9999969787599,0|0,3:0|0:0,0:0:0:0:
468,342,138522,6,0,L|474:252,1,65.9999979858399,2|2,0:2|0:2,0:0:0:0:
468,336,138756,6,0,L|475:239,1,65.9999979858399,2|2,0:2|0:2,0:0:0:0:
351,27,138991,6,0,B|323:-11|323:-11|282:1|282:1|222:95|222:95|198:52|159:37|159:37|191:11|234:39,1,363.000011077881,0|0,3:2|0:0,0:0:0:0:
237,216,139459,6,0,B|285:182|320:94|320:94|312:186|351:259,1,296.99999093628,10|0,0:2|0:0,0:0:0:0:
362,312,139928,6,0,P|474:345|418:243,1,296.99999093628,2|0,3:2|0:0,0:0:0:0:
223,95,140397,6,0,L|113:108,1,98.9999969787599,10|0,0:2|0:0,0:0:0:0:
90,171,140631,1,2,0:2:0:0:
91,182,140748,1,2,0:2:0:0:
40,241,140866,6,0,B|0:253|-19:304|24:354|24:354|24:361|24:361|29:357|29:357|66:360|99:323|99:323|99:313|99:313|106:317|106:317|138:274|177:273|199:302|199:302|191:333|191:333|176:316|158:310,1,428.999980361939,2|0,3:2|0:0,0:0:0:0:
348,355,141334,6,0,L|376:84,1,264,10|0,0:2|0:0,0:0:0:0:
171,36,141803,2,0,B|128:-8|48:34|75:117|149:155|217:98,1,264,2|0,3:2|0:0,0:0:0:0:
334,16,142272,6,0,L|233:36,1,88,10|0,0:2|0:0,0:0:0:0:
213,101,142506,1,2,0:2:0:0:
219,114,142623,1,0,0:0:0:0:
341,184,142741,6,0,L|317:80,1,88,0|0,3:2|0:0,0:0:0:0:
379,340,142975,2,0,L|355:236,1,88,2|0,0:0|0:0,0:0:0:0:
218,323,143209,6,0,B|158:339|158:339|85:209|85:209|27:224,1,264,8|0,0:2|0:0,0:0:0:0:
47,380,143678,2,0,L|55:262,1,88,2|0,3:2|0:0,0:0:0:0:
58,218,143912,1,2,0:2:0:0:
59,207,144030,1,2,0:2:0:0:
24,104,144147,6,0,P|8:16|89:95,1,264,10|0,0:2|0:0,0:0:0:0:
213,175,144616,6,0,L|111:153,1,88,2|0,3:2|0:0,0:0:0:0:
291,42,144850,2,0,L|272:142,1,88,2|2,0:0|0:0,0:0:0:0:
240,307,145084,5,10,0:2:0:0:
240,307,145319,2,0,L|342:329,1,88,2|0,0:2|0:0,0:0:0:0:
487,358,145553,2,0,L|377:337,1,88,2|0,3:2|0:0,0:0:0:0:
387,178,145787,6,0,L|372:285,1,88,2|0,0:0|0:0,0:0:0:0:
436,118,146022,2,0,B|378:101|378:101|508:49,1,176,8|2,0:2|0:0,0:0:0:0:
37,36,146491,6,0,B|-8:102|19:176|100:164|125:116|114:75|56:46,1,214.49999018097,2|0,3:2|0:0,0:0:0:0:
16,211,146959,6,0,B|71:232|137:312|137:312|154:284|172:266|172:266|146:247|124:224,1,264,10|0,0:2|0:0,0:0:0:0:
325,247,147428,6,0,P|341:338|240:282,1,264,2|0,3:2|0:0,0:0:0:0:
279,159,147897,6,0,P|317:149|308:249,1,176,10|0,0:2|0:0,0:0:0:0:
90,281,148366,5,10,0:2:0:0:
131,347,148483,1,2,0:2:0:0:
79,359,148600,1,2,0:2:0:0:
31,333,148717,1,2,0:2:0:0:
90,281,148834,5,10,0:2:0:0:
11,283,148951,1,2,0:2:0:0:
27,232,149068,1,2,0:2:0:0:
73,203,149186,1,2,0:2:0:0:
90,281,149303,5,10,0:2:0:0:
126,211,149420,1,2,0:2:0:0:
163,251,149537,1,2,0:2:0:0:
164,305,149654,1,2,0:2:0:0:
90,281,149772,5,10,0:2:0:0:
304,75,150241,6,0,B|327:8|327:8|415:32|415:32|372:165|372:165|440:186|440:186|462:113,1,428.999980361939,4|0,3:2|0:0,0:0:0:0:
499,266,150709,6,0,P|331:293|159:380,1,346.49998942566,10|0,0:2|0:0,0:0:0:0:
22,208,151178,6,0,P|-1:86|90:187,1,346.49998942566,2|0,3:2|0:0,0:0:0:0:
112,331,151647,6,0,B|33:383|33:383|90:230,1,230.99999295044,10|0,0:2|0:0,0:0:0:0:
113,49,152116,6,0,B|135:54|135:54|150:39|150:39|152:39|152:39|172:44|172:44|188:29|188:29|189:29|189:29|210:34|210:34|225:21|225:21|226:20|226:20|237:37|237:37|256:36|256:36|257:36|257:36|264:57|264:57|285:62|285:62|285:63|285:63|299:77|299:77|317:72|317:72|318:71|318:71|340:75|340:75|354:58|354:58|355:58|355:58|372:69|372:69|391:60|391:60|392:60|392:60|406:75|406:75|428:71|428:71|429:72|429:72|443:89|443:89|465:83|465:83|466:84|466:84|481:100|481:100|502:96,1,477.14378123724,4|0,3:3|0:0,0:0:0:0:
505,181,152584,6,0,P|356:218|191:355,1,346.49998942566,10|0,0:2|0:0,0:0:0:0:
33,228,153053,6,0,B|138:246|169:340|120:402|49:367|0:319|101:206,1,346.49998942566,2|0,3:2|0:0,0:0:0:0:
156,76,153522,6,0,L|107:180,1,98.9999969787599,10|0,0:1|0:0,0:0:0:0:
88,42,153756,2,0,L|32:157,1,98.9999969787599,2|0,0:1|0:0,0:0:0:0:
238,37,153991,6,0,B|306:6|306:6|395:120|395:120|489:74,1,296.99999093628,4|0,3:2|0:0,0:0:0:0:
388,222,154459,6,0,P|478:292|455:177,1,296.99999093628,10|0,0:2|0:0,0:0:0:0:
158,157,154928,6,0,B|115:84|131:12|131:12|165:87|223:144,1,296.99999093628,2|0,3:2|0:0,0:0:0:0:
269,358,155397,6,0,L|285:247,1,88,10|0,0:2|0:0,0:0:0:0:
305,113,155631,2,0,L|293:200,1,88
181,351,155866,6,0,B|154:311|140:291|140:291|99:316|99:316|95:313|95:313|94:318|94:318|31:356|31:356|-7:280|-7:280|19:268|19:268|20:262|20:262|24:266|24:266|91:232,1,379.500007238388,4|0,3:3|0:0,0:0:0:0:
164,127,156334,6,0,P|82:47|101:172,1,296.99999093628,10|0,0:2|0:0,0:0:0:0:
225,251,156803,6,0,B|300:262|300:262|386:154|386:154|493:167,1,296.99999093628,2|0,3:2|0:0,0:0:0:0:
496,246,157272,6,0,B|509:273|509:273|483:301|483:301|470:267|470:267|493:245,1,131.99999597168,10|0,0:2|0:0,0:0:0:0:
495,29,157741,6,0,P|362:56|177:145,1,330,4|0,3:2|0:0,0:0:0:0:
79,303,158209,6,0,P|151:362|143:224,1,296.99999093628,10|0,0:2|0:0,0:0:0:0:
42,66,158678,6,0,B|21:43|-1:26|-1:26|162:53|162:53|117:70|84:103,1,296.99999093628,2|0,3:2|0:0,0:0:0:0:
11,236,159147,6,0,L|44:132,1,98.9999969787599,10|0,0:2|0:0,0:0:0:0:
83,256,159381,2,0,L|115:153,1,98.9999969787599
261,93,159616,6,0,B|266:95|266:95|266:90|266:90|283:77|283:77|283:72|283:72|288:74|288:74|305:61|305:61|310:63|310:63|310:58|310:58|326:46|326:46|326:41|326:41|332:42|332:42|335:40|335:40|352:44|352:44|354:49|354:49|357:45|357:45|378:50|378:50|382:47|382:47|384:52|384:52|404:56|404:56|406:62|406:62|410:58|410:58|415:59|415:59|418:75|418:75|423:77|423:77|419:81|419:81|422:102|422:102|418:105|418:105|423:107|423:107|427:128|427:128|432:130|432:130|428:134|428:134|431:155|431:155|428:159|428:159|432:161|432:161|433:164|433:164|451:165|451:165|454:160|454:160|457:165|457:165|478:166|478:166|481:170|481:170|484:166|484:166|505:167|505:167|508:162|508:162|511:167|511:167|507:146|507:146|511:143|511:143|506:141|506:141|502:120|502:120|497:118|497:118|501:113|501:113|497:93|497:93|501:89|501:89|496:87|496:87|492:66|492:66|487:64|487:64|491:61|491:61|487:40|487:40|491:36|491:36|485:26|485:26|483:23,1,593.999981872559,4|0,3:3|0:0,0:0:0:0:
346,139,160084,6,0,B|343:223|325:296|325:296|391:333|391:333|373:300|371:272,1,296.99999093628,10|0,0:2|0:0,0:0:0:0:
249,345,160553,6,0,B|172:356|171:356|172:355|172:355|151:206|151:206|60:216,1,296.99999093628,2|0,3:2|0:0,0:0:0:0:
83,377,161022,6,0,L|74:261,1,88,10|0,0:1|0:0,0:0:0:0:
12,380,161256,2,0,L|3:264,1,88,2|0,0:1|0:0,0:0:0:0:
11,105,161491,6,0,P|50:84|99:101,1,82.5000031471254,10|2,0:2|0:2,0:0:0:0:
165,143,161725,1,2,0:2:0:0:
83,213,161842,1,2,0:2:0:0:
243,240,161959,6,0,L|156:225,1,82.5000031471254,10|0,0:2|0:0,0:0:0:0:
397,267,162194,2,0,L|309:253,1,82.5000031471254,0|0,3:0|0:0,0:0:0:0:
500,106,162428,6,0,P|434:36|426:143,1,247.500009441376,10|0,0:2|0:0,0:0:0:0:
232,33,162897,6,0,P|278:-2|302:80,1,165.000006294251,10|0,0:2|0:0,0:0:0:0:
28,254,163366,5,10,0:2:0:0:
109,269,163483,1,2,0:2:0:0:
191,285,163600,1,2,0:2:0:0:
191,285,163717,1,2,0:2:0:0:
250,201,163834,5,10,0:2:0:0:
250,201,163951,1,2,0:2:0:0:
332,190,164068,1,2,0:2:0:0:
414,179,164185,1,2,0:2:0:0:
508,118,164303,5,10,0:2:0:0:
509,19,164420,1,8,0:0:0:0:
411,35,164537,1,10,0:0:0:0:
417,134,164655,1,8,0:0:0:0:
377,293,164772,6,0,L|404:190,1,82.5000031471254,8|0,0:0|0:0,0:0:0:0:
293,56,165006,2,0,L|308:152,1,82.5000031471254,10|0,0:0|0:0,0:0:0:0:
254,304,165241,5,6,3:2:0:0:
246,309,165358,1,0,0:0:0:0:
170,354,165475,1,2,0:2:0:0:
159,352,165592,1,0,0:0:0:0:
0,286,165709,6,0,L|103:302,1,93.500001783371,10|0,0:2|0:0,0:0:0:0:
312,241,165944,2,0,L|415:257,1,93.500001783371,2|0,0:2|0:0,0:0:0:0:
492,152,166178,5,2,3:2:0:0:
500,132,166295,1,2,0:2:0:0:
423,44,166412,1,2,0:2:0:0:
431,26,166530,1,2,0:2:0:0:
274,122,166647,6,0,L|383:103,1,93.500001783371,10|0,0:2|0:0,0:0:0:0:
95,44,166881,2,0,L|207:31,1,93.500001783371,2|0,0:2|0:0,0:0:0:0:
187,226,167116,6,0,L|174:121,1,93.500001783371,0|0,3:2|0:0,0:0:0:0:
4,45,167350,1,2,0:2:0:0:
37,115,167467,1,0,0:0:0:0:
31,200,167584,2,0,L|19:239,8,23.3750004458428,10|0|0|0|0|0|0|0|2,0:2|0:0|0:0|0:0|0:0|0:0|0:0|0:0|0:2,0:0:0:0:
81,274,167936,1,2,0:2:0:0:
195,353,168053,6,0,L|300:344,1,93.500001783371,0|0,3:2|0:0,0:0:0:0:
411,349,168287,2,0,L|445:370,8,23.3750004458428,2|0|0|0|0|0|0|0|10,0:2|0:0|0:0|0:0|0:0|0:0|0:0|0:0|0:2,0:0:0:0:
346,278,168639,1,0,0:0:0:0:
386,203,168756,2,0,B|419:206|419:206|471:157|471:157|519:162,1,140.250002675057,2|0,0:2|0:0,0:0:0:0:
512,147,168991,6,0,P|514:100|493:45,1,93.500001783371,2|0,3:2|0:0,0:0:0:0:
363,9,169225,1,2,0:2:0:0:
311,68,169342,1,0,0:0:0:0:
258,124,169459,2,0,L|148:97,1,93.500001783371,10|0,0:2|0:0,0:0:0:0:
34,1,169694,2,0,L|137:29,1,93.500001783371,2|0,0:2|0:0,0:0:0:0:
312,186,169928,5,2,3:2:0:0:
351,250,170045,1,2,0:2:0:0:
315,318,170162,2,0,P|265:329|212:322,1,93.500001783371,2|2,0:2|0:2,0:0:0:0:
15,253,170397,2,0,P|65:247|117:259,1,93.500001783371,10|0,0:2|0:0,0:0:0:0:
152,312,170631,1,2,0:2:0:0:
147,324,170748,1,2,0:2:0:0:
23,172,170866,6,0,L|36:69,1,93.500001783371,2|0,3:2|0:0,0:0:0:0:
130,28,171100,2,0,L|137:-12,8,23.3750004458428,2|0|0|0|0|0|0|0|10,0:2|0:0|0:0|0:0|0:0|0:0|0:0|0:0|0:2,0:0:0:0:
193,103,171451,1,0,0:0:0:0:
286,66,171569,2,0,B|325:58|325:58|351:3|351:3|408:-2,1,140.250002675057,2|0,0:2|0:0,0:0:0:0:
403,2,171803,6,0,P|421:50|421:103,1,93.500001783371,2|0,3:2|0:0,0:0:0:0:
376,293,172037,2,0,P|378:246|395:203,1,93.500001783371,2|0,0:2|0:0,0:0:0:0:
476,160,172272,1,10,0:2:0:0:
490,162,172389,1,0,0:0:0:0:
344,135,172506,2,0,L|229:118,1,93.500001783371,2|0,0:2|0:0,0:0:0:0:
124,22,172741,5,6,3:2:0:0:
127,35,172858,1,0,0:0:0:0:
42,104,172975,1,2,0:2:0:0:
45,117,173092,1,0,0:0:0:0:
118,218,173209,6,0,L|140:107,1,93.500001783371,10|0,0:2|0:0,0:0:0:0:
7,338,173444,2,0,L|30:226,1,93.500001783371,2|0,0:2|0:0,0:0:0:0:
226,187,173678,5,2,3:2:0:0:
240,191,173795,1,2,0:2:0:0:
311,266,173912,1,2,0:2:0:0:
325,262,174029,1,2,0:2:0:0:
421,171,174147,6,0,L|313:184,1,93.500001783371,10|0,0:2|0:0,0:0:0:0:
477,114,174381,2,0,L|472:20,1,93.500001783371,2|0,0:2|0:0,0:0:0:0:
491,226,174616,6,0,L|501:347,1,93.500001783371,0|0,3:2|0:0,0:0:0:0:
396,368,174850,1,2,0:2:0:0:
322,310,174967,1,0,0:0:0:0:
240,348,175084,2,0,L|252:387,8,23.3750004458428,10|0|0|0|0|0|0|0|2,0:2|0:0|0:0|0:0|0:0|0:0|0:0|0:0|0:2,0:0:0:0:
174,295,175436,1,2,0:2:0:0:
23,365,175553,6,0,L|123:345,1,93.500001783371,0|0,3:2|0:0,0:0:0:0:
153,214,175787,2,0,L|145:173,8,23.3750004458428,2|0|0|0|0|0|0|0|10,0:2|0:0|0:0|0:0|0:0|0:0|0:0|0:0|0:2,0:0:0:0:
86,273,176139,1,0,0:0:0:0:
3,208,176256,2,0,B|25:176|25:176|-2:115|-2:115|29:75,1,140.250002675057,2|0,0:2|0:0,0:0:0:0:
27,66,176491,6,0,P|76:59|126:35,1,93.500001783371,2|0,3:2|0:0,0:0:0:0:
288,20,176725,1,2,0:2:0:0:
265,93,176842,1,0,0:0:0:0:
322,152,176959,6,0,L|425:132,1,93.500001783371,10|0,0:2|0:0,0:0:0:0:
185,116,177194,2,0,L|199:212,1,93.500001783371,2|0,0:2|0:0,0:0:0:0:
217,320,177428,6,0,L|225:374,2,44,2|0|2,0:2|0:0|0:2,0:0:0:0:
214,302,177897,2,0,L|225:236,1,44,10|0,0:2|0:0,0:0:0:0:
217,243,178131,2,0,L|207:184,1,44,2|0,0:2|0:0,0:0:0:0:
256,97,178366,5,4,3:2:0:0:
262,82,178600,1,10,0:2:0:0:
267,68,178834,1,2,0:2:0:0:
168,107,178951,1,2,0:2:0:0:
100,152,179069,1,8,0:0:0:0:
47,68,179186,1,2,0:2:0:0:
47,68,179537,5,2,0:2:0:0:
426,201,179772,5,10,0:2:0:0:
122,252,180006,5,2,0:2:0:0:
258,130,180241,5,2,0:0:0:0:
